Tags
Language
Tags

Sunnyland Slim & Johnny Shines - The Complete Blue Horizon Sessions (2008)

Posted By: Designol
Sunnyland Slim & Johnny Shines - The Complete Blue Horizon Sessions (2008)

Sunnyland Slim & Johnny Shines - The Complete Blue Horizon Sessions (2008)
EAC | FLAC | Image (Cue&Log) ~ 506 Mb | Mp3 (CBR320) ~ 205 Mb | Scans included
Chicago Blues, Piano Blues | Label: Blue Horizon/Columbia | # 88697192172 | 01:18:35

Combining sessions that blues pianist Sunnyland Slim and blues guitarist Johnny Shines recorded separately on the same day in Chicago in 1968 for the Blue Horizon imprint, this interesting little set shows two blues veterans doing what it was they did, which was, in part, to push and pull the Delta blues one small step closer to being in the modern urban world. The Slim sides, several of which are new to digital disc, are a bit more interesting than the Shines sides, but only by degree. Slim's songs can appear on the surface to be tossed-off exercises in the usual blues clichés, but they were actually carefully written, while Shines worked similar territory, giving old blues figures a slightly ironic twist. Since both played at one time or another with Robert Johnson, and both straddle the old and new worlds of the blues as it transfigured into an electric and urban form, it makes perfect sense to stick these two sessions together in one package.

Review by Steve Leggett, Allmusic.com

This February 2008 UK released 23-track CD features two very rare blues albums in their entirety with three previously unreleased outtakes from the 1968 sessions - and all of it in digitally remastered form.

Here's a detailed breakdown (78:36 minutes):
Tracks 1 to 6, 8, 9, 11 and 12 are the 10-track SUNNYLAND SLIM album "Midnight Jump" issued in January 1969 on Blue Horizon S 7-63213 in the UK; it wasn't issued initially in the USA, but was re-issued in 1972 in the USA with a different cover and name - it was called "Blues Masters Vol.8" and was on Blue Horizon BM 4608

Tracks 14 to 23 are the 10-track JOHNNY SHINES album "Last Night's Dream" issued in January 1969 on Blue Horizon S 7-63212 in the UK; like the Sunnyland Slim album, it was also re-issued only in 1972 in the USA with a different cover and name - "Blues Masters Vol.7" on Blue Horizon BM 4607

The three outtakes issued on this CD for the first time are:
Track 7, "Get To My Baby" [Take 2 - Previously Unreleased]
Track 10, "Midnight Jump" [Take 3 - Previously Unreleased]
Track 13, "Heartache" [Alternate Version - Previously Unreleased]
(All tracks were recorded at Chess's "Ter-Mar Recording Studios" in Chicago on 10 June 1968 - corrected from the album's sleeve notes which mistakenly credited the recording date as May 1968)

The band for both sessions were:
SUNNYLAND SLIM (Albert Luandrew) on Piano & Vocals (Tracks 1 to 13 only)
JOHNNY SHINES on Guitar (All tracks except 3, 5 and 13)
WALTER "SHAKEY" HORTON on Harmonica (All tracks except 3 and 13)
OTIS SPANN on Piano (Track 19 only)
WILLIE DIXON on Upright Bass (All tracks except 13 to 17, 20, 22 and 23)
CLIFTON JAMES on Drums (All tracks except 13, 14, 17 and 22)

The original master tapes were transferred and remastered by SEAN LYNCH at Torch Music in Berkshire and SIMON WOOD at Dubmaster Studios in Hampshire and while Sunnyland Slim's album is clean, clear and ballsy sounding - the Johnny Shines album is very hissy on a good few of the tracks. Don't get me wrong - his music is very good - eerie almost - but the hiss level and tape glitches on "I Don't Know" and "I Had A Good Home" do detract a little (four session reels are missing).

The 16-page booklet is written by label boss MIKE VERNON and features detailed biographies on the two main men and each of the session players, album recording details, photos of the original LP covers - all of it in the usual card wrap on the outside - superbly presented as ever.

Musically, this is a deceptive release - at first I honestly thought it was all a little dull - merely workmanlike - but after a few listens - it's eaten into me - especially the Shines tracks. Badly recorded or not - they're wonderfully evocative of lone-guitar-blues - the ghost of Robert Johnson hanging over every long-fingered string bend. And even more enticing is that 17 of the 23 tracks are self-penned by both artists (the other 6 are covers) - which is impressive indeed given their overall quality.

Both men had great voices and are complimented to the ninth degree by both DIXON and HORTON. Highlights include the Harmonica Driven instrumental "Lowland Blues" and a mighty Johnny Shines version of Robert Johnson's "Baby Don't You Think I Know (aka Sweet Home Chicago)" with Horton again blowing up some great Harmonica fills. The shuffle of "I Will Be Kind To You" is as infectious as blues gets - just lovely. Can't stop playing it. The three outtakes are complete versions too and it's hard to know why Take 3 was used and not Take 2 - they're equal to each other.

To sum up - yet another classy release from the Blue Horizon camp - in a long line of them. Give this CD a chance - it has rewards aplenty - it really does. Recommended.

Review by Mark Barry, Amazon.com Top Reviewer

Sunnyland Slim & Johnny Shines - The Complete Blue Horizon Sessions (2008)



Sunnyland Slim originally released on the album - Sunnyland Slim - Midnight Jump + 3 tracks previously unreleased (7, 10, 13)
Johnny Shines originally released on th album - Johnny Shines - Last Night's Dream

Tracklist:

01. Sunnyland Slim - Layin' In My Cell, Sleepin' (3:14)
02. Sunnyland Slim - I Am The Blues (4:15)
03. Sunnyland Slim - Sunnyland Special (3:46)
04. Sunnyland Slim - Heartache (3:05)
05. Sunnyland Slim - Lowland Blues (4:41)
06. Sunnyland Slim - Stepmother (2:59)
07. Sunnyland Slim - Get To My Baby (Take 2) (2:43)
08. Sunnyland Slim - Get To My Baby (Take 3) (3:11)
09. Sunnyland Slim - Stella Mae (3:44)
10. Sunnyland Slim - Midnight Jump (Take 3) (3:35)
11. Sunnyland Slim - Midnight Jump (3:19)
12. Sunnyland Slim - Depression Blues (2:53)
13. Sunnyland Slim - Heartache (Alt) (2:46)
14. Johnny Shines - Solid Gold (3:14)
15. Johnny Shines - From Dark 'Til Dawn (4:07)
16. Johnny Shines - I Will Be Kind To You (4:05)
17. Johnny Shines - Last Night's Dream (3:50)
18. Johnny Shines - Baby Don't You Think I Know (2:56)
19. Johnny Shines - Pipeline Blues (3:01)
20. Johnny Shines - I Don't Know (3:32)
21. Johnny Shines - Black Panther (2:53)
22. Johnny Shines - I Had A Good Home (3:16)
23. Johnny Shines - Mean Fisherman (3:32)


Exact Audio Copy V0.99 prebeta 4 from 23. January 2008

Отчёт EAC об извлечении, выполненном 6. января 2009, 1:45

Sunnyland Slim & Johnny Shines / The Complete Blue Horizon Sessions

Дисковод: HL-DT-STRW/DVD GCC-4522B Adapter: 1 ID: 1

Режим чтения : Достоверность
Использование точного потока : Да
Отключение кэша аудио : Да
Использование указателей C2 : Нет

Коррекция смещения при чтении : 6
Способность читать области Lead-in и Lead-out : Нет
Заполнение пропущенных сэмплов тишиной : Да
Удаление блоков с тишиной в начале и конце : Нет
При вычислениях CRC использовались нулевые сэмплы : Да
Интерфейс : Установленный внешний ASPI-интерфейс

Выходной формат : Пользовательский кодировщик
Выбранный битрейт : 1024 kBit/s
Качество : Высокий
Добавление ID3-тэга : Нет
Утилита сжатия : C:\Downloads\Программы\flac-1.1.1-win\bin\flac.exe
Дополнительные параметры : -V -8 -T "artist=%a" -T "title=%t" -T "album=%g" -T "date=%y" -T "tracknumber=%n" -T "genre=%m" %s


TOC извлечённого CD

Трек | Старт | Длительность | Начальный сектор | Конечный сектор
––––––––––––––––––––––––––––––––––-
1 | 0:00.00 | 3:13.62 | 0 | 14536
2 | 3:13.62 | 4:14.38 | 14537 | 33624
3 | 7:28.25 | 3:46.08 | 33625 | 50582
4 | 11:14.33 | 3:04.49 | 50583 | 64431
5 | 14:19.07 | 4:41.09 | 64432 | 85515
6 | 19:00.16 | 2:58.43 | 85516 | 98908
7 | 21:58.59 | 2:43.09 | 98909 | 111142
8 | 24:41.68 | 3:11.14 | 111143 | 125481
9 | 27:53.07 | 3:43.68 | 125482 | 142274
10 | 31:37.00 | 3:35.07 | 142275 | 158406
11 | 35:12.07 | 3:18.44 | 158407 | 173300
12 | 38:30.51 | 2:53.08 | 173301 | 186283
13 | 41:23.59 | 2:45.54 | 186284 | 198712
14 | 44:09.38 | 3:13.55 | 198713 | 213242
15 | 47:23.18 | 4:06.66 | 213243 | 231758
16 | 51:30.09 | 4:04.51 | 231759 | 250109
17 | 55:34.60 | 3:49.67 | 250110 | 267351
18 | 59:24.52 | 2:55.70 | 267352 | 280546
19 | 62:20.47 | 3:00.48 | 280547 | 294094
20 | 65:21.20 | 3:31.54 | 294095 | 309973
21 | 68:52.74 | 2:53.25 | 309974 | 322973
22 | 71:46.24 | 3:16.21 | 322974 | 337694
23 | 75:02.45 | 3:32.17 | 337695 | 353611


Характеристики диапазона извлечения и сообщения об ошибках

Выбранный диапазон

Имя файла J:\Новая папка\Rip\Sunnyland Slim & Johnny Shines - The Complete Blue Horizon Sessions.wav

Пиковый уровень 100.0 %
Качество диапазона 100.0 %
CRC теста 91914A90
CRC копии 91914A90
Копирование… OK

Ошибок не произошло


AccurateRip: сводка

Трек 1 нет в базе данных
Трек 2 нет в базе данных
Трек 3 нет в базе данных
Трек 4 нет в базе данных
Трек 5 нет в базе данных
Трек 6 нет в базе данных
Трек 7 нет в базе данных
Трек 8 нет в базе данных
Трек 9 нет в базе данных
Трек 10 нет в базе данных
Трек 11 нет в базе данных
Трек 12 нет в базе данных
Трек 13 нет в базе данных
Трек 14 нет в базе данных
Трек 15 нет в базе данных
Трек 16 нет в базе данных
Трек 17 нет в базе данных
Трек 18 нет в базе данных
Трек 19 нет в базе данных
Трек 20 нет в базе данных
Трек 21 нет в базе данных
Трек 22 нет в базе данных
Трек 23 нет в базе данных

Ни одного трека нет в базе AccurateRip

Конец отчёта

[CUETools log; Date: 15.04.2018 15:56:13; Version: 2.1.4]
[CTDB TOCID: 8SHcVd_iNMXhv4Hc8fAHEduvsbg-] found.
Track | CTDB Status
1 | (2/2) Accurately ripped
2 | (2/2) Accurately ripped
3 | (2/2) Accurately ripped
4 | (2/2) Accurately ripped
5 | (2/2) Accurately ripped
6 | (2/2) Accurately ripped
7 | (2/2) Accurately ripped
8 | (2/2) Accurately ripped
9 | (2/2) Accurately ripped
10 | (2/2) Accurately ripped
11 | (2/2) Accurately ripped
12 | (2/2) Accurately ripped
13 | (2/2) Accurately ripped
14 | (2/2) Accurately ripped
15 | (2/2) Accurately ripped
16 | (2/2) Accurately ripped
17 | (2/2) Accurately ripped
18 | (2/2) Accurately ripped
19 | (2/2) Accurately ripped
20 | (2/2) Accurately ripped
21 | (2/2) Accurately ripped
22 | (2/2) Accurately ripped
23 | (2/2) Accurately ripped
[AccurateRip ID: 0041aeb8-04412733-47126a17] found.
Track [ CRC | V2 ] Status
01 [c8dd4a46|0c91c84a] (8+0/8) Accurately ripped
02 [e886934f|f58c8f00] (8+0/8) Accurately ripped
03 [30f76559|01285094] (8+0/8) Accurately ripped
04 [be8cae20|b3569b97] (8+0/8) Accurately ripped
05 [0838cde8|8be414c4] (8+0/8) Accurately ripped
06 [31b4960d|04b3f851] (8+0/8) Accurately ripped
07 [f0b2493e|349d419b] (8+0/8) Accurately ripped
08 [19a50b6a|186cd9ed] (8+0/8) Accurately ripped
09 [dbd44032|3e7b01d7] (8+0/8) Accurately ripped
10 [3f2c0b36|ea26b709] (8+0/8) Accurately ripped
11 [216f0728|d292f2fc] (8+0/8) Accurately ripped
12 [5557e5c4|28c1fbc3] (8+0/8) Accurately ripped
13 [38effd81|bf42c116] (8+0/8) Accurately ripped
14 [62950cc7|bc19d4cb] (8+0/8) Accurately ripped
15 [9db570f4|f5717745] (8+0/8) Accurately ripped
16 [59f65411|4bae4146] (8+0/8) Accurately ripped
17 [ef359a9d|4654b172] (8+0/8) Accurately ripped
18 [2eba8d58|5dff291b] (8+0/8) Accurately ripped
19 [d0bc15ae|4fc3d5c9] (8+0/8) Accurately ripped
20 [bc8e6592|4a372d1a] (8+0/8) Accurately ripped
21 [8bd7457e|1af7b92c] (8+0/8) Accurately ripped
22 [323feab8|b709b18a] (8+0/8) Accurately ripped
23 [4f66e0eb|565394a2] (8+0/8) Accurately ripped

Track Peak [ CRC32 ] [W/O NULL] [ LOG ]
– 100,0 [91914A90] [944AA4EC] CRC32
01 100,0 [B96AF32D] [F6E60AD4]
02 100,0 [A1739303] [73B9BA76]
03 100,0 [88BA2658] [DA516613]
04 100,0 [08897553] [619CD004]
05 100,0 [BA2E0B16] [0047BEA9]
06 100,0 [9E659389] [7D3F4799]
07 100,0 [C57F3508] [A119A790]
08 100,0 [979E1A0F] [5D0CB867]
09 100,0 [CF3B7D8C] [466851FE]
10 100,0 [3AEFEBA8] [8840CB6D]
11 100,0 [AC022C15] [7CB93B6A]
12 100,0 [C027DCD0] [BCA60362]
13 100,0 [B72E2E4D] [00871AA6]
14 100,0 [7896975A] [DBE0795E]
15 100,0 [9C0690B9] [ADF8B638]
16 100,0 [77E0D222] [5C633BF1]
17 100,0 [2FE77402] [7E542FC0]
18 100,0 [0F7A9A1A] [E6801813]
19 100,0 [92410EB7] [FFB66BDE]
20 100,0 [010BEC04] [38DE60A6]
21 100,0 [846AFB2D] [4722E7DB]
22 100,0 [75E01AB2] [DC4A6EAC]
23 100,0 [73A92746] [6398A8B4]

foobar2000 1.2 / Dynamic Range Meter 1.1.1
log date: 2018-04-15 16:04:16

––––––––––––––––––––––––––––––––––––––––
Analyzed: Sunnyland Slim & Johnny Shines / The Complete Blue Horizon Sessions
––––––––––––––––––––––––––––––––––––––––

DR Peak RMS Duration Track
––––––––––––––––––––––––––––––––––––––––
DR9 0.00 dB -10.46 dB 3:14 01-Sunnyland Slim / Layin' In My Cell, Sleepin'
DR8 0.00 dB -10.62 dB 4:15 02-Sunnyland Slim / I Am The Blues
DR9 0.00 dB -11.20 dB 3:46 03-Sunnyland Slim / Sunnyland Special
DR9 0.00 dB -11.59 dB 3:05 04-Sunnyland Slim / Heartache
DR9 0.00 dB -10.80 dB 4:41 05-Sunnyland Slim / Lowland Blues
DR8 0.00 dB -9.98 dB 2:59 06-Sunnyland Slim / Stepmother
DR10 0.00 dB -11.35 dB 2:43 07-Sunnyland Slim / Get To My Baby (Take 2)
DR9 0.00 dB -9.97 dB 3:11 08-Sunnyland Slim / Get To My Baby (Take 3)
DR9 0.00 dB -10.77 dB 3:44 09-Sunnyland Slim / Stella Mae
DR9 0.00 dB -10.96 dB 3:35 10-Sunnyland Slim / Midnight Jump (Take 3)
DR9 0.00 dB -11.34 dB 3:19 11-Sunnyland Slim / Midnight Jump
DR7 0.00 dB -9.48 dB 2:53 12-Sunnyland Slim / Depression Blues
DR10 0.00 dB -12.95 dB 2:46 13-Sunnyland Slim / Heartache (Alt)
DR8 0.00 dB -9.90 dB 3:14 14-Johnny Shines / Solid Gold
DR7 0.00 dB -10.14 dB 4:07 15-Johnny Shines / From Dark 'Til Dawn
DR7 0.00 dB -9.30 dB 4:05 16-Johnny Shines / I Will Be Kind To You
DR8 0.00 dB -10.58 dB 3:50 17-Johnny Shines / Last Night's Dream
DR7 0.00 dB -8.27 dB 2:56 18-Johnny Shines / Baby Don't You Think I Know
DR7 0.00 dB -8.28 dB 3:01 19-Johnny Shines / Pipeline Blues
DR7 0.00 dB -10.01 dB 3:32 20-Johnny Shines / I Don't Know
DR8 0.00 dB -9.01 dB 2:53 21-Johnny Shines / Black Panther
DR7 0.00 dB -10.41 dB 3:16 22-Johnny Shines / I Had A Good Home
DR7 0.00 dB -8.77 dB 3:32 23-Johnny Shines / Mean Fisherman
––––––––––––––––––––––––––––––––––––––––

Number of tracks: 23
Official DR value: DR8

Samplerate: 44100 Hz
Channels: 2
Bits per sample: 16
Bitrate: 854 kbps
Codec: FLAC
================================================================================

Sunnyland Slim & Johnny Shines - The Complete Blue Horizon Sessions (2008)

Sunnyland Slim & Johnny Shines - The Complete Blue Horizon Sessions (2008)

All thanks to original releaser - рмх222

More interesting music in My Blog