Subcategories

Supermax - Electricity (1983)

Posted By: v3122
Supermax - Electricity (1983)

Supermax - Electricity (1983)
EAC | Flac(Image) + Cue + Log & MP3 CBR 320Kbps
Ariola, 74321 12518 2 | ~ 260 or 79 Mb | Scans(png) -> 157 Mb
Reggae, Funk, Disco

Supermax was a project of Austrian musician and producer, Kurt Hauenstein (1949–2011), best known for "Lovemachine", a 1977 German #4 single, that peaked at #6 in Switzerland, #9 in Austria and #96 in US.

The first members of the band were Kurt Hauenstein (Mini Moog, vocals), Hans Ochs (guitar), Ken Taylor (bass guitar), Lothar Krell (keyboards), Peter Koch (percussion), Jürgen Zöller (drums) and the singers Cee Cee Cobb and Jean Graham. After Ken Taylor left the band in 1979, Kurt Hauenstein returned back to his origin music instrument, the bass guitar. Later, Bernadet Onore Eben and Jessica Hauenstein, the daughter of Kurt Hauenstein, joined the group as backing vocal singers.

In 1981, Supermax toured as the first mixed-race band through South Africa for 21 gigs. Despite warnings and death threats, Supermax finished the tour, but this made some countries refuse permits for entry, and consequently the group was black-listed by some political organizations.

In 1983, Supermax was invited to play as special guest from Europe at the Reggae Sunsplash Festival in Montego Bay, Jamaica…

~ wiki
Supermax - Electricity (1983):

Supermax - Electricity (1983)

Tracklist:

01. LoversNight 05:48
02. Future Time 06:22
03. Love Is Deeper 03:53
04. Funk It Up 05:06
05. Show Me Your Love 04:00
06. Body Heat 08:14
07. Coconut Reggae 03:48
08. ElectriCity 04:18

Musicians:

Kurt Hauenstein - Bass, Keyboards, Lead Vocals, Percussion, Guitar, Backing Vocals
Hannes Wildner, Rainer Marz - Guitar
Daniel Ford - Percussion
Tommy Schmitt - Synthesizer, Piano
Horst G. Fellner - Drums
Ingrid Welser, Larry London, Marion Welser, Tommy Schmitt - Backing Vocals


Converted to Image (CUETools 2.1.4)

Exact Audio Copy V1.0 beta 3 from 29. August 2011

EAC extraction logfile from 16. March 2017, 16:04

Supermax / Electricity (74321 12518 2)

Used drive : SONY CD-RW CRX210E1 Adapter: 0 ID: 0

Read mode : Secure
Utilize accurate stream : Yes
Defeat audio cache : Yes
Make use of C2 pointers : No

Read offset correction : 6
Overread into Lead-In and Lead-Out : No
Fill up missing offset samples with silence : Yes
Delete leading and trailing silent blocks : No
Null samples used in CRC calculations : Yes
Used interface : Native Win32 interface for Win NT & 2000
Gap handling : Appended to previous track

Used output format : User Defined Encoder
Selected bitrate : 768 kBit/s
Quality : High
Add ID3 tag : No
Command line compressor : C:\Program Files\FLAC Frontend\tools\flac.exe
Additional command line options : -V -8 -T "Genre=%genre%" -T "Artist=%artist%" -T "Title=%title%" -T "Album=%albumtitle%" -T "Date=%year%" -T "Tracknumber=%tracknr%" -T "Comment=%comment%" %source%


TOC of the extracted CD

Track | Start | Length | Start sector | End sector
––––––––––––––––––––––––––––-
1 | 0:00.33 | 5:48.00 | 33 | 26132
2 | 5:48.33 | 6:22.25 | 26133 | 54807
3 | 12:10.58 | 3:53.25 | 54808 | 72307
4 | 16:04.08 | 5:06.00 | 72308 | 95257
5 | 21:10.08 | 4:00.00 | 95258 | 113257
6 | 25:10.08 | 8:14.00 | 113258 | 150307
7 | 33:24.08 | 3:48.00 | 150308 | 167407
8 | 37:12.08 | 4:18.20 | 167408 | 186777


Track 1

Filename D:\Share\Supermax - 1983 - Electricity (Ariola 74321 12518 2 Germany)\01 - LoversNight.wav

Pre-gap length 0:00:02.33

Peak level 97.6 %
Extraction speed 4.0 X
Track quality 100.0 %
Test CRC 980EF13E
Copy CRC 980EF13E
Accurately ripped (confidence 9) [0767CDB3] (AR v2)
Copy OK

Track 2

Filename D:\Share\Supermax - 1983 - Electricity (Ariola 74321 12518 2 Germany)\02 - Future Time.wav

Pre-gap length 0:00:02.58

Peak level 98.7 %
Extraction speed 4.2 X
Track quality 100.0 %
Test CRC 6D229967
Copy CRC 6D229967
Accurately ripped (confidence 9) [AAEB3550] (AR v2)
Copy OK

Track 3

Filename D:\Share\Supermax - 1983 - Electricity (Ariola 74321 12518 2 Germany)\03 - Love Is Deeper.wav

Pre-gap length 0:00:02.73

Peak level 88.2 %
Extraction speed 3.9 X
Track quality 100.0 %
Test CRC 8C002403
Copy CRC 8C002403
Accurately ripped (confidence 9) [EBC7D64E] (AR v2)
Copy OK

Track 4

Filename D:\Share\Supermax - 1983 - Electricity (Ariola 74321 12518 2 Germany)\04 - Funk It Up.wav

Pre-gap length 0:00:02.68

Peak level 96.3 %
Extraction speed 4.4 X
Track quality 100.0 %
Test CRC 3E35DA59
Copy CRC 3E35DA59
Accurately ripped (confidence 9) [3FE7A366] (AR v2)
Copy OK

Track 5

Filename D:\Share\Supermax - 1983 - Electricity (Ariola 74321 12518 2 Germany)\05 - Show Me Your Love.wav

Pre-gap length 0:00:02.30

Peak level 88.8 %
Extraction speed 4.7 X
Track quality 99.9 %
Test CRC 08258A67
Copy CRC 08258A67
Accurately ripped (confidence 9) [F4EDF90A] (AR v2)
Copy OK

Track 6

Filename D:\Share\Supermax - 1983 - Electricity (Ariola 74321 12518 2 Germany)\06 - Body Heat.wav

Pre-gap length 0:00:02.73

Peak level 93.7 %
Extraction speed 3.9 X
Track quality 99.9 %
Test CRC 619C6077
Copy CRC 619C6077
Accurately ripped (confidence 9) [F459D572] (AR v2)
Copy OK

Track 7

Filename D:\Share\Supermax - 1983 - Electricity (Ariola 74321 12518 2 Germany)\07 - Coconut Reggae.wav

Pre-gap length 0:00:02.35

Peak level 87.7 %
Extraction speed 3.7 X
Track quality 100.0 %
Test CRC 537E15B4
Copy CRC 537E15B4
Accurately ripped (confidence 9) [2881AE0C] (AR v2)
Copy OK

Track 8

Filename D:\Share\Supermax - 1983 - Electricity (Ariola 74321 12518 2 Germany)\08 - ElectriCity.wav

Pre-gap length 0:00:02.63

Peak level 82.5 %
Extraction speed 4.5 X
Track quality 100.0 %
Test CRC D76A5780
Copy CRC D76A5780
Accurately ripped (confidence 9) [D7CA51E7] (AR v2)
Copy OK


All tracks accurately ripped

No errors occurred

End of status report

==== Log checksum 1B2BB3198BA97A4561220E4CF9E8142FA8CF6A20047B3C5BF647FDD84CA67A2F ====

foobar2000 1.2.9 / Dynamic Range Meter 1.1.1
log date: 2017-03-21 14:21:54

––––––––––––––––––––––––––––––––––––––––
Analyzed: Supermax / Electricity (74321 12518 2)
––––––––––––––––––––––––––––––––––––––––

DR Peak RMS Duration Track
––––––––––––––––––––––––––––––––––––––––
DR14 -0.20 dB -16.29 dB 5:48 01-LoversNight
DR15 -0.11 dB -17.25 dB 6:22 02-Future Time
DR13 -1.09 dB -19.13 dB 3:53 03-Love Is Deeper
DR13 -0.33 dB -16.08 dB 5:06 04-Funk It Up
DR12 -1.03 dB -15.62 dB 4:00 05-Show Me Your Love
DR15 -0.56 dB -18.64 dB 8:14 06-Body Heat
DR14 -1.14 dB -17.39 dB 3:48 07-Coconut Reggae
DR13 -1.66 dB -16.70 dB 4:18 08-ElectriCity
––––––––––––––––––––––––––––––––––––––––

Number of tracks: 8
Official DR value: DR14

Samplerate: 44100 Hz
Channels: 2
Bits per sample: 16
Bitrate: 849 kbps
Codec: FLAC

[CUETools log; Date: 21.03.2017 14:21:42; Version: 2.1.4]
Pregap length 00:00:33.
[CTDB TOCID: lUpej8MOQ1QcULsOOjZ_PbNGZEg-] found.
Track | CTDB Status
1 | (10/10) Accurately ripped
2 | (10/10) Accurately ripped
3 | (10/10) Accurately ripped
4 | (10/10) Accurately ripped
5 | (10/10) Accurately ripped
6 | (10/10) Accurately ripped
7 | (10/10) Accurately ripped
8 | (10/10) Accurately ripped
[AccurateRip ID: 000d37f4-00577f47-5309ba08] found.
Track [ CRC | V2 ] Status
01 [bcd3fea1|0767cdb3] (02+09/11) Accurately ripped
02 [95eefe8b|aaeb3550] (02+09/11) Accurately ripped
03 [436db4c6|ebc7d64e] (02+09/11) Accurately ripped
04 [7c3fdaaf|3fe7a366] (02+09/11) Accurately ripped
05 [96775a44|f4edf90a] (02+09/11) Accurately ripped
06 [90010f78|f459d572] (02+09/11) Accurately ripped
07 [ba331e98|2881ae0c] (02+09/11) Accurately ripped
08 [78717894|d7ca51e7] (02+09/11) Accurately ripped

Track Peak [ CRC32 ] [W/O NULL] [ LOG ]
– 98,7 [33021AE5] [DCB7BAC4]
01 97,6 [980EF13E] [7591A0DD] CRC32
02 98,7 [6D229967] [508F7C7C] CRC32
03 88,2 [8C002403] [FC31F36E] CRC32
04 96,3 [3E35DA59] [6579E152] CRC32
05 88,8 [08258A67] [C58967F4] CRC32
06 93,7 [619C6077] [96821FE9] CRC32
07 87,7 [537E15B4] [E7DD96A7] CRC32
08 82,5 [D76A5780] [4D78395C] CRC32

Supermax - Electricity (1983)

All thanks go to Ready.zp

Supermax in my Blog

Download Supermax - Electricity (1983):