Subcategories

The Surprise Package - Free Up (1969) [Reissue 2010]

Posted By: antonyart
The Surprise Package - Free Up (1969) [Reissue 2010]

The Surprise Package - Free Up (1969) [Reissue 2010]
EAC Rip | FLAC (IMG+CUE+LOG) | 263 MB | Complete HQ Scans 600 dpi JPG included | MP3 Lame 320 CBR | 92 MB
Genre: Psychedelic Heavy Rock | RAR 5% Rec. | Label: Flawed Gems (GEM 44) | Filepost, Depositfiles

The only album of this forgotten US heavy psychedelic band was released in early 1969 on tiny LHI label owned by the famous artist/producer Lee Hazlewood. This record mostly contained a trippy and quite intense music with lots of Hammond organ passages, loud and fuzzed-out guitar parts & solid drumming. It can be easily described as a stylistic combination of Vanilla Fudge, The Doors and especially Iron Butterfly. It worth noting that the title track lasted nearly I6 minutes and its structure was very similar to In-A-Gadda-Da-Vida. Unfortunately, the album (and also single with cover of MacArthur Park) went almost completely unnoticed. Soon after the band changed its name to American Eagle and in 1970 released an eponymous LP for Decca Records.
The Surprise Package - Free Up (1969) [Reissue 2010]

Tracklist:

01. New Way Home 03:53
02. 100% Vision 07:19
03. Breakaway 03:34
04. Supporting Cast 02:59
05. Social Disease 02:35
06. Free Up 15:51
07. MacArthur Park (bonus A-Side 1969 SP) 03:17

Total: 39:29

Exact Audio Copy V1.0 beta 3 from 29. August 2011

EAC extraction logfile from 17. November 2012, 20:00

The Surprise Package / Free Up

Used drive : HL-DT-STDVDRAM GT34N Adapter: 0 ID: 2

Read mode : Secure
Utilize accurate stream : Yes
Defeat audio cache : Yes
Make use of C2 pointers : No

Read offset correction : 103
Overread into Lead-In and Lead-Out : No
Fill up missing offset samples with silence : Yes
Delete leading and trailing silent blocks : No
Null samples used in CRC calculations : Yes
Used interface : Native Win32 interface for Win NT & 2000

Used output format : User Defined Encoder
Selected bitrate : 896 kBit/s
Quality : High
Add ID3 tag : Yes
Command line compressor : C:\Program Files (x86)\Exact Audio Copy\FLAC\FLAC.EXE
Additional command line options : -6 -V -T "ARTIST=%artist%" -T "TITLE=%title%" -T "ALBUM=%albumtitle%" -T "DATE=%year%" -T "TRACKNUMBER=%tracknr%" -T "GENRE=%genre%" -T "COMMENT=%comment%" -T "BAND=%albuminterpret%" -T "ALBUMARTIST=%albuminterpret%" -T "COMPOSER=%composer%" %haslyrics%–tag-from-file=LYRICS="%lyricsfile%"%haslyrics% -T "DISCNUMBER=%cdnumber%" -T "TOTALDISCS=%totalcds%" -T "TOTALTRACKS=%numtracks%" %hascover%–picture="%coverfile%"%hascover% %source% -o %dest%


TOC of the extracted CD

Track | Start | Length | Start sector | End sector
––––––––––––––––––––––––––––-
1 | 0:00.00 | 3:52.74 | 0 | 17473
2 | 3:52.74 | 7:18.66 | 17474 | 50389
3 | 11:11.65 | 3:34.23 | 50390 | 66462
4 | 14:46.13 | 2:59.29 | 66463 | 79916
5 | 17:45.42 | 2:35.25 | 79917 | 91566
6 | 20:20.67 | 15:50.67 | 91567 | 162883
7 | 36:11.59 | 3:17.27 | 162884 | 177685


Range status and errors

Selected range

Filename D:\FLAC\SURPRISE PACKAGE, The -69- Free Up\The Surprise Package - Free Up.wav

Peak level 100.0 %
Extraction speed 1.9 X
Range quality 99.9 %
Test CRC 3DD6D0BB
Copy CRC 3DD6D0BB
Copy OK

No errors occurred


AccurateRip summary

Track 1 not present in database
Track 2 not present in database
Track 3 not present in database
Track 4 not present in database
Track 5 not present in database
Track 6 not present in database
Track 7 not present in database

None of the tracks are present in the AccurateRip database

End of status report

==== Log checksum 2AED3B5075DB150C5BF0360CAEF5BB264D8566CF877F710FF0561FFE0782C02A ====

foobar2000 1.1.9 / Dynamic Range Meter 1.1.1
log date: 2012-11-23 22:37:06

––––––––––––––––––––––––––––––––––––––––
Analyzed: The Surprise Package / Free Up
––––––––––––––––––––––––––––––––––––––––

DR Peak RMS Duration Track
––––––––––––––––––––––––––––––––––––––––
DR9 -0.10 dB -10.75 dB 3:53 01-New Way Home
DR9 -0.10 dB -10.57 dB 7:19 02-100% Vision
DR10 -0.10 dB -14.64 dB 3:34 03-Breakaway
DR10 -0.10 dB -11.65 dB 2:59 04-Supporting Cast
DR10 -0.10 dB -12.46 dB 2:35 05-Social Disease
DR9 -0.10 dB -12.62 dB 15:51 06-Free Up
DR6 0.00 dB -8.51 dB 3:17 07-MacArthur Park (bonus A-Side 1969 SP)
––––––––––––––––––––––––––––––––––––––––

Number of tracks: 7
Official DR value: DR9

Samplerate: 44100 Hz
Channels: 2
Bits per sample: 16
Bitrate: 878 kbps
Codec: FLAC
================================================================================

The band came from the Pacific Northwest, evolving out of The Viceroys (who also included Jim Valley before he joined Paul Revere and The Raiders). They operated mainly around the Seattle-Tacoma area of Washington state. With the onset of the psychedelic era, Columbia Records, who had signed the band (no big surprise there), decided to market them as the hipper (hippier?) sounding Surprise Package. Between 1966 and 1968 they issued 3 singles for Columbia, the first of which, Out Of My Mind , was a nice slice of psychedelia produced by Terry Melcher that later appeared on the LPs Mindrocker, Volume 7 as well as Nuggets, Volume 8. They also picked up management out of San Diego, which brought them numerous gigs in southern California. After their third single and subsequent dropping from Columbia Records they were signed to Lee Hazelwood’s LHI label, details of which aren’t clear, but most likely had something to do with their management. Their first release for LHI was a chopped down and split up single version of the album’s 15+ minute title track, Free Up , as Free Up, Part 1 b/w Free Up, Part 2 ; that was followed by the album proper. Free Up features a light trippy psych music with a few intense moments, lots of Hammond organ passages, loud and fuzzed-out guitar, solid drumming, and soulful vocals. Not an essential addition to the collection, but the music still holds my interest after all these years and I’d rate it a strong second tier release (not to mention the collectability/rarity of anything on the LHI label, as it ran for a little over a year before effectively shutting down; I believe their was an album issued as late as 1971 on the label). Similarities/influences of Vanilla Fudge, The Doors, and especially Iron Butterfly on the In-A Gadda-Da Vida structured title track. A second single was issued after the album’s release which featured the non-album track/cover of MacArthur Park ; their version runs a little over 3-minutes. Not long after the albums release/quiet death they changed their name to American Eagle and in 1970 issued an eponymous album for Decca Records (US). Rob Lowery had previously been in The Rock Collection, (as well as their earlier incarnation as The Galaxies; both bands were Tacoma based), leaving that band in 1967 to join The Surprise Package. Michael Rogers also produced a 45 for The Bumps, a Seattle based band, in 1968.

from ebay.com

The Surprise Package - Free Up (1969) [Reissue 2010]


This CD is from my personal collection. My original rip & my scan work.
>> here is my blog with all my rips <<
Please, do not mirror these links at any web pages.
FLAC + HQ 600 dpi complete scans:

Filepost

Depositfiles

MP3 + 300 dpi front/back cover scans:

Filepost

Depositfiles


Password: Ant