Subcategories

VA - The Art Of Zen Relaxation Volume 2 (2000) {Creative Vibes/Ninja Tune}

Posted By: TestTickles
VA - The Art Of Zen Relaxation Volume 2 (2000) {Creative Vibes/Ninja Tune}

VA - The Art Of Zen Relaxation Volume 2 (2000) {Creative Vibes/Ninja Tune}
EAC Rip | FLAC with CUE and log | scans | 399 mb
MP3 CBR 320 kbps | RAR | 158 mb
Genre: electronic, acid jazz, trip hop, breaks, hip-hop, rap

The Art Of Zen Relaxation Volume 2 is a compilation CD released in 2000. It was released by Creative Vibes in association with Ninja Tune.

01. Roots Manuva - Movements
02. Mr. Scruff - Midnight Feast
03. Amon Tobin - Nova
04. Funki Porcini - Wilson's Millions
05. The Cinematic Orchestra - Diabolus
06. The Herbaliser - Moon Sequence
07. DJ Vadim - Micro Course In Russian
08. Neotropic - Weeds
09. 9 Lazy 9 - Very Gentle
10. The Irresistible Force - Power (Mix Master Morris Remix)
11. Coldcut - Cloned Again (Rei Harakami Remix)
12. Cabbage Boy - Hey Hey We're The Monks
13. Flange - Endless Summer
14. Animals On Wheels - Never In Never Out

X Lossless Decoder version 20100205 (115.5)

XLD extraction logfile from 2010-02-05 15:14:04 +0000

Various Artists / The Art of Zen Relaxation Vol 2

Used drive : PIONEER DVD-RW DVRTS08 (revision Q81F)

Use cdparanoia mode : YES (CDParanoia III 10.2 engine)
Disable audio cache : OK for the drive with cache less than 2750KB
Make use of C2 pointers : NO
Read offset correction : 48
Max retry count : 100

TOC of the extracted CD
Track | Start | Length | Start sector | End sector
––––––––––––––––––––––––––––-
1 | 00:00:00 | 04:13:10 | 0 | 18984
2 | 04:13:10 | 03:36:26 | 18985 | 35210
3 | 07:49:36 | 04:43:14 | 35211 | 56449
4 | 12:32:50 | 04:43:16 | 56450 | 77690
5 | 17:15:66 | 09:18:02 | 77691 | 119542
6 | 26:33:68 | 06:20:54 | 119543 | 148096
7 | 32:54:47 | 01:48:68 | 148097 | 156264
8 | 34:43:40 | 04:27:26 | 156265 | 176315
9 | 39:10:66 | 08:02:37 | 176316 | 212502
10 | 47:13:28 | 05:44:26 | 212503 | 238328
11 | 52:57:54 | 05:34:00 | 238329 | 263378
12 | 58:31:54 | 05:20:52 | 263379 | 287430
13 | 63:52:31 | 05:15:65 | 287431 | 311120
14 | 69:08:21 | 03:45:34 | 311121 | 328029


Track 01
Filename : /cuntfist/FLAC/VA - The Art Of Zen Relaxation Volume 2 (2000) [FLAC] {Creative Vibes, Ninja Tune}/01 - Roots Manuva - Movements.m4a
/cuntfist/FLAC/VA - The Art Of Zen Relaxation Volume 2 (2000) [FLAC] {Creative Vibes, Ninja Tune}/01 - Roots Manuva - Movements.flac

/cuntfist/FLAC/VA - The Art Of Zen Relaxation Volume 2 (2000) [FLAC] {Creative Vibes, Ninja Tune}/01 - Roots Manuva - Movements.mp3

Pre-gap length : 00:02:00

CRC32 hash (test run) : D2532BEA
CRC32 hash : D2532BEA
CRC32 hash (skip zero) : EFAF2072
AccurateRip signature : 235867A0
->Accurately ripped! (confidence 2)
Statistics
Read error : 0
Skipped (treated as error) : 0
Edge jitter error (maybe fixed) : 0
Atom jitter error (maybe fixed) : 0
Drift error (maybe fixed) : 0
Dropped bytes error (maybe fixed) : 0
Duplicated bytes error (maybe fixed) : 0
Inconsistency in error sectors : 0

Track 02
Filename : /cuntfist/FLAC/VA - The Art Of Zen Relaxation Volume 2 (2000) [FLAC] {Creative Vibes, Ninja Tune}/02 - Mr Scruff - Midnight Feast.m4a
/cuntfist/FLAC/VA - The Art Of Zen Relaxation Volume 2 (2000) [FLAC] {Creative Vibes, Ninja Tune}/02 - Mr Scruff - Midnight Feast.flac

/cuntfist/FLAC/VA - The Art Of Zen Relaxation Volume 2 (2000) [FLAC] {Creative Vibes, Ninja Tune}/02 - Mr Scruff - Midnight Feast.mp3

Pre-gap length : 00:01:26

CRC32 hash (test run) : A77E0371
CRC32 hash : A77E0371
CRC32 hash (skip zero) : A9556FFA
AccurateRip signature : AEBBE580
->Accurately ripped! (confidence 2)
Statistics
Read error : 0
Skipped (treated as error) : 0
Edge jitter error (maybe fixed) : 0
Atom jitter error (maybe fixed) : 0
Drift error (maybe fixed) : 0
Dropped bytes error (maybe fixed) : 0
Duplicated bytes error (maybe fixed) : 0
Inconsistency in error sectors : 0

Track 03
Filename : /cuntfist/FLAC/VA - The Art Of Zen Relaxation Volume 2 (2000) [FLAC] {Creative Vibes, Ninja Tune}/03 - Amon Tobin - Nova.m4a
/cuntfist/FLAC/VA - The Art Of Zen Relaxation Volume 2 (2000) [FLAC] {Creative Vibes, Ninja Tune}/03 - Amon Tobin - Nova.flac

/cuntfist/FLAC/VA - The Art Of Zen Relaxation Volume 2 (2000) [FLAC] {Creative Vibes, Ninja Tune}/03 - Amon Tobin - Nova.mp3

Pre-gap length : 00:01:40

CRC32 hash (test run) : D9DDF2AC
CRC32 hash : D9DDF2AC
CRC32 hash (skip zero) : 4807771B
AccurateRip signature : ECF62851
->Accurately ripped! (confidence 2)
Statistics
Read error : 0
Skipped (treated as error) : 0
Edge jitter error (maybe fixed) : 0
Atom jitter error (maybe fixed) : 0
Drift error (maybe fixed) : 0
Dropped bytes error (maybe fixed) : 0
Duplicated bytes error (maybe fixed) : 0
Inconsistency in error sectors : 0

Track 04
Filename : /cuntfist/FLAC/VA - The Art Of Zen Relaxation Volume 2 (2000) [FLAC] {Creative Vibes, Ninja Tune}/04 - Funki Porcini - Wilson's Millions.m4a
/cuntfist/FLAC/VA - The Art Of Zen Relaxation Volume 2 (2000) [FLAC] {Creative Vibes, Ninja Tune}/04 - Funki Porcini - Wilson's Millions.flac

/cuntfist/FLAC/VA - The Art Of Zen Relaxation Volume 2 (2000) [FLAC] {Creative Vibes, Ninja Tune}/04 - Funki Porcini - Wilson's Millions.mp3

Pre-gap length : 00:01:47

CRC32 hash (test run) : C8F08A61
CRC32 hash : C8F08A61
CRC32 hash (skip zero) : 5B46B657
AccurateRip signature : 7486A586
->Accurately ripped! (confidence 2)
Statistics
Read error : 0
Skipped (treated as error) : 0
Edge jitter error (maybe fixed) : 0
Atom jitter error (maybe fixed) : 0
Drift error (maybe fixed) : 0
Dropped bytes error (maybe fixed) : 0
Duplicated bytes error (maybe fixed) : 0
Inconsistency in error sectors : 0

Track 05
Filename : /cuntfist/FLAC/VA - The Art Of Zen Relaxation Volume 2 (2000) [FLAC] {Creative Vibes, Ninja Tune}/05 - J Swinscoe Presents The Cinematic Orchestra - Diabolus.m4a
/cuntfist/FLAC/VA - The Art Of Zen Relaxation Volume 2 (2000) [FLAC] {Creative Vibes, Ninja Tune}/05 - J Swinscoe Presents The Cinematic Orchestra - Diabolus.flac

/cuntfist/FLAC/VA - The Art Of Zen Relaxation Volume 2 (2000) [FLAC] {Creative Vibes, Ninja Tune}/05 - J Swinscoe Presents The Cinematic Orchestra - Diabolus.mp3

Pre-gap length : 00:02:13

CRC32 hash (test run) : 32E6F299
CRC32 hash : 32E6F299
CRC32 hash (skip zero) : D09F8F90
AccurateRip signature : 4611AB69
->Accurately ripped! (confidence 2)
Statistics
Read error : 0
Skipped (treated as error) : 0
Edge jitter error (maybe fixed) : 0
Atom jitter error (maybe fixed) : 0
Drift error (maybe fixed) : 0
Dropped bytes error (maybe fixed) : 0
Duplicated bytes error (maybe fixed) : 0
Inconsistency in error sectors : 0

Track 06
Filename : /cuntfist/FLAC/VA - The Art Of Zen Relaxation Volume 2 (2000) [FLAC] {Creative Vibes, Ninja Tune}/06 - The Herbaliser - Moon Sequence.m4a
/cuntfist/FLAC/VA - The Art Of Zen Relaxation Volume 2 (2000) [FLAC] {Creative Vibes, Ninja Tune}/06 - The Herbaliser - Moon Sequence.flac

/cuntfist/FLAC/VA - The Art Of Zen Relaxation Volume 2 (2000) [FLAC] {Creative Vibes, Ninja Tune}/06 - The Herbaliser - Moon Sequence.mp3

Pre-gap length : 00:02:20

CRC32 hash (test run) : 3C638258
CRC32 hash : 3C638258
CRC32 hash (skip zero) : 6769DDDC
AccurateRip signature : 74EF94F6
->Accurately ripped! (confidence 2)
Statistics
Read error : 0
Skipped (treated as error) : 0
Edge jitter error (maybe fixed) : 1
Atom jitter error (maybe fixed) : 0
Drift error (maybe fixed) : 0
Dropped bytes error (maybe fixed) : 0
Duplicated bytes error (maybe fixed) : 1
Inconsistency in error sectors : 0

Track 07
Filename : /cuntfist/FLAC/VA - The Art Of Zen Relaxation Volume 2 (2000) [FLAC] {Creative Vibes, Ninja Tune}/07 - DJ Vadim - Micro Course In Russian.m4a
/cuntfist/FLAC/VA - The Art Of Zen Relaxation Volume 2 (2000) [FLAC] {Creative Vibes, Ninja Tune}/07 - DJ Vadim - Micro Course In Russian.flac

/cuntfist/FLAC/VA - The Art Of Zen Relaxation Volume 2 (2000) [FLAC] {Creative Vibes, Ninja Tune}/07 - DJ Vadim - Micro Course In Russian.mp3

Pre-gap length : 00:00:50

CRC32 hash (test run) : 81562F99
CRC32 hash : 81562F99
CRC32 hash (skip zero) : 43479F6A
AccurateRip signature : 39BE8A43
->Accurately ripped! (confidence 2)
Statistics
Read error : 0
Skipped (treated as error) : 0
Edge jitter error (maybe fixed) : 1
Atom jitter error (maybe fixed) : 0
Drift error (maybe fixed) : 0
Dropped bytes error (maybe fixed) : 1
Duplicated bytes error (maybe fixed) : 1
Inconsistency in error sectors : 0

Track 08
Filename : /cuntfist/FLAC/VA - The Art Of Zen Relaxation Volume 2 (2000) [FLAC] {Creative Vibes, Ninja Tune}/08 - Neotropic - Weeds.m4a
/cuntfist/FLAC/VA - The Art Of Zen Relaxation Volume 2 (2000) [FLAC] {Creative Vibes, Ninja Tune}/08 - Neotropic - Weeds.flac

/cuntfist/FLAC/VA - The Art Of Zen Relaxation Volume 2 (2000) [FLAC] {Creative Vibes, Ninja Tune}/08 - Neotropic - Weeds.mp3

Pre-gap length : 00:00:15

CRC32 hash (test run) : 2A72CC44
CRC32 hash : 2A72CC44
CRC32 hash (skip zero) : 81DE881F
AccurateRip signature : 66DE879B
->Accurately ripped! (confidence 2)
Statistics
Read error : 0
Skipped (treated as error) : 0
Edge jitter error (maybe fixed) : 0
Atom jitter error (maybe fixed) : 0
Drift error (maybe fixed) : 0
Dropped bytes error (maybe fixed) : 0
Duplicated bytes error (maybe fixed) : 0
Inconsistency in error sectors : 0

Track 09
Filename : /cuntfist/FLAC/VA - The Art Of Zen Relaxation Volume 2 (2000) [FLAC] {Creative Vibes, Ninja Tune}/09 - 9 Lazy 9 - Very Gentle.m4a
/cuntfist/FLAC/VA - The Art Of Zen Relaxation Volume 2 (2000) [FLAC] {Creative Vibes, Ninja Tune}/09 - 9 Lazy 9 - Very Gentle.flac

/cuntfist/FLAC/VA - The Art Of Zen Relaxation Volume 2 (2000) [FLAC] {Creative Vibes, Ninja Tune}/09 - 9 Lazy 9 - Very Gentle.mp3

Pre-gap length : 00:01:02

CRC32 hash (test run) : F47605AC
CRC32 hash : F47605AC
CRC32 hash (skip zero) : 5991DC50
AccurateRip signature : 05A34CED
->Accurately ripped! (confidence 2)
Statistics
Read error : 0
Skipped (treated as error) : 0
Edge jitter error (maybe fixed) : 1
Atom jitter error (maybe fixed) : 0
Drift error (maybe fixed) : 0
Dropped bytes error (maybe fixed) : 0
Duplicated bytes error (maybe fixed) : 1
Inconsistency in error sectors : 0

Track 10
Filename : /cuntfist/FLAC/VA - The Art Of Zen Relaxation Volume 2 (2000) [FLAC] {Creative Vibes, Ninja Tune}/10 - The Irresistable Force - Power (Mix Master Morris remix).m4a
/cuntfist/FLAC/VA - The Art Of Zen Relaxation Volume 2 (2000) [FLAC] {Creative Vibes, Ninja Tune}/10 - The Irresistable Force - Power (Mix Master Morris remix).flac

/cuntfist/FLAC/VA - The Art Of Zen Relaxation Volume 2 (2000) [FLAC] {Creative Vibes, Ninja Tune}/10 - The Irresistable Force - Power (Mix Master Morris remix).mp3

Pre-gap length : 00:01:42

CRC32 hash (test run) : 664839CC
CRC32 hash : 664839CC
CRC32 hash (skip zero) : A1E2B00A
AccurateRip signature : A27526F0
->Accurately ripped! (confidence 2)
Statistics
Read error : 0
Skipped (treated as error) : 0
Edge jitter error (maybe fixed) : 0
Atom jitter error (maybe fixed) : 0
Drift error (maybe fixed) : 0
Dropped bytes error (maybe fixed) : 0
Duplicated bytes error (maybe fixed) : 0
Inconsistency in error sectors : 0

Track 11
Filename : /cuntfist/FLAC/VA - The Art Of Zen Relaxation Volume 2 (2000) [FLAC] {Creative Vibes, Ninja Tune}/11 - Coldcut - Cloned Again (Rei Harakami remix).m4a
/cuntfist/FLAC/VA - The Art Of Zen Relaxation Volume 2 (2000) [FLAC] {Creative Vibes, Ninja Tune}/11 - Coldcut - Cloned Again (Rei Harakami remix).flac

/cuntfist/FLAC/VA - The Art Of Zen Relaxation Volume 2 (2000) [FLAC] {Creative Vibes, Ninja Tune}/11 - Coldcut - Cloned Again (Rei Harakami remix).mp3

Pre-gap length : 00:00:11

CRC32 hash (test run) : 33863FFD
CRC32 hash : 33863FFD
CRC32 hash (skip zero) : D9440367
AccurateRip signature : D3EA23BE
->Accurately ripped! (confidence 2)
Statistics
Read error : 0
Skipped (treated as error) : 0
Edge jitter error (maybe fixed) : 0
Atom jitter error (maybe fixed) : 0
Drift error (maybe fixed) : 0
Dropped bytes error (maybe fixed) : 0
Duplicated bytes error (maybe fixed) : 0
Inconsistency in error sectors : 0

Track 12
Filename : /cuntfist/FLAC/VA - The Art Of Zen Relaxation Volume 2 (2000) [FLAC] {Creative Vibes, Ninja Tune}/12 - Cabbage Boy - Hey Hey We're The Monks.m4a
/cuntfist/FLAC/VA - The Art Of Zen Relaxation Volume 2 (2000) [FLAC] {Creative Vibes, Ninja Tune}/12 - Cabbage Boy - Hey Hey We're The Monks.flac

/cuntfist/FLAC/VA - The Art Of Zen Relaxation Volume 2 (2000) [FLAC] {Creative Vibes, Ninja Tune}/12 - Cabbage Boy - Hey Hey We're The Monks.mp3

Pre-gap length : 00:00:45

CRC32 hash (test run) : 8CCDEBC4
CRC32 hash : 8CCDEBC4
CRC32 hash (skip zero) : 87B2F82D
AccurateRip signature : CEA377E5
->Accurately ripped! (confidence 2)
Statistics
Read error : 0
Skipped (treated as error) : 0
Edge jitter error (maybe fixed) : 0
Atom jitter error (maybe fixed) : 0
Drift error (maybe fixed) : 0
Dropped bytes error (maybe fixed) : 0
Duplicated bytes error (maybe fixed) : 0
Inconsistency in error sectors : 0

Track 13
Filename : /cuntfist/FLAC/VA - The Art Of Zen Relaxation Volume 2 (2000) [FLAC] {Creative Vibes, Ninja Tune}/13 - Flanger - Endless Summer.m4a
/cuntfist/FLAC/VA - The Art Of Zen Relaxation Volume 2 (2000) [FLAC] {Creative Vibes, Ninja Tune}/13 - Flanger - Endless Summer.flac

/cuntfist/FLAC/VA - The Art Of Zen Relaxation Volume 2 (2000) [FLAC] {Creative Vibes, Ninja Tune}/13 - Flanger - Endless Summer.mp3

Pre-gap length : 00:01:04

CRC32 hash (test run) : 81DC08B2
CRC32 hash : 81DC08B2
CRC32 hash (skip zero) : CBF390E0
AccurateRip signature : B6FE6640
->Accurately ripped! (confidence 2)
Statistics
Read error : 0
Skipped (treated as error) : 0
Edge jitter error (maybe fixed) : 0
Atom jitter error (maybe fixed) : 0
Drift error (maybe fixed) : 0
Dropped bytes error (maybe fixed) : 0
Duplicated bytes error (maybe fixed) : 0
Inconsistency in error sectors : 0

Track 14
Filename : /cuntfist/FLAC/VA - The Art Of Zen Relaxation Volume 2 (2000) [FLAC] {Creative Vibes, Ninja Tune}/14 - Animal On Wheels - Never In Never Out.m4a
/cuntfist/FLAC/VA - The Art Of Zen Relaxation Volume 2 (2000) [FLAC] {Creative Vibes, Ninja Tune}/14 - Animal On Wheels - Never In Never Out.flac

/cuntfist/FLAC/VA - The Art Of Zen Relaxation Volume 2 (2000) [FLAC] {Creative Vibes, Ninja Tune}/14 - Animal On Wheels - Never In Never Out.mp3

CRC32 hash (test run) : 5F11DA69
CRC32 hash : 5F11DA69
CRC32 hash (skip zero) : C4F103F5
AccurateRip signature : 7D4E4C48
->Accurately ripped! (confidence 2)
Statistics
Read error : 0
Skipped (treated as error) : 0
Edge jitter error (maybe fixed) : 1
Atom jitter error (maybe fixed) : 0
Drift error (maybe fixed) : 0
Dropped bytes error (maybe fixed) : 0
Duplicated bytes error (maybe fixed) : 1
Inconsistency in error sectors : 0

No errors occurred

End of status report


Thank you to the original uploader.