Tags
Language
Tags

VA - These Dreams: Rock Classics (1997) {EMI/Capitol} **[RE-UP]**

Posted By: TestTickles
VA - These Dreams: Rock Classics (1997) {EMI/Capitol} **[RE-UP]**

VA - These Dreams: Rock Classics (1997) {EMI/Capitol}
EAC Rip | FLAC with CUE and log | scans | 315 mb
MP3 CBR 320kbps | RAR | 126 mb
Genre: pop rock, progressive rock, classic rock

These Dreams: Rock Classics is a 1997 promotional compilation CD released by EMi/Capitol. It focuses on remasters the labels had released at the time, which includes music by Paul McCartney, The Steve Miller Band, Grand Funk and Heart.

VA - These Dreams: Rock Classics (1997) {EMI/Capitol} **[RE-UP]**

01. Tom Cochrane - Life Is A Highway
02. Steve Miller Band - The Joker
03. Paul McCartney & Wings - Band On The Run
04. Grand Funk Railroad - We're An American Band
05. The Band - The Weight
06. Pink Floyd - Money
07. David Bowie - Modern Love
08. The J. Geils Band - Centerfold
09. Huey Lewis & The News - Do You Believe In Love
10. Heart - These Dreams

Exact Audio Copy V1.1 from 23. June 2015

EAC extraction logfile from 16. March 2017, 8:13

Various Artists / These Dreams - Rock Classics

Used drive : TEAC DVD-ROM DV-28SW Adapter: 1 ID: 0

Read mode : Secure
Utilize accurate stream : Yes
Defeat audio cache : Yes
Make use of C2 pointers : No

Read offset correction : 6
Overread into Lead-In and Lead-Out : No
Fill up missing offset samples with silence : Yes
Delete leading and trailing silent blocks : No
Null samples used in CRC calculations : Yes
Used interface : Native Win32 interface for Win NT & 2000
Gap handling : Appended to previous track

Used output format : Internal WAV Routines
Sample format : 44.100 Hz; 16 Bit; Stereo


TOC of the extracted CD

Track | Start | Length | Start sector | End sector
––––––––––––––––––––––––––––-
1 | 0:00.00 | 4:28.22 | 0 | 20121
2 | 4:28.22 | 4:26.08 | 20122 | 40079
3 | 8:54.30 | 5:12.27 | 40080 | 63506
4 | 14:06.57 | 3:26.33 | 63507 | 78989
5 | 17:33.15 | 4:36.35 | 78990 | 99724
6 | 22:09.50 | 6:34.27 | 99725 | 129301
7 | 28:44.02 | 4:48.20 | 129302 | 150921
8 | 33:32.22 | 3:37.50 | 150922 | 167246
9 | 37:09.72 | 3:29.25 | 167247 | 182946
10 | 40:39.22 | 4:12.38 | 182947 | 201884


Track 1

Filename C:\My Documents\My FLAC\VA - These Dreams - Rock Classics (1997) [FLAC] {EMI-Capitol}\01 - Tom Cochrane - Life Is A Highway.wav

Pre-gap length 0:00:02.00

Peak level 97.5 %
Extraction speed 2.9 X
Track quality 100.0 %
Test CRC 05E43DFA
Copy CRC 05E43DFA
Accurately ripped (confidence 2) [7D279FEF] (AR v1)
Copy OK

Track 2

Filename C:\My Documents\My FLAC\VA - These Dreams - Rock Classics (1997) [FLAC] {EMI-Capitol}\02 - Steve Miller Band - The Joker.wav

Pre-gap length 0:00:01.70

Peak level 100.0 %
Extraction speed 3.2 X
Track quality 100.0 %
Test CRC E34F1736
Copy CRC E34F1736
Accurately ripped (confidence 2) [780C2B83] (AR v1)
Copy OK

Track 3

Filename C:\My Documents\My FLAC\VA - These Dreams - Rock Classics (1997) [FLAC] {EMI-Capitol}\03 - Paul McCartney & Wings - Band On The Run.wav

Pre-gap length 0:00:02.40

Peak level 100.0 %
Extraction speed 3.6 X
Track quality 100.0 %
Test CRC 0C4E7E68
Copy CRC 0C4E7E68
Accurately ripped (confidence 2) [2ADDFC12] (AR v1)
Copy OK

Track 4

Filename C:\My Documents\My FLAC\VA - These Dreams - Rock Classics (1997) [FLAC] {EMI-Capitol}\04 - Grand Funk Railroad - We're An American Band.wav

Pre-gap length 0:00:01.52

Peak level 90.0 %
Extraction speed 3.4 X
Track quality 100.0 %
Test CRC 94BD14F3
Copy CRC 94BD14F3
Accurately ripped (confidence 2) [B136E49B] (AR v1)
Copy OK

Track 5

Filename C:\My Documents\My FLAC\VA - These Dreams - Rock Classics (1997) [FLAC] {EMI-Capitol}\05 - The Band - The Weight.wav

Pre-gap length 0:00:01.43

Peak level 100.0 %
Extraction speed 4.0 X
Track quality 100.0 %
Test CRC 5A61DAEC
Copy CRC 5A61DAEC
Accurately ripped (confidence 2) [19286B2A] (AR v1)
Copy OK

Track 6

Filename C:\My Documents\My FLAC\VA - These Dreams - Rock Classics (1997) [FLAC] {EMI-Capitol}\06 - Pink Floyd - Money.wav

Pre-gap length 0:00:02.33

Peak level 97.3 %
Extraction speed 4.2 X
Track quality 100.0 %
Test CRC 6EB4C3AD
Copy CRC 6EB4C3AD
Accurately ripped (confidence 2) [5163B2F9] (AR v1)
Copy OK

Track 7

Filename C:\My Documents\My FLAC\VA - These Dreams - Rock Classics (1997) [FLAC] {EMI-Capitol}\07 - David Bowie - Modern Love.wav

Pre-gap length 0:00:01.62

Peak level 97.9 %
Extraction speed 3.7 X
Track quality 100.0 %
Test CRC A62B1A8C
Copy CRC A62B1A8C
Accurately ripped (confidence 2) [9C887434] (AR v1)
Copy OK

Track 8

Filename C:\My Documents\My FLAC\VA - These Dreams - Rock Classics (1997) [FLAC] {EMI-Capitol}\08 - The J. Geils Band - Centerfold.wav

Pre-gap length 0:00:01.55

Peak level 99.7 %
Extraction speed 3.3 X
Track quality 100.0 %
Test CRC A345ECD3
Copy CRC A345ECD3
Accurately ripped (confidence 2) [3DB94092] (AR v1)
Copy OK

Track 9

Filename C:\My Documents\My FLAC\VA - These Dreams - Rock Classics (1997) [FLAC] {EMI-Capitol}\09 - Huey Lewis & The News - Do You Believe In Love.wav

Pre-gap length 0:00:01.32

Peak level 100.0 %
Extraction speed 4.7 X
Track quality 100.0 %
Test CRC F78381A1
Copy CRC F78381A1
Accurately ripped (confidence 2) [73601262] (AR v1)
Copy OK

Track 10

Filename C:\My Documents\My FLAC\VA - These Dreams - Rock Classics (1997) [FLAC] {EMI-Capitol}\10 - Heart - These Dreams.wav

Pre-gap length 0:00:02.30

Peak level 97.9 %
Extraction speed 4.9 X
Track quality 100.0 %
Test CRC E2F91504
Copy CRC E2F91504
Accurately ripped (confidence 2) [57051E44] (AR v1)
Copy OK


All tracks accurately ripped

No errors occurred

End of status report

–– CUETools DB Plugin V2.1.6

[CTDB TOCID: QdLp487_BkK44Pq5Kwy4G5JeJcA-] found
Submit result: QdLp487_BkK44Pq5Kwy4G5JeJcA- has been confirmed
Track | CTDB Status
1 | (8/8) Accurately ripped
2 | (8/8) Accurately ripped
3 | (8/8) Accurately ripped
4 | (8/8) Accurately ripped
5 | (8/8) Accurately ripped
6 | (8/8) Accurately ripped
7 | (8/8) Accurately ripped
8 | (8/8) Accurately ripped
9 | (8/8) Accurately ripped
10 | (8/8) Accurately ripped


==== Log checksum B50D221F08FC7A360DDA6E04E0D5A71B72C01853DB85AACBA1A66B962907F8A2 ====


VA - These Dreams: Rock Classics (1997) {EMI/Capitol} **[RE-UP]**