Tags
Language
Tags

The Meters - Josie 45's (2002) {PJG}

Posted By:
The Meters - Josie 45's (2002) {PJG}

The Meters - Josie 45's (2002) {PJG}
EAC Rip | FLAC with CUE and log | scans | 162 mb
MP3 CBR 320kbps | RAR | 65 mb
Genre: R&B, soul, funk

Josie 45's is a 2002 custom compilation by New Orleans band The Meters, focusing on the 45 rpm single mixes/versions they released. Some of them are different from the album versions, including the drum portion of "Here Comes The Meter Man". This is a release put together by PJG.

01. Sophisticated Cissy (2:48)
02. Sehorns Farms (2:24)
03. Cissy Strut (3:00)
04. Here Comes The Meter Man (2:50)
05. Ease Back (3:08)
06. Ann (2:39)
07. Look-A Py-Py (2:59)
08. This Is My Last Affair (2:47)
09. Groovy Lady (2:41)
10. Stretch Your Rubber Band (2:41)

Exact Audio Copy V1.6 from 23. October 2020

EAC extraction logfile from 12. September 2021, 17:27

The Meters / Josie 45's

Used drive : HL-DT-STDVD+-RW GT32N Adapter: 1 ID: 0

Read mode : Secure
Utilize accurate stream : Yes
Defeat audio cache : Yes
Make use of C2 pointers : No

Read offset correction : 103
Overread into Lead-In and Lead-Out : No
Fill up missing offset samples with silence : Yes
Delete leading and trailing silent blocks : No
Null samples used in CRC calculations : Yes
Used interface : Native Win32 interface for Win NT & 2000
Gap handling : Not detected, thus appended to previous track

Used output format : Internal WAV Routines
Sample format : 44.100 Hz; 16 Bit; Stereo


TOC of the extracted CD

Track | Start | Length | Start sector | End sector
––––––––––––––––––––––––––––-
1 | 0:00.00 | 2:48.29 | 0 | 12628
2 | 2:48.29 | 2:24.72 | 12629 | 23500
3 | 5:13.26 | 2:59.64 | 23501 | 36989
4 | 8:13.15 | 2:49.52 | 36990 | 49716
5 | 11:02.67 | 3:08.43 | 49717 | 63859
6 | 14:11.35 | 2:39.11 | 63860 | 75795
7 | 16:50.46 | 2:59.15 | 75796 | 89235
8 | 19:49.61 | 2:47.29 | 89236 | 101789
9 | 22:37.15 | 2:41.23 | 101790 | 113887
10 | 25:18.38 | 2:40.67 | 113888 | 125954


Track 1

Filename C:\cuntfist\FLAC\The Meters - Josie 45's (2002) [FLAC] {PJG}\01 - Sophisticated Cissy.wav

Peak level 100.0 %
Extraction speed 1.2 X
Track quality 100.0 %
Test CRC DAB37C57
Copy CRC DAB37C57
Track not present in AccurateRip database
Copy OK

Track 2

Filename C:\cuntfist\FLAC\The Meters - Josie 45's (2002) [FLAC] {PJG}\02 - Sehorns Farms.wav

Peak level 100.0 %
Extraction speed 1.2 X
Track quality 100.0 %
Test CRC 9FD6288E
Copy CRC 9FD6288E
Track not present in AccurateRip database
Copy OK

Track 3

Filename C:\cuntfist\FLAC\The Meters - Josie 45's (2002) [FLAC] {PJG}\03 - Cissy Strut.wav

Peak level 100.0 %
Extraction speed 1.3 X
Track quality 100.0 %
Test CRC C17F3AF0
Copy CRC C17F3AF0
Track not present in AccurateRip database
Copy OK

Track 4

Filename C:\cuntfist\FLAC\The Meters - Josie 45's (2002) [FLAC] {PJG}\04 - Here Comes The Meter Man.wav

Peak level 100.0 %
Extraction speed 1.4 X
Track quality 100.0 %
Test CRC A3121227
Copy CRC A3121227
Track not present in AccurateRip database
Copy OK

Track 5

Filename C:\cuntfist\FLAC\The Meters - Josie 45's (2002) [FLAC] {PJG}\05 - Ease Back.wav

Peak level 100.0 %
Extraction speed 1.3 X
Track quality 99.9 %
Test CRC A8187B7A
Copy CRC A8187B7A
Track not present in AccurateRip database
Copy OK

Track 6

Filename C:\cuntfist\FLAC\The Meters - Josie 45's (2002) [FLAC] {PJG}\06 - Ann.wav

Peak level 100.0 %
Extraction speed 1.5 X
Track quality 100.0 %
Test CRC 510575AD
Copy CRC 510575AD
Track not present in AccurateRip database
Copy OK

Track 7

Filename C:\cuntfist\FLAC\The Meters - Josie 45's (2002) [FLAC] {PJG}\07 - Look-A Py-Py.wav

Peak level 100.0 %
Extraction speed 1.6 X
Track quality 100.0 %
Test CRC BBC9BA67
Copy CRC BBC9BA67
Track not present in AccurateRip database
Copy OK

Track 8

Filename C:\cuntfist\FLAC\The Meters - Josie 45's (2002) [FLAC] {PJG}\08 - This Is My Last Affair.wav

Peak level 100.0 %
Extraction speed 1.6 X
Track quality 100.0 %
Test CRC BF689B50
Copy CRC BF689B50
Track not present in AccurateRip database
Copy OK

Track 9

Filename C:\cuntfist\FLAC\The Meters - Josie 45's (2002) [FLAC] {PJG}\09 - Groovy Lady.wav

Peak level 100.0 %
Extraction speed 1.4 X
Track quality 99.9 %
Test CRC D8E5B8A5
Copy CRC D8E5B8A5
Track not present in AccurateRip database
Copy OK

Track 10

Filename C:\cuntfist\FLAC\The Meters - Josie 45's (2002) [FLAC] {PJG}\10 - Stretch Your Rubber Band.wav

Peak level 100.0 %
Extraction speed 1.7 X
Track quality 100.0 %
Test CRC 14F519DD
Copy CRC 14F519DD
Track not present in AccurateRip database
Copy OK


None of the tracks are present in the AccurateRip database

No errors occurred

End of status report

–– CUETools DB Plugin V2.1.6

[CTDB TOCID: pYrzJkyEKXC3MJyvy__Mzh8c5_g-] disk not present in database
Submit result: pYrzJkyEKXC3MJyvy__Mzh8c5_g- has been uploaded


==== Log checksum 18D3C074FBA32FA3395813A731FA3C733C67951BBC92D371700CE1D038D600C9 ====


The Meters - Josie 45's (2002) {PJG}