Subcategories

The New Pornographers - Mass Romantic (2000) {Matador}

Posted By: TestTickles
The New Pornographers - Mass Romantic (2000) {Matador}

The New Pornographers - Mass Romantic (2000) {Matador}
EAC Rip | FLAC with CUE and LOG | scans | 279 mb
MP3 CBR 320 kbps | RAR | 89 mb
Genre: indie rock

Mass Romantic is the 2008 album by Canadian indie rock band The New Pornographers. This was made possible from/with Matador Records.

The New Pornographers - Mass Romantic (2000) {Matador}

01. Mass Romantic
02. The Fake Headlines
03. The Slow Descent Into Alcoholism
04. Mystery Hours
05. Jackie
06. Letter From An Occupant
07. To Wild Homes
08. The Body Says No
09. Execution Day
10. Centre For Holy Wars
11. The Mary Martin Show
12. Breakin' The Law

Exact Audio Copy V1.0 beta 6 from 9. April 2015

EAC extraction logfile from 28. July 2020, 22:48

The New Pornographers / Mass Romantic

Used drive : TSSTcorpDVD+-RW TS-L633C Adapter: 1 ID: 0

Read mode : Secure
Utilize accurate stream : Yes
Defeat audio cache : Yes
Make use of C2 pointers : No

Read offset correction : 6
Overread into Lead-In and Lead-Out : No
Fill up missing offset samples with silence : Yes
Delete leading and trailing silent blocks : No
Null samples used in CRC calculations : Yes
Used interface : Native Win32 interface for Win NT & 2000
Gap handling : Appended to previous track

Used output format : Internal WAV Routines
Sample format : 44.100 Hz; 16 Bit; Stereo


TOC of the extracted CD

Track | Start | Length | Start sector | End sector
––––––––––––––––––––––––––––-
1 | 0:00.00 | 4:04.18 | 0 | 18317
2 | 4:04.18 | 2:45.39 | 18318 | 30731
3 | 6:49.57 | 3:56.44 | 30732 | 48475
4 | 10:46.26 | 3:11.35 | 48476 | 62835
5 | 13:57.61 | 2:46.46 | 62836 | 75331
6 | 16:44.32 | 3:46.02 | 75332 | 92283
7 | 20:30.34 | 3:34.26 | 92284 | 108359
8 | 24:04.60 | 3:56.18 | 108360 | 126077
9 | 28:01.03 | 2:59.73 | 126078 | 139575
10 | 31:01.01 | 3:07.56 | 139576 | 153656
11 | 34:08.57 | 3:19.33 | 153657 | 168614
12 | 37:28.15 | 3:28.26 | 168615 | 184240


Track 1

Filename C:\My Documents\My FLAC\The New Pornographers - Mass Romantic (2000) [FLAC] {Matador}\01 - Mass Romantic.wav

Pre-gap length 0:00:02.00

Peak level 100.0 %
Extraction speed 1.2 X
Track quality 100.0 %
Test CRC 2B119BE6
Copy CRC 2B119BE6
Copy OK

Track 2

Filename C:\My Documents\My FLAC\The New Pornographers - Mass Romantic (2000) [FLAC] {Matador}\02 - The Fake Headlines.wav

Pre-gap length 0:00:01.17

Peak level 100.0 %
Extraction speed 1.3 X
Track quality 100.0 %
Test CRC 2A4F7446
Copy CRC 2A4F7446
Copy OK

Track 3

Filename C:\My Documents\My FLAC\The New Pornographers - Mass Romantic (2000) [FLAC] {Matador}\03 - The Slow Descent Into Alcoholism.wav

Pre-gap length 0:00:01.44

Peak level 100.0 %
Extraction speed 1.4 X
Track quality 100.0 %
Test CRC F376B393
Copy CRC F376B393
Copy OK

Track 4

Filename C:\My Documents\My FLAC\The New Pornographers - Mass Romantic (2000) [FLAC] {Matador}\04 - Mystery Hours.wav

Peak level 100.0 %
Extraction speed 1.5 X
Track quality 100.0 %
Test CRC BD2668F8
Copy CRC BD2668F8
Copy OK

Track 5

Filename C:\My Documents\My FLAC\The New Pornographers - Mass Romantic (2000) [FLAC] {Matador}\05 - Jackie.wav

Pre-gap length 0:00:02.12

Peak level 100.0 %
Extraction speed 1.3 X
Track quality 99.9 %
Test CRC 92398BA5
Copy CRC 92398BA5
Copy OK

Track 6

Filename C:\My Documents\My FLAC\The New Pornographers - Mass Romantic (2000) [FLAC] {Matador}\06 - Letter From An Occupant.wav

Pre-gap length 0:00:02.11

Peak level 100.0 %
Extraction speed 1.7 X
Track quality 100.0 %
Test CRC DA5B981F
Copy CRC DA5B981F
Copy OK

Track 7

Filename C:\My Documents\My FLAC\The New Pornographers - Mass Romantic (2000) [FLAC] {Matador}\07 - To Wild Homes.wav

Pre-gap length 0:00:02.11

Peak level 99.9 %
Extraction speed 1.7 X
Track quality 100.0 %
Test CRC 53BCE82F
Copy CRC 53BCE82F
Copy OK

Track 8

Filename C:\My Documents\My FLAC\The New Pornographers - Mass Romantic (2000) [FLAC] {Matador}\08 - The Body Says No.wav

Pre-gap length 0:00:01.14

Peak level 100.0 %
Extraction speed 1.8 X
Track quality 100.0 %
Test CRC AD9A912D
Copy CRC AD9A912D
Copy OK

Track 9

Filename C:\My Documents\My FLAC\The New Pornographers - Mass Romantic (2000) [FLAC] {Matador}\09 - Execution Day.wav

Peak level 100.0 %
Extraction speed 1.8 X
Track quality 100.0 %
Test CRC 15D09705
Copy CRC 15D09705
Copy OK

Track 10

Filename C:\My Documents\My FLAC\The New Pornographers - Mass Romantic (2000) [FLAC] {Matador}\10 - Centre For Holy Wars.wav

Peak level 100.0 %
Extraction speed 1.9 X
Track quality 100.0 %
Test CRC 4BACDA08
Copy CRC 4BACDA08
Copy OK

Track 11

Filename C:\My Documents\My FLAC\The New Pornographers - Mass Romantic (2000) [FLAC] {Matador}\11 - The Mary Martin Show.wav

Pre-gap length 0:00:01.13

Peak level 99.9 %
Extraction speed 2.0 X
Track quality 100.0 %
Test CRC FCD3B99C
Copy CRC FCD3B99C
Copy OK

Track 12

Filename C:\My Documents\My FLAC\The New Pornographers - Mass Romantic (2000) [FLAC] {Matador}\12 - Breakin' The Law.wav

Pre-gap length 0:00:01.12

Peak level 100.0 %
Extraction speed 0.0 X
Track quality 94.5 %
Test CRC 3D08CA9C
Copy CRC F9DE5162
Copy finished


No tracks could be verified as accurate

There were errors

End of status report

–– CUETools DB Plugin V2.1.6

[CTDB TOCID: MHWu1Eh1Tr4BgqfOhtkpUCKdAvQ-] found
Submit result: insufficient quality
Track | CTDB Status
1 | (101/103) Accurately ripped
2 | (103/103) Accurately ripped
3 | (103/103) Accurately ripped
4 | (103/103) Accurately ripped
5 | (102/103) Accurately ripped
6 | (103/103) Accurately ripped
7 | (103/103) Accurately ripped
8 | (103/103) Accurately ripped
9 | (103/103) Accurately ripped
10 | (103/103) Accurately ripped
11 | (103/103) Accurately ripped
12 | (101/103) Accurately ripped


==== Log checksum C3F2AFA56C4BF87C8E371C0D9EC64E7C5655F497D8C014811DD2E638AA3F9653 ====


The New Pornographers - Mass Romantic (2000) {Matador}