Tags
Language
Tags

The Power Station - s/t (1985) {Capitol}

Posted By: TestTickles
The Power Station - s/t (1985) {Capitol}

The Power Station - s/t (1985) {Capitol}
EAC Rip | FLAC with CUE and log | scans | 231 mb
MP3 CBR 320kbps | RAR | 78 mb
Genre: pop rock, rock pop

The Power Station is the 1985 self-titled debut albu by the supergroup The Power Station. Featuring Tony Thompson of Chic, John & Andy Taylor of Duran Duran and Robert Palmer of Vinegar Joe, this featured the hit songs "Some Like It Hot", "Bang A Gong (Get It On)". and "Communication".

The Power Station - s/t (1985) {Capitol}

1. Some Like It Hot (5:06)
2. Murderess (4:17)
3. Lonely Tonight (3:59)
4. Communication (3:37)
5. Get It On (Bang A Gong) (5:31)
6. Go To Zero (4:58)
7. Harvest For The World (3:36)
8. Still In Your Heart (3:07)

Robert Palmer-vocals
John Taylor-bass
Andy Taylor-guitar
Tony Thompson-drums

Produced by Bernard Edwards
Engineered & mixed by Jason Corsaro
Mastered by Howie Weinberg

The Power Station - s/t (1985) {Capitol}


Exact Audio Copy V1.1 from 23. June 2015

EAC extraction logfile from 4. February 2017, 14:01

The Power Station / The Power Station

Used drive : TEAC DVD-ROM DV-28SW Adapter: 1 ID: 0

Read mode : Secure
Utilize accurate stream : Yes
Defeat audio cache : Yes
Make use of C2 pointers : No

Read offset correction : 6
Overread into Lead-In and Lead-Out : No
Fill up missing offset samples with silence : Yes
Delete leading and trailing silent blocks : No
Null samples used in CRC calculations : Yes
Used interface : Native Win32 interface for Win NT & 2000
Gap handling : Appended to previous track

Used output format : Internal WAV Routines
Sample format : 44.100 Hz; 16 Bit; Stereo


TOC of the extracted CD

Track | Start | Length | Start sector | End sector
––––––––––––––––––––––––––––-
1 | 0:00.00 | 5:05.42 | 0 | 22916
2 | 5:05.42 | 4:17.68 | 22917 | 42259
3 | 9:23.35 | 4:00.70 | 42260 | 60329
4 | 13:24.30 | 3:38.10 | 60330 | 76689
5 | 17:02.40 | 5:29.55 | 76690 | 101419
6 | 22:32.20 | 4:58.35 | 101420 | 123804
7 | 27:30.55 | 3:37.15 | 123805 | 140094
8 | 31:07.70 | 3:07.70 | 140095 | 154189


Track 1

Filename C:\My Documents\My FLAC\The Power Station - s-t (1985) [FLAC] {Capitol}\01 - Some Like It Hot.wav

Pre-gap length 0:00:02.00

Peak level 100.0 %
Extraction speed 2.9 X
Track quality 100.0 %
Test CRC 29673572
Copy CRC 29673572
Accurately ripped (confidence 13) [3876A162] (AR v2)
Copy OK

Track 2

Filename C:\My Documents\My FLAC\The Power Station - s-t (1985) [FLAC] {Capitol}\02 - Murderess.wav

Peak level 100.0 %
Extraction speed 3.2 X
Track quality 100.0 %
Test CRC 95BBBC67
Copy CRC 95BBBC67
Accurately ripped (confidence 13) [F847BF42] (AR v2)
Copy OK

Track 3

Filename C:\My Documents\My FLAC\The Power Station - s-t (1985) [FLAC] {Capitol}\03 - Lonely Tonight.wav

Peak level 100.0 %
Extraction speed 3.5 X
Track quality 100.0 %
Test CRC 6A0DE91B
Copy CRC 6A0DE91B
Accurately ripped (confidence 13) [50CEB060] (AR v2)
Copy OK

Track 4

Filename C:\My Documents\My FLAC\The Power Station - s-t (1985) [FLAC] {Capitol}\04 - Communication.wav

Pre-gap length 0:00:01.60

Peak level 100.0 %
Extraction speed 3.1 X
Track quality 99.9 %
Test CRC 0B570DB0
Copy CRC 0B570DB0
Accurately ripped (confidence 13) [D58507BD] (AR v2)
Copy OK

Track 5

Filename C:\My Documents\My FLAC\The Power Station - s-t (1985) [FLAC] {Capitol}\05 - Get It On (Bang A Gong).wav

Pre-gap length 0:00:01.00

Peak level 95.5 %
Extraction speed 3.9 X
Track quality 100.0 %
Test CRC 547A91B1
Copy CRC 547A91B1
Accurately ripped (confidence 13) [E71DFB03] (AR v2)
Copy OK

Track 6

Filename C:\My Documents\My FLAC\The Power Station - s-t (1985) [FLAC] {Capitol}\06 - Go To Zero.wav

Peak level 100.0 %
Extraction speed 3.7 X
Track quality 99.9 %
Test CRC 2341B567
Copy CRC 2341B567
Accurately ripped (confidence 13) [2226492C] (AR v2)
Copy OK

Track 7

Filename C:\My Documents\My FLAC\The Power Station - s-t (1985) [FLAC] {Capitol}\07 - Harvest For The World.wav

Peak level 97.2 %
Extraction speed 3.9 X
Track quality 100.0 %
Test CRC 6900D882
Copy CRC 6900D882
Accurately ripped (confidence 13) [9F6DFCB3] (AR v2)
Copy OK

Track 8

Filename C:\My Documents\My FLAC\The Power Station - s-t (1985) [FLAC] {Capitol}\08 - Still In Your Heart.wav

Peak level 100.0 %
Extraction speed 3.6 X
Track quality 99.9 %
Test CRC B9B07665
Copy CRC B9B07665
Accurately ripped (confidence 13) [17872E62] (AR v2)
Copy OK


All tracks accurately ripped

No errors occurred

End of status report

–– CUETools DB Plugin V2.1.6

[CTDB TOCID: KuAUMPiEly46yyg7X95NZ3Rc1cM-] found
Submit result: KuAUMPiEly46yyg7X95NZ3Rc1cM- has been confirmed
Track | CTDB Status
1 | (111/114) Accurately ripped
2 | (113/114) Accurately ripped
3 | (111/114) Accurately ripped
4 | (112/114) Accurately ripped
5 | (111/114) Accurately ripped
6 | (112/114) Accurately ripped
7 | ( 76/114) Accurately ripped
8 | (106/114) Accurately ripped


==== Log checksum D6496452FFC8DC5F5B68D904A43283A21ECB1DEEED48F4FADB1E86936559E59A ====


The Power Station - s/t (1985) {Capitol}