Tags
Language
Tags

VA - The Very Best Of Hot Tracks Volume 1 (1992) {Hot Tracks}

Posted By: TestTickles
VA - The Very Best Of Hot Tracks Volume 1 (1992) {Hot Tracks}

VA - The Very Best Of Hot Tracks Volume 1 (1992) {Hot Tracks}
EAC Rip | FLAC with CUE and LOG | scans | 500 mb
MP3 CBR 320 kbps | RAR | 165 mb
Genre: R&B, soul, pop, synth pop, dance pop, electronic pop

The Very Best Of Hot Tracks Volume 1 is a 1992 compilation CD, featuring some of the best hit songs of the 80's and 90's. This comes from the Hot Tracks gallery.

1. Yazoo - Situation
2. Michael Jackson - Smooth Criminal
3. George Michael - I Want Your Sex
4. Prince & The Revolution - Raspberry Beret
5. The Weather Girls - It's Raining Men
6. Nightforce - D.A.N.C.E.
7. Madonna - Into A Commotion (Medley)
8. New Order - Perfect Kiss
9. Coldcut featuring Yazz - Doctorin' The House

Exact Audio Copy V1.3 from 2. September 2016

EAC extraction logfile from 8. June 2018, 09:36

Various Artists / The Very Best Of Hot Tracks Volume 1

Used drive : PLEXTOR DVDR PX-716A Adapter: 1 ID: 1

Read mode : Secure
Utilize accurate stream : Yes
Defeat audio cache : Yes
Make use of C2 pointers : No

Read offset correction : 30
Overread into Lead-In and Lead-Out : No
Fill up missing offset samples with silence : Yes
Delete leading and trailing silent blocks : No
Null samples used in CRC calculations : Yes
Used interface : Native Win32 interface for Win NT & 2000
Gap handling : Appended to previous track

Used output format : User Defined Encoder
Selected bitrate : 1024 kBit/s
Quality : High
Add ID3 tag : No
Command line compressor : C:\Program Files\flac-1.3.1-win\win32\flac.exe
Additional command line options : -8 -e -p -V -T "ARTIST=%artist%" -T "TITLE=%title%" -T "ALBUM=%albumtitle%" -T "DATE=%year%" -T "TRACKNUMBER=%tracknr%" -T "GENRE=%genre%" -T "PERFORMER=%albuminterpret%" -T "COMPOSER=%composer%" %haslyrics%–tag-from-file=LYRICS="%lyricsfile%"%haslyrics% -T "ALBUMARTIST=%albumartist%" -T "DISCNUMBER=%cdnumber%" -T "TOTALDISCS=%totalcds%" -T "TOTALTRACKS=%numtracks%" -T "COMMENT=%comment%" %source% -o %dest%


TOC of the extracted CD

Track | Start | Length | Start sector | End sector
––––––––––––––––––––––––––––-
1 | 0:00.00 | 8:13.07 | 0 | 36981
2 | 8:13.07 | 6:08.05 | 36982 | 64586
3 | 14:21.12 | 6:15.70 | 64587 | 92781
4 | 20:37.07 | 7:13.65 | 92782 | 125321
5 | 27:50.72 | 8:25.73 | 125322 | 163269
6 | 36:16.70 | 6:14.57 | 163270 | 191376
7 | 42:31.52 | 13:35.55 | 191377 | 252556
8 | 56:07.32 | 11:32.30 | 252557 | 304486
9 | 67:39.62 | 5:48.63 | 304487 | 330649


Track 1

Filename C:\cuntfist\FLAC\VA - The Very Best Of Hot Tracks Volume 1 (1992) [FLAC] {Hot Tracks}\01 - Yazoo - Situation.wav

Pre-gap length 0:00:02.00

Peak level 99.9 %
Extraction speed 6.4 X
Track quality 100.0 %
Test CRC 778CB6BE
Copy CRC 778CB6BE
Accurately ripped (confidence 5) [864E2A50] (AR v2)
Copy OK

Track 2

Filename C:\cuntfist\FLAC\VA - The Very Best Of Hot Tracks Volume 1 (1992) [FLAC] {Hot Tracks}\02 - Michael Jackson - Smooth Criminal.wav

Pre-gap length 0:00:01.56

Peak level 98.8 %
Extraction speed 6.8 X
Track quality 100.0 %
Test CRC CEDF6013
Copy CRC CEDF6013
Accurately ripped (confidence 5) [46242F09] (AR v2)
Copy OK

Track 3

Filename C:\cuntfist\FLAC\VA - The Very Best Of Hot Tracks Volume 1 (1992) [FLAC] {Hot Tracks}\03 - George Michael - I Want Your Sex.wav

Peak level 98.8 %
Extraction speed 6.8 X
Track quality 100.0 %
Test CRC AC4C75BC
Copy CRC AC4C75BC
Accurately ripped (confidence 5) [02313600] (AR v2)
Copy OK

Track 4

Filename C:\cuntfist\FLAC\VA - The Very Best Of Hot Tracks Volume 1 (1992) [FLAC] {Hot Tracks}\04 - Prince - Raspberry Beret.wav

Peak level 98.8 %
Extraction speed 7.3 X
Track quality 100.0 %
Test CRC 96C7DE60
Copy CRC 96C7DE60
Accurately ripped (confidence 5) [C9BC5632] (AR v2)
Copy OK

Track 5

Filename C:\cuntfist\FLAC\VA - The Very Best Of Hot Tracks Volume 1 (1992) [FLAC] {Hot Tracks}\05 - The Weather Girls - It's Raining Men.wav

Pre-gap length 0:00:01.36

Peak level 98.8 %
Extraction speed 6.9 X
Track quality 99.9 %
Test CRC 37CA8271
Copy CRC 37CA8271
Accurately ripped (confidence 5) [3FEF4804] (AR v2)
Copy OK

Track 6

Filename C:\cuntfist\FLAC\VA - The Very Best Of Hot Tracks Volume 1 (1992) [FLAC] {Hot Tracks}\06 - Nightforce - D.A.N.C.E..wav

Peak level 98.8 %
Extraction speed 7.6 X
Track quality 100.0 %
Test CRC 638545AE
Copy CRC 638545AE
Accurately ripped (confidence 5) [8A3F1159] (AR v2)
Copy OK

Track 7

Filename C:\cuntfist\FLAC\VA - The Very Best Of Hot Tracks Volume 1 (1992) [FLAC] {Hot Tracks}\07 - Madonna - Into A Commotion (Medley).wav

Pre-gap length 0:00:01.36

Peak level 98.8 %
Extraction speed 7.7 X
Track quality 99.9 %
Test CRC 0177B378
Copy CRC 0177B378
Accurately ripped (confidence 5) [5D1049A1] (AR v2)
Copy OK

Track 8

Filename C:\cuntfist\FLAC\VA - The Very Best Of Hot Tracks Volume 1 (1992) [FLAC] {Hot Tracks}\08 - New Order - Perfect Kiss.wav

Pre-gap length 0:00:01.36

Peak level 98.8 %
Extraction speed 7.8 X
Track quality 100.0 %
Test CRC FBB67C23
Copy CRC FBB67C23
Accurately ripped (confidence 5) [4AF6AC78] (AR v2)
Copy OK

Track 9

Filename C:\cuntfist\FLAC\VA - The Very Best Of Hot Tracks Volume 1 (1992) [FLAC] {Hot Tracks}\09 - Coldcut featuring Yazz - Doctorin' The House.wav

Peak level 98.8 %
Extraction speed 7.1 X
Track quality 100.0 %
Test CRC DAE94872
Copy CRC DAE94872
Accurately ripped (confidence 5) [227A624C] (AR v2)
Copy OK


All tracks accurately ripped

No errors occurred

End of status report

–– CUETools DB Plugin V2.1.6

[CTDB TOCID: 3DzIzivaG6Ce_S3r93bjLQog3cw-] found
Submit result: 3DzIzivaG6Ce_S3r93bjLQog3cw- has been confirmed
Track | CTDB Status
1 | (4/4) Accurately ripped
2 | (4/4) Accurately ripped
3 | (4/4) Accurately ripped
4 | (4/4) Accurately ripped
5 | (4/4) Accurately ripped
6 | (4/4) Accurately ripped
7 | (4/4) Accurately ripped
8 | (4/4) Accurately ripped
9 | (4/4) Accurately ripped


==== Log checksum A8DE0B25B598D9E2E5F50CEFAB04A45D286BB0B92D4B38D2FE2C6AB33E27B694 ====


VA - The Very Best Of Hot Tracks Volume 1 (1992) {Hot Tracks}


Thank you to the original uploader.