Tags
Language
Tags

Thalía - Por Amor (1998) {Virgin}

Posted By: TestTickles
Thalía - Por Amor (1998) {Virgin}

Thalía - Por Amor (1998) {Virgin}
EAC Rip | FLAC with CUE and LOG | scans | 352 mb
MP3 CBR 320 kbps | RAR | 115 mb
Genre: Latin pop

Por Amor is the 1998 album by Mexican singer Ariadna Thalía Sodi Miranda, more commonly known as the mononym Thalía. This was released on the Virgin label.

01. Amor A La Mexicana (Cuca's Fiesta Edit) (3:50)
02. Por Amor (3:53)
03. Piel Morena (Hitmakers Radio Edit) (3:53)
04. Noches Sin Luna (3:58)
05. Mujer Latina (3:36)
06. Rosas (4:36)
07. Echa Pa'lante (3:51)
08. Ponle Remedio (4:07)
09. Es Tu Amor (4:35)
10. De Donde Soy (3:55)
11. Dicen Por Ahi (3:58)
12. Amor A La Mexicana (4:23)

Exact Audio Copy V1.0 beta 3 from 29. August 2011

EAC extraction logfile from 2. July 2014, 8:25

Thalía / Por Amor

Used drive : ASUS DRW-1814BL Adapter: 0 ID: 0

Read mode : Secure
Utilize accurate stream : Yes
Defeat audio cache : Yes
Make use of C2 pointers : No

Read offset correction : 6
Overread into Lead-In and Lead-Out : No
Fill up missing offset samples with silence : Yes
Delete leading and trailing silent blocks : No
Null samples used in CRC calculations : Yes
Used interface : Native Win32 interface for Win NT & 2000

Used output format : User Defined Encoder
Selected bitrate : 320 kBit/s
Quality : High
Add ID3 tag : No
Command line compressor : C:\Program Files\Exact Audio Copy\Flac\flac.exe
Additional command line options : -V -8 -T "Date=%year%" -T "Genre=%genre%" %source%


TOC of the extracted CD

Track | Start | Length | Start sector | End sector
––––––––––––––––––––––––––––-
1 | 0:00.00 | 3:45.45 | 0 | 16919
2 | 3:45.45 | 3:54.52 | 16920 | 34521
3 | 7:40.22 | 3:54.00 | 34522 | 52071
4 | 11:34.22 | 3:59.60 | 52072 | 70056
5 | 15:34.07 | 3:37.63 | 70057 | 86394
6 | 19:11.70 | 4:37.62 | 86395 | 107231
7 | 23:49.57 | 3:53.20 | 107232 | 124726
8 | 27:43.02 | 4:06.73 | 124727 | 143249
9 | 31:50.00 | 4:36.32 | 143250 | 163981
10 | 36:26.32 | 3:56.73 | 163982 | 181754
11 | 40:23.30 | 3:59.30 | 181755 | 199709
12 | 44:22.60 | 4:24.52 | 199710 | 219561


Range status and errors

Selected range

Filename C:\cuntfist\FLAC\Thalia - Por Amor (1998) [FLAC] {Virgin}\Thalía - Por Amor.wav

Peak level 100.0 %
Extraction speed 6.9 X
Range quality 100.0 %
Test CRC 01207884
Copy CRC 01207884
Copy OK

No errors occurred


AccurateRip summary

Track 1 not present in database
Track 2 not present in database
Track 3 not present in database
Track 4 not present in database
Track 5 not present in database
Track 6 not present in database
Track 7 not present in database
Track 8 not present in database
Track 9 not present in database
Track 10 not present in database
Track 11 not present in database
Track 12 not present in database

None of the tracks are present in the AccurateRip database

End of status report

==== Log checksum 548C5CA2E7D5B35C44F366BD9839C07AB2B8FC49C73DF54E035737AF7FD54986 ====


Thalía - Por Amor (1998) {Virgin}


Thank you to the original uploader.