Subcategories
Tags
Language
Tags

Tab Smith - Top 'n' Bottom [Recorded 1953-1954] (1997)

Posted By: gribovar
Tab Smith - Top 'n' Bottom [Recorded 1953-1954] (1997)

Tab Smith - Top 'n' Bottom [Recorded 1953-1954] (1997)
EAC Rip | FLAC (image+.cue+log) - 312 MB | MP3 CBR 320 kbps (LAME 3.93) - 155 MB | Covers (7 MB) included
Genre: Jazz, Jump Blues, Swing | RAR 3% Rec. | Label: Delmark Records (DE-499)

The third CD volume of altoist Tab Smith's United recordings features 21 selections, 14 of which had never been released before. The music ranges from Johnny Hodges-type small-group stomping swing and R&B-ish jump sides to sentimental ballads and a few vocal numbers (featuring unidentified singers). Among the personnel are trumpeter Irving Woods, pianist Teddy Brannon and drummer Walter Johnson. Accessible and fairly creative jazz, conservative for the early '50s but still quite enjoyable.
Tracklist:
01. Top 'n' Bottom
02. My Ideal
03. Mr. Gee
04. Don't Get Around Much Anymore
05. Prisoner of Love
06. Rock City
07. In a Little Spanish Town
08. For Only You (instrumental)
09. Tabolino
10. Imagination
11. The Moon Is Blue
12. Lady of Love
13. I'm a Bouncin' Mama
14. For Only You (vocal)
15. How Long Has It Been
16. If You Believe in Me
17. Crying My Blues Away
18. Baby Please Don't Go
19. Don't Take Your Love from Me
20. They Call Me a Fool
21. Zig Zag

Total time: 01:02:42

Exact Audio Copy V1.5 from 20. February 2020

EAC extraction logfile from 11. November 2020, 21:48

Tab Smith / Top 'n' Bottom

Used drive : SlimtypeDVD A DS8A5SH Adapter: 1 ID: 0

Read mode : Secure
Utilize accurate stream : Yes
Defeat audio cache : Yes
Make use of C2 pointers : No

Read offset correction : 6
Overread into Lead-In and Lead-Out : No
Fill up missing offset samples with silence : Yes
Delete leading and trailing silent blocks : No
Null samples used in CRC calculations : Yes
Used interface : Native Win32 interface for Win NT & 2000

Used output format : Internal WAV Routines
Sample format : 44.100 Hz; 16 Bit; Stereo


TOC of the extracted CD

Track | Start | Length | Start sector | End sector
––––––––––––––––––––––––––––-
1 | 0:00.00 | 2:50.12 | 0 | 12761
2 | 2:50.12 | 3:18.70 | 12762 | 27681
3 | 6:09.07 | 2:49.03 | 27682 | 40359
4 | 8:58.10 | 2:59.17 | 40360 | 53801
5 | 11:57.27 | 3:17.03 | 53802 | 68579
6 | 15:14.30 | 3:06.17 | 68580 | 82546
7 | 18:20.47 | 2:44.58 | 82547 | 94904
8 | 21:05.30 | 2:51.62 | 94905 | 107791
9 | 23:57.17 | 2:44.35 | 107792 | 120126
10 | 26:41.52 | 2:52.45 | 120127 | 133071
11 | 29:34.22 | 2:53.43 | 133072 | 146089
12 | 32:27.65 | 3:13.62 | 146090 | 160626
13 | 35:41.52 | 2:30.73 | 160627 | 171949
14 | 38:12.50 | 3:18.70 | 171950 | 186869
15 | 41:31.45 | 3:07.57 | 186870 | 200951
16 | 44:39.27 | 3:05.73 | 200952 | 214899
17 | 47:45.25 | 3:15.22 | 214900 | 229546
18 | 51:00.47 | 2:40.38 | 229547 | 241584
19 | 53:41.10 | 3:22.02 | 241585 | 256736
20 | 57:03.12 | 3:05.65 | 256737 | 270676
21 | 60:09.02 | 2:32.48 | 270677 | 282124


Range status and errors

Selected range

Filename D:\Music\WAV\Tab Smith - Top 'N' Bottom(1997)\Tab Smith - Top 'n' Bottom.wav

Peak level 100.0 %
Extraction speed 2.9 X
Range quality 100.0 %
Test CRC 34258C4D
Copy CRC 34258C4D
Copy OK

No errors occurred


AccurateRip summary

Track 1 accurately ripped (confidence 4) [5159532D] (AR v2)
Track 2 accurately ripped (confidence 4) [E35456EB] (AR v2)
Track 3 accurately ripped (confidence 4) [FBD0D3CD] (AR v2)
Track 4 accurately ripped (confidence 4) [83835107] (AR v2)
Track 5 accurately ripped (confidence 4) [8E268E5F] (AR v2)
Track 6 accurately ripped (confidence 4) [2002CADD] (AR v2)
Track 7 accurately ripped (confidence 4) [88C2BDC3] (AR v2)
Track 8 accurately ripped (confidence 4) [82FE2B71] (AR v2)
Track 9 accurately ripped (confidence 4) [49A442A5] (AR v2)
Track 10 accurately ripped (confidence 4) [801279DD] (AR v2)
Track 11 accurately ripped (confidence 4) [350B65A7] (AR v2)
Track 12 accurately ripped (confidence 4) [17B45BDB] (AR v2)
Track 13 accurately ripped (confidence 4) [E6852198] (AR v2)
Track 14 accurately ripped (confidence 4) [AE7A05B2] (AR v2)
Track 15 accurately ripped (confidence 4) [347D488E] (AR v2)
Track 16 accurately ripped (confidence 4) [DCDA9CCC] (AR v2)
Track 17 accurately ripped (confidence 4) [B3BAA463] (AR v2)
Track 18 accurately ripped (confidence 4) [F5FD47F2] (AR v2)
Track 19 accurately ripped (confidence 4) [71BB2029] (AR v2)
Track 20 accurately ripped (confidence 4) [EFB71261] (AR v2)
Track 21 accurately ripped (confidence 4) [AE1C8F4C] (AR v2)

All tracks accurately ripped

End of status report

==== Log checksum 4DC8D108CA1F73FC8186C6CFB2B7780911D54A7C9F78D26138C55649C40634D4 ====

[CUETools log; Date: 01.12.2020 14:51:04; Version: 2.1.4]
[CTDB TOCID: lNosXUXJP7RFvIZACOhDMOnoEY8-] found.
Track | CTDB Status
1 | (4/4) Accurately ripped
2 | (4/4) Accurately ripped
3 | (4/4) Accurately ripped
4 | (4/4) Accurately ripped
5 | (4/4) Accurately ripped
6 | (4/4) Accurately ripped
7 | (4/4) Accurately ripped
8 | (4/4) Accurately ripped
9 | (4/4) Accurately ripped
10 | (4/4) Accurately ripped
11 | (4/4) Accurately ripped
12 | (4/4) Accurately ripped
13 | (4/4) Accurately ripped
14 | (4/4) Accurately ripped
15 | (4/4) Accurately ripped
16 | (4/4) Accurately ripped
17 | (4/4) Accurately ripped
18 | (4/4) Accurately ripped
19 | (4/4) Accurately ripped
20 | (4/4) Accurately ripped
21 | (4/4) Accurately ripped
[AccurateRip ID: 002f5bc9-02d62c8d-200eb115] found.
Track [ CRC | V2 ] Status
01 [874217e3|5159532d] (0+4/4) Accurately ripped
02 [88c3a52d|e35456eb] (0+4/4) Accurately ripped
03 [79a74137|fbd0d3cd] (0+4/4) Accurately ripped
04 [12009478|83835107] (0+4/4) Accurately ripped
05 [189fd36d|8e268e5f] (0+4/4) Accurately ripped
06 [263bfca0|2002cadd] (0+4/4) Accurately ripped
07 [a140ba73|88c2bdc3] (0+4/4) Accurately ripped
08 [238179d8|82fe2b71] (0+4/4) Accurately ripped
09 [57a3e6a5|49a442a5] (0+4/4) Accurately ripped
10 [d95a8ac8|801279dd] (0+4/4) Accurately ripped
11 [9289e962|350b65a7] (0+4/4) Accurately ripped
12 [d8e2a7a2|17b45bdb] (0+4/4) Accurately ripped
13 [86565b03|e6852198] (0+4/4) Accurately ripped
14 [d1e597e2|ae7a05b2] (0+4/4) Accurately ripped
15 [2224b7e0|347d488e] (0+4/4) Accurately ripped
16 [eaeadfbf|dcda9ccc] (0+4/4) Accurately ripped
17 [df5bbbce|b3baa463] (0+4/4) Accurately ripped
18 [b7b38915|f5fd47f2] (0+4/4) Accurately ripped
19 [c4b2f7dd|71bb2029] (0+4/4) Accurately ripped
20 [425e48d7|efb71261] (0+4/4) Accurately ripped
21 [72e415fb|ae1c8f4c] (0+4/4) Accurately ripped

Track Peak [ CRC32 ] [W/O NULL] [ LOG ]
– 99,9 [34258C4D] [30B4EBFB] CRC32
01 99,9 [6B21E605] [AB7F3C72]
02 90,5 [123DF4B7] [114E0220]
03 94,8 [535A19F3] [C9A5B876]
04 89,7 [2477E059] [52347FFD]
05 91,8 [35DE2DFC] [E331245F]
06 99,9 [B60CED0B] [599D023A]
07 95,2 [1E28FB74] [F6911F19]
08 96,9 [1BC38FFB] [3631C427]
09 96,1 [B2945452] [0D0F3420]
10 93,4 [6E3F52ED] [1F6ED60B]
11 99,3 [CB67400A] [8C5D5CD9]
12 94,4 [67D69630] [8D58872B]
13 99,9 [93C7FDF5] [7EEF3822]
14 99,9 [561ADCA3] [68FB77DC]
15 97,4 [1EAF32E3] [55775605]
16 99,9 [8B21E762] [16022F61]
17 98,8 [18153A4A] [411CCBD5]
18 89,5 [DA6ADF8E] [F6C6D4A5]
19 90,5 [7DB6A315] [5397DEBB]
20 94,4 [D6966F5B] [6827CF60]
21 99,9 [062D6295] [CCB007E3]

Thanks to Leshi067

See also:
Tab Smith - Jump Time [Recorded 1951-1952] (1991)
Tab Smith - Ace High [Recorded 1952-1953] (1992)