Tags
Language
Tags

Tangerine Dream - Electronic Meditation (1970) [Reissue 1996]

Posted By:
Tangerine Dream - Electronic Meditation (1970) [Reissue 1996]

Tangerine Dream - Electronic Meditation (1970) [Reissue 1996]
EAC Rip | FLAC (tracks+.cue+log) - 198 MB | MP3 CBR 320 kbps (LAME 3.93) - 99 MB | Covers (12 MB) included
Genre: Progressive Electronic, Krautrock | RAR 3% Rec. | Label: Sequel Records (1032-2)

Electronic Meditation, Tangerine Dream's debut album, features the lineup of Edgar Froese, Conrad Schnitzler, and Klaus Schulze (his only album with Tangerine Dream). The album is not without its flaws, but it's strong in many ways and shows abundant promise. Wildly experimental timbres, passages, and textures dominate this sound world. Bringing a rock & roll effort to a decidedly avant-garde sound, the album manages to be very accessible and hard to dislike. Of those who were working at the same time, Electronic Meditation is most similar to the music of Pink Floyd and Amon Düül.
Tracklist:
01. Genesis
02. Journey Through A Burning Brain
03. Cold Smoke
04. Ashes To Ashes
05. Resurrection

Total time: 36:39

Exact Audio Copy V0.99 prebeta 4 from 23. January 2008

Отчёт EAC об извлечении, выполненном 20. апреля 2010, 13:53

Tangerine Dream / Electronic Meditation

Дисковод: _NEC DVD_RW ND-3520A Adapter: 3 ID: 0

Режим чтения : Достоверность
Использование точного потока : Да
Отключение кэша аудио : Да
Использование указателей C2 : Нет

Коррекция смещения при чтении : 48
Способность читать области Lead-in и Lead-out : Нет
Заполнение пропущенных сэмплов тишиной : Да
Удаление блоков с тишиной в начале и конце : Нет
При вычислениях CRC использовались нулевые сэмплы : Да
Интерфейс : Встроенный Win32-интерфейс для Win NT/2000
Обработка зазоров : Добавлено к предыдущему треку

Выходной формат : Пользовательский кодировщик
Выбранный битрейт : 128 kBit/s
Качество : Высокий
Добавление ID3-тэга : Нет
Утилита сжатия : C:\Program Files\Exact Audio Copy\Flac\flac.exe
Дополнительные параметры : -8 -V -T "ARTIST=%a" -T "TITLE=%t" -T "ALBUM=%g" -T "DATE=%y" -T "TRACKNUMBER=%n" -T "GENRE=%m" -T "COMMENT=EAC FLAC -8" %s


TOC извлечённого CD

Трек | Старт | Длительность | Начальный сектор | Конечный сектор
––––––––––––––––––––––––––––––––––-
1 | 0:00.00 | 5:57.22 | 0 | 26796
2 | 5:57.22 | 12:32.20 | 26797 | 83216
3 | 18:29.42 | 10:49.28 | 83217 | 131919
4 | 29:18.70 | 3:58.60 | 131920 | 149829
5 | 33:17.55 | 3:21.72 | 149830 | 164976


Трек 1

Имя файла D:\Выкладываемое\Tangerine Dream - Electronic Meditation\01 . Tangerine Dream - 01. Genesis (5-57).wav

Длина предзазора 0:00:02.00

Пиковый уровень 98.1 %
Качество трека 99.9 %
CRC теста 41DFC75E
CRC копии 41DFC75E
Трек не обнаружен в базе AccurateRip
Копирование… OK

Трек 2

Имя файла D:\Выкладываемое\Tangerine Dream - Electronic Meditation\02 . Tangerine Dream - 02. Journey Through A Burning Brain (12-32).wav

Пиковый уровень 98.2 %
Качество трека 100.0 %
CRC теста 5E55C4F3
CRC копии 5E55C4F3
Трек не обнаружен в базе AccurateRip
Копирование… OK

Трек 3

Имя файла D:\Выкладываемое\Tangerine Dream - Electronic Meditation\03 . Tangerine Dream - 03. Cold Smoke (10-48).wav

Пиковый уровень 98.1 %
Качество трека 99.9 %
CRC теста 54A358AA
CRC копии 54A358AA
Трек не обнаружен в базе AccurateRip
Копирование… OK

Трек 4

Имя файла D:\Выкладываемое\Tangerine Dream - Electronic Meditation\04 . Tangerine Dream - 04. Ashes To Ashes (3-58).wav

Пиковый уровень 98.1 %
Качество трека 100.0 %
CRC теста 42568FFE
CRC копии 42568FFE
Трек не обнаружен в базе AccurateRip
Копирование… OK

Трек 5

Имя файла D:\Выкладываемое\Tangerine Dream - Electronic Meditation\05 . Tangerine Dream - 05. Resurrection (3-21).wav

Пиковый уровень 98.0 %
Качество трека 100.0 %
CRC теста E11E108F
CRC копии E11E108F
Трек не обнаружен в базе AccurateRip
Копирование… OK


Ни одного трека нет в базе AccurateRip

Ошибок не произошло

Конец отчёта

[CUETools log; Date: 13.12.2017 18:43:34; Version: 2.1.4]
[CTDB TOCID: pNJtUivI2ACwUHUGyWUd00ipVh0-] found.
Track | CTDB Status
1 | (125/125) Accurately ripped
2 | (125/125) Accurately ripped
3 | (125/125) Accurately ripped
4 | (124/125) Accurately ripped
5 | (124/125) Accurately ripped
[AccurateRip ID: 00087ec5-002736d2-41089705] found.
Track [ CRC | V2 ] Status
01 [9af7e36c|f68ac609] (003+004/107) Accurately ripped
02 [21da85c4|a0696ce3] (003+004/107) Accurately ripped
03 [585ecb99|a1dda9a6] (003+004/107) Accurately ripped
04 [58db315c|f41622dc] (003+004/106) Accurately ripped
05 [b8805f64|155ef8f1] (003+004/108) Accurately ripped
Offsetted by -1894:
01 [241caced] (012/107) Accurately ripped
02 [d023bd3c] (012/107) Accurately ripped
03 [35cfb5b5] (012/107) Accurately ripped
04 [acbc9f9b] (012/106) Accurately ripped
05 [f191645a] (013/108) Accurately ripped
Offsetted by 266:
01 [094876c6] (018/107) Accurately ripped
02 [6e66b7d9] (018/107) Accurately ripped
03 [f0e8ec9d] (018/107) Accurately ripped
04 [04405569] (018/106) Accurately ripped
05 [21ff5b96] (018/108) Accurately ripped
Offsetted by -1900:
01 [dfb7b1b7] (000/107) No match (V2 was not tested)
02 [a216e0d4] (000/107) No match (V2 was not tested)
03 [6a88d29d] (000/107) No match (V2 was not tested)
04 [a0f4010e] (000/106) No match (V2 was not tested)
05 [25d208c7] (000/108) No match (V2 was not tested)

Track Peak [ CRC32 ] [W/O NULL] [ LOG ]
– 98,2 [B6553995] [360CC869]
01 98,1 [41DFC75E] [66551D56] CRC32
02 98,2 [5E55C4F3] [28E6AFC8] CRC32
03 98,1 [54A358AA] [C16A4779] CRC32
04 98,1 [42568FFE] [04CCCA3D] CRC32
05 98,0 [E11E108F] [21A03699] CRC32

Thanks to Женя 91