Tags
Language
Tags

Tangerine Dream - Goblins' Club (1996)

Posted By: gribovar
Tangerine Dream - Goblins' Club (1996)

Tangerine Dream - Goblins' Club (1996)
EAC Rip | APE (image+.cue+log) - 370 MB | MP3 CBR 320 kbps (LAME 3.93) - 142 MB | Covers (10 MB) included
Genre: Progressive Electronic | RAR 3% Rec. | Label: When! Recordings (WEN CD 011)

The music of this album was inspired by the German writer Christian Morgenstern, but there was also another idea behind the CD title, as Edgar Froese explained: A different view of earth as a Goblins Club from high above during a transatlantic flight. For this release, TD could not yet use all the advanced technology planned to introduce into their music. Not all of these devices did already work perfectly, so TD had to perform with this new technology step by step. This resulted in a musical product similar to its predecessors in style. This time, TD even had used wide-spread computer samples or presets: Fans were surprised when they found the passage of foreign female lyrics on At Darwin's Motel almost identical to the track The Child In Us on Enigma's CD Le Roi Est Mort, Vive Le Roi!

Tracklist:
01. Towards the Evening Star
02. At Darwin's Motel
03. On Cranes' Passage
04. Rising Haul in Silence
05. United Goblins Parade
06. Lamb with Radar Eyes
07. Elf June and the Midnight Patrol
08. Sad Merlin's Sunday

Total time: 56:02

Exact Audio Copy V0.99 prebeta 3 from 28. July 2007

EAC extraction logfile from 27. January 2008, 2:13

Tangerine Dream / Goblin's Club

Used drive : PIONEER DVD-RW DVR-111 Adapter: 1 ID: 1

Read mode : Secure
Utilize accurate stream : Yes
Defeat audio cache : Yes
Make use of C2 pointers : No

Read offset correction : 48
Overread into Lead-In and Lead-Out : No
Fill up missing offset samples with silence : Yes
Delete leading and trailing silent blocks : No
Null samples used in CRC calculations : Yes
Used interface : Installed external ASPI interface

Used output format : Monkey's Audio Lossless Encoder
Selected bitrate : Normal Lossless Compression
Quality : High
Add ID3 tag : Yes
Command line compressor : C:\Program Files\Monkey's Audio\MAC.exe
Use compression offset : 0


TOC of the extracted CD

Track | Start | Length | Start sector | End sector
––––––––––––––––––––––––––––-
1 | 0:00.00 | 6:20.60 | 0 | 28559
2 | 6:20.60 | 7:25.60 | 28560 | 61994
3 | 13:46.45 | 4:31.50 | 61995 | 82369
4 | 18:18.20 | 7:36.50 | 82370 | 116619
5 | 25:54.70 | 5:47.57 | 116620 | 142701
6 | 31:42.52 | 8:42.38 | 142702 | 181889
7 | 40:25.15 | 4:43.62 | 181890 | 203176
8 | 45:09.02 | 10:52.65 | 203177 | 252141


Range status and errors

Selected range

Filename R:\StoreFT\MUSIC\MISC\Tangerine Dream - Goblin's Club\Tangerine Dream - Goblin's Club.wav

Peak level 100.0 %
Range quality 100.0 %
Test CRC DCE49AB6
Copy CRC DCE49AB6
Copy OK

No errors occurred


AccurateRip summary

Track 1 accurately ripped (confidence 2) [3D9CC2D0]
Track 2 accurately ripped (confidence 2) [90618DFC]
Track 3 accurately ripped (confidence 2) [340C81F8]
Track 4 accurately ripped (confidence 2) [5CA2CF92]
Track 5 accurately ripped (confidence 2) [7D46F7D9]
Track 6 accurately ripped (confidence 2) [8427CE69]
Track 7 accurately ripped (confidence 2) [4918AB4A]
Track 8 accurately ripped (confidence 2) [144568BE]

All tracks accurately ripped

End of status report

[CUETools log; Date: 10.10.2018 18:37:07; Version: 2.1.4]
Truncated 4608 extra samples in some input files.
[CTDB TOCID: phM4KVUmpXSxwQGT6Aiqoo0yCrw-] found.
Track | CTDB Status
1 | (66/66) Accurately ripped
2 | (66/66) Accurately ripped
3 | (66/66) Accurately ripped
4 | (65/66) Accurately ripped
5 | (66/66) Accurately ripped
6 | (65/66) Accurately ripped
7 | (66/66) Accurately ripped
8 | (66/66) Accurately ripped
[AccurateRip ID: 00105190-006d8e2e-5c0d2108] found.
Track [ CRC | V2 ] Status
01 [3d9cc2d0|428275ef] (29+23/54) Accurately ripped
02 [90618dfc|d0681ea4] (30+23/55) Accurately ripped
03 [340c81f8|1030553e] (29+23/54) Accurately ripped
04 [5ca2cf92|b2a8ed46] (29+21/52) Accurately ripped
05 [7d46f7d9|1e7e62a2] (29+23/54) Accurately ripped
06 [8427ce69|7cfc02f3] (29+22/53) Accurately ripped
07 [4918ab4a|15d56801] (29+23/54) Accurately ripped
08 [144568be|618ecb73] (30+23/55) Accurately ripped
Offsetted by -71:
01 [43d73079] (00/54) No match (V2 was not tested)
02 [83376b5a] (00/55) No match (V2 was not tested)
03 [6b42b20c] (00/54) No match (V2 was not tested)
04 [c3d3f6c7] (00/52) No match (V2 was not tested)
05 [e589a257] (00/54) No match (V2 was not tested)
06 [a3eb15fd] (00/53) No match (V2 was not tested)
07 [59cd5917] (00/54) No match (V2 was not tested)
08 [ab084140] (00/55) No match (V2 was not tested)

Track Peak [ CRC32 ] [W/O NULL] [ LOG ]
– 100,0 [DCE49AB6] [60F0324A] CRC32
01 99,8 [373C602F] [DC9781CD]
02 98,8 [43569804] [1CE7AED9]
03 98,8 [40AEE0CD] [142CFA8B]
04 98,8 [94D8A96A] [CBB75F3F]
05 98,9 [70F2092D] [DF431A81]
06 100,0 [610F16BF] [80888060]
07 98,0 [BA618836] [B76B93AD]
08 98,8 [05F6A5E9] [F89AA30D]

Thanks to grog85

See also:

Tangerine Dream - The Electronic Journey (2010) [10CD Box Set]
Tangerine Dream - The Dream Roots Collection [5CD Box Set] (1996)
Tangerine Dream - Electronic Meditation (1970) [Reissue 1996]
Tangerine Dream - Zeit (1972) [Reissue 1996]
Tangerine Dream - Phaedra (1974) [Definitive Edition 1995]
Tangerine Dream - Ricochet (1975) [Definitive Edition 1995]
Tangerine Dream - Stratosfear (1976) [Definitive Edition 1995]
Tangerine Dream - Force Majeure (1979) [Reissue 1995]
Tangerine Dream - Pergamon (1980) [Reissue 1996]
Tangerine Dream - White Eagle (1982) [Reissue 1995]
Tangerine Dream - Logos Live (1982) [Definitive Edition 1995]
Tangerine Dream - Legend (OST) (1986) [Reissue 1995]
Tangerine Dream - Tyger (1987) [Reissue 1996]
Tangerine Dream - Optical Race (1988)
Tangerine Dream - Live Miles (1988) [Reissue 2003]
Tangerine Dream - Lily On The Beach (1989)
Tangerine Dream - Melrose (1990)
Tangerine Dream - Dead Solid Perfect (OST) (1990)
Tangerine Dream - The Park Is Mine (OST) (1991)
Tangerine Dream - Deadly Care (OST) (1992)
Tangerine Dream - Quinoa (1992) [Reissue 2009]
Tangerine Dream - Catch Me If You Can (OST) (1994)
Tangerine Dream - Tyranny Of Beauty (1995)
Tangerine Dream - Zoning (OST) (1996)
Tangerine Dream - The Hollywood Years Vol. 1 (1998)
Tangerine Dream - The Hollywood Years Vol. 2 (1998)
Tangerine Dream - Antique Dreams (2000)
Tangerine Dream - Soundmill Navigator (2000)
Tangerine Dream - The Bootleg Box Set Vol. 1 [7CD] (2003)
Tangerine Dream - Purgatorio (2004)
Tangerine Dream - Arizona Live '92 (2004) [Reissue 2009]
Tangerine Dream - Cleveland - June 24th 1986 (2005)
Tangerine Dream - Blue Dawn (2006)
Tangerine Dream - The Essential Tangerine Dream (2006)
Tangerine Dream - Plays Tangerine Dream (2006)
Tangerine Dream - Views From A Red Train (2008)
Tangerine Dream - Booster (2008)
Tangerine Dream - Booster Vol. 2 (2008)
Tangerine Dream - The Antholog... Space Years Volume One (2008)
Tangerine Dream - DM V (Dream Mixes V) (2010)
Tangerine Dream - The London Eye Concert (2010)
Tangerine Dream - Edgar Allan Poe's The Island Of The Fay (2011)
Tangerine Dream - The Virgin Years 1974-1978 [3CD Box Set] (2011)
Tangerine Dream - The Official...ies Vol.1 [4CD Box Set] (2015)
Edgar Froese - 2 Albums (1974-1995)
Edgar Froese - Ages (1978) [Reissue 1997]
Edgar Froese - Pinnacles (1983)