Tags
Language
Tags

Tangerine Dream - The Essential Tangerine Dream (2006)

Posted By:
Tangerine Dream - The Essential Tangerine Dream (2006)

Tangerine Dream - The Essential Tangerine Dream (2006)
EAC Rip | FLAC (image+.cue+log) - 376 MB | MP3 CBR 320 kbps (LAME 3.93) - 184 MB | Covers (14 MB) included
Genre: Electronic, Berlin School | RAR 3% Rec. | Label: Virgin Records (00946 3 43983 2 9)

A rather confusing package for those with a newfound interest in Tangerine Dream, The Essential Tangerine Dream might appear to be a three-in-one compilation by glancing at the front, since it lists three titles - two of which happen to be title tracks of Tangerine Dream albums - seemingly picked at random. As it is a single-disc compilation that features full-length versions of tracks by a band that thrived in the ten- to 20-minute format, the set is more like a sampler than an all-encompassing anthology designed to satisfy the curious. That said, this is an excellent sampler, one that should spark further interest in the group's deep discography.
Tracklist:
01. Movements Of A Visionary
02. Rubycon (Part One)
03. Stratosfear
04. Couldburst Flight
05. Tangram (Set 1)
06. Hyperborea

Total time: 01:11:50

Exact Audio Copy V1.0 beta 3 from 29. August 2011

Отчёт EAC об извлечении, выполненном 16. декабря 2014, 12:50

Tangerine Dream / The Essential Tangerine Dream

Дисковод: Optiarc DVD RW AD-7173A Adapter: 0 ID: 0

Режим чтения : Достоверность
Использование точного потока : Да
Отключение кэша аудио : Да
Использование указателей C2 : Нет

Коррекция смещения при чтении : 48
Способность читать области Lead-in и Lead-out : Нет
Заполнение пропущенных сэмплов тишиной : Да
Удаление блоков с тишиной в начале и конце : Нет
При вычислениях CRC использовались нулевые сэмплы : Да
Интерфейс : Установленный внешний ASPI-интерфейс

Выходной формат : Пользовательский кодировщик
Выбранный битрейт : 320 kBit/s
Качество : Высокий
Добавление ID3-тега : Нет
Утилита сжатия : C:\Program Files\Exact Audio Copy\Flac\flac.exe
Дополнительные параметры : -V -8 -T "Date=%year%" -T "Genre=%genre%" %source%


TOC извлечённого CD

Трек | Старт | Длительность | Начальный сектор | Конечный сектор
––––––––––––––––––––––––––––––––––-
1 | 0:00.00 | 7:57.47 | 0 | 35821
2 | 7:57.47 | 17:18.46 | 35822 | 113717
3 | 25:16.18 | 10:35.73 | 113718 | 161415
4 | 35:52.16 | 7:29.04 | 161416 | 195094
5 | 43:21.20 | 19:51.41 | 195095 | 284460
6 | 63:12.61 | 8:37.44 | 284461 | 323279


Характеристики диапазона извлечения и сообщения об ошибках

Выбранный диапазон

Имя файла C:\Documents and Settings\Home\Рабочий стол\Tangerine Dream\Tangerine Dream - The Essential Tangerine Dream.wav

Пиковый уровень 99.8 %
Скорость извлечения 5.5 X
Качество диапазона 99.9 %
CRC теста 300071F3
CRC копии 300071F3
Копирование… OK

Ошибок не произошло


AccurateRip: сводка

Трек 1 : извлечено точно (доверие 8) [80083DB3] (AR v2)
Трек 2 : извлечено точно (доверие 8) [D74A6D0C] (AR v2)
Трек 3 : извлечено точно (доверие 8) [DD117D5A] (AR v2)
Трек 4 : извлечено точно (доверие 8) [B919EE00] (AR v2)
Трек 5 : извлечено точно (доверие 8) [526AC121] (AR v2)
Трек 6 : извлечено точно (доверие 8) [14D38046] (AR v2)

Все треки извлечены точно

Конец отчёта

==== Контрольная сумма отчёта AA1308AD3B0AF1DB0837127507C4DFC8C92F17D14F437B243CBAC0DB4CF76E7E ====

[CUETools log; Date: 05.02.2017 0:37:22; Version: 2.1.4]
[CTDB TOCID: Kmnykcxcl_.4gCQky6kWB8i6QN0-] found.
Track | CTDB Status
1 | (40/40) Accurately ripped
2 | (39/40) Accurately ripped
3 | (40/40) Accurately ripped
4 | (40/40) Accurately ripped
5 | (40/40) Accurately ripped
6 | (40/40) Accurately ripped
[AccurateRip ID: 0010fec0-005b9bd0-5310d606] found.
Track [ CRC | V2 ] Status
01 [9c35f469|80083db3] (05+10/25) Accurately ripped
02 [e87c1ab5|d74a6d0c] (05+10/25) Accurately ripped
03 [64faf6da|dd117d5a] (05+10/25) Accurately ripped
04 [441612c9|b919ee00] (05+10/25) Accurately ripped
05 [8d4a7196|526ac121] (05+10/25) Accurately ripped
06 [d84dfdf8|14d38046] (05+10/25) Accurately ripped
Offsetted by -86:
01 [48240608] (02/25) Accurately ripped
02 [eeda9919] (02/25) Accurately ripped
03 [7dfee89b] (02/25) Accurately ripped
04 [577296da] (02/25) Accurately ripped
05 [7d9f4684] (02/25) Accurately ripped
06 [0d639e4c] (02/25) Accurately ripped
Offsetted by -36:
01 [cd443fce] (00/25) No match (V2 was not tested)
02 [a8c06a5d] (00/25) No match (V2 was not tested)
03 [da8d47e5] (00/25) No match (V2 was not tested)
04 [88f39bdb] (00/25) No match (V2 was not tested)
05 [af7f571b] (00/25) No match (V2 was not tested)
06 [f6ebc8bd] (00/25) No match (V2 was not tested)
Offsetted by -30:
01 [dcfed5d7] (00/25) No match (V2 was not tested)
02 [a19c0979] (00/25) No match (V2 was not tested)
03 [f6c73093] (00/25) No match (V2 was not tested)
04 [0d1bf815] (00/25) No match (V2 was not tested)
05 [7d334de0] (00/25) No match (V2 was not tested)
06 [70a2e743] (00/25) No match (V2 was not tested)

Track Peak [ CRC32 ] [W/O NULL] [ LOG ]
– 99,8 [300071F3] [7CB6759D] CRC32
01 66,6 [A2573B8B] [B67E8AE1]
02 95,5 [4795A429] [95E7449D]
03 97,3 [C7117883] [7BE021CD]
04 98,0 [EBB662C2] [4958FE1A]
05 97,7 [E39C1BEE] [308D28E1]
06 99,8 [4733DEFB] [35216E57]

Thanks to webcocon0507