Taste - Taste (1969) [2011, Japanese Mini-LP SHM-CD]

Posted By: BlondStyle
Taste - Taste (1969) [2011, Japanese Mini-LP SHM-CD]

Taste - Taste (1969) [2011, Japanese Mini-LP SHM-CD]
Rock, Blues | EAC Rip | FLAC, Tracks+CUE+LOG+Covers (front/back)-600dpi (JPEG) | 38:56 Min | 255,76 Mb
Label: Universal Music (Japan) | Released: 2011, December, 29
Taste - Taste (1969) [2011, Japanese Mini-LP SHM-CD]

The fact that they, like so many late-'60s contemporaries, were molded in the image of Cream has often been cited to diminish the stature of Irish power trio Taste. But, all things being equal, it's impossible to dismiss their fine eponymous debut based solely on obvious source of inspiration, nor, by any means, the singular talents of the band's creative and performing focal point, vocalist and guitarist Rory Gallagher - barely 20 years of age upon its release in 1969. After opening with the menacing staccatos and power chords of the forward-looking, proto-metal classic "Blister on the Moon," Taste turn right back around and indulge their retro-fueled Brit-blues influences with a bottleneck run through Leadbelly's "Leavin' Blues" - a show of contrasts that speaks volumes to the breadth of Gallagher's instrumental versatility. The blues keep coming with the guitarist's self-penned showcase "Sugar Mama" and a more restrained acoustic "Hail," then the hard rock fires are stoked once again with "Born on the Wrong Side of Town" - a track whose regional folk music accents did much to foment Gallagher's enduring status as a blue-collar, Emerald Isle legend. And so it goes until the album's conclusion: with alternating glimpses of past and future musical tendencies peppering remaining tracks "Same Old Story," "Dual Carriageway Pain" (both gritty blues-rockers showing riffs that sometimes smacked of the then brand-new Led Zeppelin), "Catfish" (a traditional blues standard turned monster jam), and "I'm Moving On" (a spare but spunk-filled Hank Snow cover). Ultimately, it's a stylistic stew that would arguably get honed to better focus and achieve greater distinction from the competition on Taste's second album, a year later. But who's to say that Taste didn't have almost as much influence as Cream on future bands such as Rush, whose early records are quite literally mapped out on this release -- a worthy addition to collections of this exciting period in British rock. ~Review by Eduardo Rivadavia~

Release of the album: 1969, April, 1 [LP Polydor, Cat.# 583 042, UK]
Release of this CD: 2011, December, 29 [CD Universal Music (Japan), Cat.# UICY-93972 / EAN: 4988005549044]
Note: Cardboard sleeve (mini LP) reissue from Taste featuring the high-fidelity SHM-CD format (compatible with standard CD players). Part of a four-album Taste SHM-CD Cardboard sleeve (mini LP) reissue series featuring the albums "Taste," "On The Boards," "Live Taste," and "Live At Isle Of Wight."
Original release ℗ 1969 Polydor.
This release ℗ & © 2011 Universal Music Japan.

Taste - Taste (1969) [2011, Japanese Mini-LP SHM-CD]


Bass Guitar – Richard McCracken
Design [Sleeve Design] – Paragon Publicity
Drums – John Wilson
Producer – Tony Colton
Vocals, Lead Guitar – Rory Gallagher


Taste - Taste (1969) [2011, Japanese Mini-LP SHM-CD]


Tracklist:

01. Blister On The Moon (03:27)
(Rory Gallagher)
02. Leaving Blues (04:17)
(Huddie Ledbetter)
03. Sugar Mama (07:15)
(Chester Burnett)
04. Hail (02:37)
(Rory Gallagher)
05. Born On The Wrong Side Of Time (04:01)
(Rory Gallagher)
06. Dual Carriageway Pain (03:14)
(Rory Gallagher)
07. Same Old Story (03:33)
(Rory Gallagher)
08. Catfish (08:04)
(Traditional)
[Arranged By – Rory Gallagher]

09. I'm Moving On (02:28)
(Hank Snow)

Exact Audio Copy V1.0 beta 3 from 29. August 2011

EAC extraction logfile from 6. May 2016, 22:43

Taste / Taste

Used drive : HL-DT-STDVDRAM GH24NS90 Adapter: 1 ID: 0

Read mode : Secure
Utilize accurate stream : Yes
Defeat audio cache : No
Make use of C2 pointers : Yes

Read offset correction : 6
Overread into Lead-In and Lead-Out : No
Fill up missing offset samples with silence : Yes
Delete leading and trailing silent blocks : No
Null samples used in CRC calculations : Yes
Used interface : Native Win32 interface for Win NT & 2000
Gap handling : Appended to previous track

Used output format : User Defined Encoder
Selected bitrate : 1024 kBit/s
Quality : High
Add ID3 tag : No
Command line compressor : C:\Program Files (x86)\FLAC\metaflac.exe
Additional command line options : -8


TOC of the extracted CD

Track | Start | Length | Start sector | End sector
––––––––––––––––––––––––––––-
1 | 0:00.00 | 3:27.00 | 0 | 15524
2 | 3:27.00 | 4:16.47 | 15525 | 34771
3 | 7:43.47 | 7:15.02 | 34772 | 67398
4 | 14:58.49 | 2:37.22 | 67399 | 79195
5 | 17:35.71 | 4:01.13 | 79196 | 97283
6 | 21:37.09 | 3:13.56 | 97284 | 111814
7 | 24:50.65 | 3:33.04 | 111815 | 127793
8 | 28:23.69 | 8:04.30 | 127794 | 164123
9 | 36:28.24 | 2:28.10 | 164124 | 175233


Track 1

Filename C:\Exact Audio Copy\Taste\Taste\01. Blister On The Moon.wav

Pre-gap length 0:00:02.00

Peak level 99.8 %
Extraction speed 3.5 X
Track quality 100.0 %
Test CRC 30BFCAB6
Copy CRC 30BFCAB6
Accurately ripped (confidence 5) [2DC880F7] (AR v2)
Copy OK

Track 2

Filename C:\Exact Audio Copy\Taste\Taste\02. Leaving Blues.wav

Pre-gap length 0:00:01.66

Peak level 99.8 %
Extraction speed 4.0 X
Track quality 99.9 %
Test CRC DC78C39C
Copy CRC DC78C39C
Accurately ripped (confidence 5) [94EE10E2] (AR v2)
Copy OK

Track 3

Filename C:\Exact Audio Copy\Taste\Taste\03. Sugar Mama.wav

Pre-gap length 0:00:02.18

Peak level 99.8 %
Extraction speed 4.4 X
Track quality 99.9 %
Test CRC C46390D0
Copy CRC C46390D0
Accurately ripped (confidence 5) [BC9EFF8B] (AR v2)
Copy OK

Track 4

Filename C:\Exact Audio Copy\Taste\Taste\04. Hail.wav

Pre-gap length 0:00:02.11

Peak level 99.8 %
Extraction speed 4.8 X
Track quality 100.0 %
Test CRC 7A44AF22
Copy CRC 7A44AF22
Accurately ripped (confidence 5) [9EB006E9] (AR v2)
Copy OK

Track 5

Filename C:\Exact Audio Copy\Taste\Taste\05. Born On The Wrong Side Of Time.wav

Pre-gap length 0:00:02.10

Peak level 99.8 %
Extraction speed 2.5 X
Track quality 99.8 %
Test CRC A23684A7
Copy CRC A23684A7
Accurately ripped (confidence 5) [D2445166] (AR v2)
Copy OK

Track 6

Filename C:\Exact Audio Copy\Taste\Taste\06. Dual Carriageway Pain.wav

Pre-gap length 0:00:02.20

Peak level 99.8 %
Extraction speed 5.4 X
Track quality 99.8 %
Test CRC EEFDFB5B
Copy CRC EEFDFB5B
Accurately ripped (confidence 5) [5DEF5C63] (AR v2)
Copy OK

Track 7

Filename C:\Exact Audio Copy\Taste\Taste\07. Same Old Story.wav

Pre-gap length 0:00:02.08

Peak level 99.8 %
Extraction speed 3.3 X
Track quality 99.9 %
Test CRC D58BEABC
Copy CRC D58BEABC
Accurately ripped (confidence 5) [CA182E98] (AR v2)
Copy OK

Track 8

Filename C:\Exact Audio Copy\Taste\Taste\08. Catfish.wav

Pre-gap length 0:00:02.22

Peak level 99.8 %
Extraction speed 6.3 X
Track quality 100.0 %
Test CRC 4358B343
Copy CRC 4358B343
Accurately ripped (confidence 5) [A5471886] (AR v2)
Copy OK

Track 9

Filename C:\Exact Audio Copy\Taste\Taste\09. I'm Moving On.wav

Pre-gap length 0:00:02.10

Peak level 99.8 %
Extraction speed 6.2 X
Track quality 100.0 %
Test CRC A19AC9A5
Copy CRC A19AC9A5
Accurately ripped (confidence 5) [FC6551FE] (AR v2)
Copy OK


All tracks accurately ripped

No errors occurred

End of status report

==== Log checksum 2396E0B920462D23685104B95BCD90BB2E019E487E76CFE9DEB8F10937C178DC ====

foobar2000 1.3.9 / Dynamic Range Meter 1.1.1
log date: 2016-05-09 18:23:18

––––––––––––––––––––––––––––––––––––––––
Analyzed: Taste / Taste
––––––––––––––––––––––––––––––––––––––––

DR Peak RMS Duration Track
––––––––––––––––––––––––––––––––––––––––
DR9 -0.01 dB -10.49 dB 3:27 01-Blister On The Moon
DR13 -0.01 dB -16.47 dB 4:17 02-Leaving Blues
DR8 -0.01 dB -11.18 dB 7:15 03-Sugar Mama
DR14 -0.01 dB -16.96 dB 2:37 04-Hail
DR9 -0.01 dB -11.69 dB 4:01 05-Born On The Wrong Side Of Time
DR9 -0.01 dB -10.17 dB 3:14 06-Dual Carriageway Pain
DR7 -0.01 dB -9.17 dB 3:33 07-Same Old Story
DR8 -0.01 dB -10.37 dB 8:04 08-Catfish
DR11 -0.01 dB -12.80 dB 2:28 09-I'm Moving On
––––––––––––––––––––––––––––––––––––––––

Number of tracks: 9
Official DR value: DR10

Samplerate: 44100 Hz
Channels: 2
Bits per sample: 16
Bitrate: 863 kbps
Codec: FLAC
================================================================================

All thanks to - saintsmon
Nitroflare
password: BlondStyle