Tags
Language
Tags

Vassily Sinaisky, Bolshoi Theatre Orchestra, Svetlana Zakharova, David Hallberg - Tchaikovsky: The Sleeping Beauty (2012)

Posted By: Vilboa
Vassily Sinaisky, Bolshoi Theatre Orchestra, Svetlana Zakharova, David Hallberg - Tchaikovsky: The Sleeping Beauty (2012)

Vassily Sinaisky, Bolshoi Theatre Orchestra, Svetlana Zakharova, David Hallberg - Tchaikovsky: The Sleeping Beauty (2012) [Blu-Ray]
BluRay | BDMV | MPEG-4 AVC Video / 27997 kbps / 1080i / 29,970 fps | 137 min | 32,8 Gb
Audio1: LPCM Audio / 2.0 / 16-bit | Audio2: DTS-HD Master Audio / 5.1 / 48 kHz / 2526 kbps / 16-bit

BluRay-rip | AVC | MKV 1920x1080 / 6215 kbps / 29,97 fps | 137 min | 7,43 Gb
Audio: DTS / 6ch / 48.0 KHz / 16 bits
Classical | Bel Air Classiques

The choreographer, Yuri Grigorovich presents a new version of one of his most famous choreography for a breath taking experience in splendid sets designed by Ezio Frigerio and more than 400 new costumes designed by Franca Squarciapino. The american superstar dancer David Hallberg is Prince Désiré. Hallberg is the first main american soloist ever to be hired by the Bolshoi Ballet. Princess Aurora is danced by the principal Svetlana Zakharova, well known by Parisian audience thanks to her many performances at the Palais Garnier. She is also the soloist of the best seller “Pharaoh’s daughter ” DVD released by Bel Air Classiques in 2004. They are joined by a great cast : Maria Allash (Lilac Fairy) , Artem Ovcharenko (Bluebird) and Nina Kaptsova (Princess Florine).

Cast:
Princess Aurora - Svetlana Zakharova
Prince Désiré - David Hallberg
Lilac Fairy - Maria Allash
Carabosse - Alexei Loparevich
Bluebird - Artem Ovcharenko
Princess Florine - Nina Kaptsova
King Florestan - Andrei Sitnikov
Queen - Kristina Karasyova
Bolshoi Ballet
Bolshoi Theatre Orchestra
Conductor - Vassily Sinaisky
Yuri Grigorovich, choreographer (after Marius Petipa)


Disc Title: SLEEPING_BEAUTY
Disc Size: 35 250 393 458 bytes
Protection: AACS
BD-Java: No
Playlist: 00001.MPLS
Size: 35 180 574 720 bytes
Length: 2:17:29.975
Total Bitrate: 34,11 Mbps
Video: MPEG-4 AVC Video / 27997 kbps / 1080i / 29,970 fps / 16:9 / High Profile 4.1
Audio: Russian / LPCM Audio / 2.0 / 48 kHz / 1536 kbps / 16-bit
Audio: Russian / DTS-HD Master Audio / 5.1 / 48 kHz / 2625 kbps / 16-bit (DTS Core: 5.1 / 48 kHz / 1509 kbps / 16-bit)


General
Unique ID : 250370921010328094245855052177003567777 (0xBC5BAF763A44E64D8D10D6AF442CDAA1)
Complete name : C:\The_Sleeping_Beauty.mkv
Format : Matroska
Format version : Version 2
File size : 7.43 GiB
Duration : 2h 17mn
Overall bit rate : 7 740 Kbps
Movie name : The_Sleeping_Beauty
Encoded date : UTC 2018-04-29 07:36:06
Writing application : DVDFab 9.1.6.8
Writing library : libebml v0.7.8 + libmatroska v0.8.1

Video
ID : 1
Format : AVC
Format/Info : Advanced Video Codec
Format profile : High@L4.1
Format settings, CABAC : Yes
Format settings, ReFrames : 2 frames
Codec ID : V_MPEG4/ISO/AVC
Duration : 2h 17mn
Bit rate : 6 215 Kbps
Width : 1 920 pixels
Height : 1 080 pixels
Display aspect ratio : 16:9
Frame rate mode : Constant
Frame rate : 29.970 fps
Color space : YUV
Chroma subsampling : 4:2:0
Bit depth : 8 bits
Scan type : Progressive
Bits/(Pixel*Frame) : 0.100
Stream size : 5.84 GiB (79%)
Writing library : x264 core 142
Encoding settings : cabac=1 / ref=1 / deblock=1:-1:-1 / analyse=0x3:0 / me=hex / subme=5 / psy=0 / mixed_ref=0 / me_range=16 / chroma_me=1 / trellis=0 / 8x8dct=1 / cqm=0 / deadzone=21,11 / fast_pskip=1 / chroma_qp_offset=0 / threads=8 / lookahead_threads=2 / sliced_threads=0 / nr=0 / decimate=1 / interlaced=0 / bluray_compat=0 / constrained_intra=0 / bframes=2 / b_pyramid=0 / b_adapt=1 / b_bias=0 / direct=1 / weightb=1 / open_gop=0 / weightp=0 / keyint=24 / keyint_min=13 / scenecut=40 / intra_refresh=0 / rc=abr / mbtree=0 / bitrate=6215 / ratetol=1.0 / qcomp=0.60 / qpmin=0 / qpmax=69 / qpstep=4 / ip_ratio=1.40 / pb_ratio=1.30 / aq=1:1.00
Default : Yes
Forced : No
Color primaries : BT.709
Transfer characteristics : BT.709
Matrix coefficients : BT.709
Color range : Limited

Audio
ID : 2
Format : DTS
Format/Info : Digital Theater Systems
Mode : 16
Format settings, Endianness : Big
Codec ID : A_DTS
Duration : 2h 17mn
Bit rate mode : Constant
Bit rate : 1 509 Kbps
Channel(s) : 6 channels
Channel positions : Front: L C R, Side: L R, LFE
Sampling rate : 48.0 KHz
Bit depth : 16 bits
Compression mode : Lossy
Stream size : 1.45 GiB (19%)
Language : Russian
Default : Yes
Forced : No

Menu
00:00:00.000 : en:Chapter 01
00:03:50.930 : en:Chapter 02
00:07:51.671 : en:Chapter 03
00:13:20.933 : en:Chapter 04
00:14:47.186 : en:Chapter 05
00:15:30.095 : en:Chapter 06
00:16:41.867 : en:Chapter 07
00:17:19.772 : en:Chapter 08
00:18:43.622 : en:Chapter 09
00:20:27.092 : en:Chapter 10
00:22:11.763 : en:Chapter 11
00:29:43.848 : en:Chapter 12
00:30:59.057 : en:Chapter 13
00:34:20.758 : en:Chapter 14
00:39:46.450 : en:Chapter 15
00:41:39.129 : en:Chapter 16
00:49:28.198 : en:Chapter 17
00:51:29.786 : en:Chapter 18
00:55:18.715 : en:Chapter 19
00:57:27.110 : en:Chapter 20
01:04:35.104 : en:Chapter 21
01:06:38.627 : en:Chapter 22
01:07:44.126 : en:Chapter 23
01:08:40.349 : en:Chapter 24
01:11:00.189 : en:Chapter 25
01:12:28.210 : en:Chapter 26
01:13:59.835 : en:Chapter 27
01:20:05.901 : en:Chapter 28
01:22:53.034 : en:Chapter 29
01:24:28.229 : en:Chapter 30
01:29:46.147 : en:Chapter 31
01:31:59.947 : en:Chapter 32
01:34:31.799 : en:Chapter 33
01:39:49.116 : en:Chapter 34
01:48:09.316 : en:Chapter 35
01:49:53.153 : en:Chapter 36
01:52:40.453 : en:Chapter 37
01:55:07.533 : en:Chapter 38
02:01:40.359 : en:Chapter 39
02:03:18.023 : en:Chapter 40
02:05:58.183 : en:Chapter 41
02:08:03.609 : en:Chapter 42
02:11:05.858 : en:Chapter 43
02:12:11.490 : en:Chapter 44

All screenshots taken from BDRip

Vassily Sinaisky, Bolshoi Theatre Orchestra, Svetlana Zakharova, David Hallberg - Tchaikovsky: The Sleeping Beauty (2012)