Tags
Language
Tags

Ten Years After - Recorded Live (1973) [2013, Chrysalis, 825646413393]

Posted By: v3122
Ten Years After - Recorded Live (1973) [2013, Chrysalis, 825646413393]

Ten Years After - Recorded Live (1973)
EAC | Flac(Image) + Cue + Log & MP3 CBR 320Kbps
2CD | 2013 | Chrysalis, 825646413393 | ~ 911 or 363 Mb | Scans
Blues Rock | Bonus Tracks

The cover of Ten Years After's 1973 album Recorded Live depicts a giant reel-to-reel recorder, which certainly captures the era when this double-LP set was recorded. Approaching the end of their run – only one more album would come, 1974's Positive Vibrations – Ten Years After were deep into the thick of '70s arena rock, so everything they played on-stage wound up stretching well beyond the five-minute mark, sometimes reaching upward of 11 minutes. Everything on this double-LP places improvisation over groove – a sentiment that is accentuated on the 2013 expansion, which winds up running 21 tracks over two discs, adding bonus outtakes to the original double-LP set. The best parts here are the improvisations, particularly Alvin Lee's long, languid guitar solos, but this album – either in its original incarnation or in its expansion – is a distinctly '70s creation: it's unhurried and indulgent, reveling in its slow, steady march to a virtuosic, never-ending guitar solo.

by Stephen Thomas Erlewine, AMG
Ten Years After - Recorded Live (1973):

Ten Years After - Recorded Live (1973) [2013, Chrysalis, 825646413393]

Tracklist CD1:

Original Record One
01. One Of These Days (6:27)
02. You Give Me Loving (6:02)
03. Good Morning Little Schoolgirl (7:27)
04. The Hobbit (8:36)
05. Help Me (11:03)

Bonus Tracks
06. Time Is Flying (5:36)
07. Standing At The Station (11:51)
08. Jam (18:09)

Exact Audio Copy V1.0 beta 3 from 29. August 2011

EAC extraction logfile from 22. October 2013, 18:16

Ten Years After / Recorded Live CD1

Used drive : ATAPI iHAS124 B Adapter: 2 ID: 0

Read mode : Secure
Utilize accurate stream : Yes
Defeat audio cache : Yes
Make use of C2 pointers : No

Read offset correction : 6
Overread into Lead-In and Lead-Out : No
Fill up missing offset samples with silence : Yes
Delete leading and trailing silent blocks : No
Null samples used in CRC calculations : Yes
Used interface : Native Win32 interface for Win NT & 2000

Used output format : User Defined Encoder
Selected bitrate : 1024 kBit/s
Quality : High
Add ID3 tag : No
Command line compressor : C:\Program Files (x86)\Exact Audio Copy\FLAC\FLAC.EXE
Additional command line options : -8 -V -T "ARTIST=%artist%" -T "TITLE=%title%" -T "ALBUM=%albumtitle%" -T "DATE=%year%" -T "TRACKNUMBER=%tracknr%" -T "GENRE=%genre%" -T "PERFORMER=%albuminterpret%" -T "COMPOSER=%composer%" %haslyrics%–tag-from-file=LYRICS="%lyricsfile%"%haslyrics% -T "ALBUMARTIST=%albumartist%" -T "DISCNUMBER=%cdnumber%" -T "TOTALDISCS=%totalcds%" -T "TOTALTRACKS=%numtracks%" -T "COMMENT=%comment%" %source% -o %dest%


TOC of the extracted CD

Track | Start | Length | Start sector | End sector
––––––––––––––––––––––––––––-
1 | 0:00.00 | 6:27.22 | 0 | 29046
2 | 6:27.22 | 6:02.14 | 29047 | 56210
3 | 12:29.36 | 7:26.55 | 56211 | 89715
4 | 19:56.16 | 8:35.74 | 89716 | 128414
5 | 28:32.15 | 11:03.00 | 128415 | 178139
6 | 39:35.15 | 5:36.03 | 178140 | 203342
7 | 45:11.18 | 11:50.47 | 203343 | 256639
8 | 57:01.65 | 18:08.73 | 256640 | 338312


Range status and errors

Selected range

Filename G:\CD\Ten Years After - Recorded Live CD1.wav

Peak level 86.7 %
Extraction speed 6.8 X
Range quality 100.0 %
Test CRC 55FCAD58
Copy CRC 55FCAD58
Copy OK

No errors occurred


AccurateRip summary

Track 1 not present in database
Track 2 not present in database
Track 3 not present in database
Track 4 not present in database
Track 5 not present in database
Track 6 not present in database
Track 7 not present in database
Track 8 not present in database

None of the tracks are present in the AccurateRip database

End of status report

==== Log checksum 7A0176CE8950814219CEF4F4AD708F99DF3194EB40B9D317204090B6DA756FD5 ====


foobar2000 1.2.9 / Dynamic Range Meter 1.1.1
log date: 2013-11-05 10:38:43

––––––––––––––––––––––––––––––––––––––––
Analyzed: Ten Years After / Recorded Live CD1
––––––––––––––––––––––––––––––––––––––––

DR Peak RMS Duration Track
––––––––––––––––––––––––––––––––––––––––
DR11 -1.23 dB -14.38 dB 6:27 01-One Of These Days
DR11 -1.28 dB -14.23 dB 6:02 02-You Give Me Loving
DR11 -1.23 dB -14.01 dB 7:27 03-Good Morning Little Schoolgirl
DR13 -1.48 dB -18.83 dB 8:36 04-The Hobbit
DR11 -1.41 dB -15.40 dB 11:03 05-Help Me
DR10 -1.23 dB -13.19 dB 5:36 06-Time Is Flying
DR8 -1.44 dB -11.45 dB 11:51 07-Standing At The Station
DR10 -1.23 dB -13.54 dB 18:09 08-Jam
––––––––––––––––––––––––––––––––––––––––

Number of tracks: 8
Official DR value: DR11

Samplerate: 44100 Hz
Channels: 2
Bits per sample: 16
Bitrate: 794 kbps
Codec: FLAC

Ten Years After - Recorded Live (1973) [2013, Chrysalis, 825646413393]

Tracklist CD2:

Bonus Tracks
01. Help Me (12:06)
02. I Woke Up This Morning (4:26)
03. Sweet Little Sixteen (4:24)
04. Jam (16:33)

Original Record Two
05. Classical Thing (0:53)
06. Scat Thing (0:57)
07. I Can't Keep From Crying Sometimes (Part 1) (1:57)
08. Extension On One Chord (10:45)
09. I Can't Keep From Crying Sometimes (Part 2) (3:12)
10. Silly Thing (1:09)
11. Slow Blues in C (8:14)
12. I'm Going Home (10:54)
13. Choo Choo Mama (3:21)

Exact Audio Copy V1.0 beta 3 from 29. August 2011

EAC extraction logfile from 22. October 2013, 20:31

Ten Years After / Recorded Live CD2

Used drive : ATAPI iHAS124 B Adapter: 2 ID: 0

Read mode : Secure
Utilize accurate stream : Yes
Defeat audio cache : Yes
Make use of C2 pointers : No

Read offset correction : 6
Overread into Lead-In and Lead-Out : No
Fill up missing offset samples with silence : Yes
Delete leading and trailing silent blocks : No
Null samples used in CRC calculations : Yes
Used interface : Native Win32 interface for Win NT & 2000

Used output format : User Defined Encoder
Selected bitrate : 1024 kBit/s
Quality : High
Add ID3 tag : No
Command line compressor : C:\Program Files (x86)\Exact Audio Copy\FLAC\FLAC.EXE
Additional command line options : -8 -V -T "ARTIST=%artist%" -T "TITLE=%title%" -T "ALBUM=%albumtitle%" -T "DATE=%year%" -T "TRACKNUMBER=%tracknr%" -T "GENRE=%genre%" -T "PERFORMER=%albuminterpret%" -T "COMPOSER=%composer%" %haslyrics%–tag-from-file=LYRICS="%lyricsfile%"%haslyrics% -T "ALBUMARTIST=%albumartist%" -T "DISCNUMBER=%cdnumber%" -T "TOTALDISCS=%totalcds%" -T "TOTALTRACKS=%numtracks%" -T "COMMENT=%comment%" %source% -o %dest%


TOC of the extracted CD

Track | Start | Length | Start sector | End sector
––––––––––––––––––––––––––––-
1 | 0:00.00 | 12:05.54 | 0 | 54428
2 | 12:05.54 | 4:26.12 | 54429 | 74390
3 | 16:31.66 | 4:24.03 | 74391 | 94193
4 | 20:55.69 | 16:32.48 | 94194 | 168641
5 | 37:28.42 | 0:52.71 | 168642 | 172612
6 | 38:21.38 | 0:57.20 | 172613 | 176907
7 | 39:18.58 | 1:57.30 | 176908 | 185712
8 | 41:16.13 | 10:45.33 | 185713 | 234120
9 | 52:01.46 | 3:12.34 | 234121 | 248554
10 | 55:14.05 | 1:08.56 | 248555 | 253710
11 | 56:22.61 | 8:14.03 | 253711 | 290763
12 | 64:36.64 | 10:54.34 | 290764 | 339847
13 | 75:31.23 | 3:21.35 | 339848 | 354957


Range status and errors

Selected range

Filename G:\CD\Ten Years After - Recorded Live CD2.wav

Peak level 86.7 %
Extraction speed 6.9 X
Range quality 100.0 %
Test CRC 6F1A82FB
Copy CRC 6F1A82FB
Copy OK

No errors occurred


AccurateRip summary

Track 1 not present in database
Track 2 not present in database
Track 3 not present in database
Track 4 not present in database
Track 5 not present in database
Track 6 not present in database
Track 7 not present in database
Track 8 not present in database
Track 9 not present in database
Track 10 not present in database
Track 11 not present in database
Track 12 not present in database
Track 13 not present in database

None of the tracks are present in the AccurateRip database

End of status report

==== Log checksum 9DB1BF8765BA623809F3E307C86CBAE36E86874AF78DB1DA52E829E239233971 ====


foobar2000 1.2.9 / Dynamic Range Meter 1.1.1
log date: 2013-11-05 10:39:05

––––––––––––––––––––––––––––––––––––––––
Analyzed: Ten Years After / Recorded Live CD2
––––––––––––––––––––––––––––––––––––––––

DR Peak RMS Duration Track
––––––––––––––––––––––––––––––––––––––––
DR8 -1.23 dB -10.91 dB 12:06 01-Help Me
DR8 -1.23 dB -10.79 dB 4:26 02-I Woke Up These Morning
DR10 -1.41 dB -13.10 dB 4:24 03-Sweet Little Sixteen
DR10 -1.23 dB -13.27 dB 16:33 04-Jam
DR13 -9.48 dB -27.53 dB 0:53 05-Classical Thing
DR11 -2.35 dB -18.14 dB 0:57 06-Seat Thing
DR13 -1.77 dB -17.13 dB 1:57 07-I Can't Keep From Crying Sometimes (Part 1)
DR9 -1.23 dB -12.41 dB 10:45 08-Extension On One Chord
DR9 -1.23 dB -15.59 dB 3:12 09-I Can't Keep From Crying Sometimes (Part 2)
DR11 -4.77 dB -20.84 dB 1:09 10-Silly Thing
DR10 -1.45 dB -15.24 dB 8:14 11-Slow Blues in C
DR11 -1.41 dB -14.30 dB 10:54 12-I'm Going Home
DR10 -1.43 dB -13.11 dB 3:21 13-Choo Choo Mama
––––––––––––––––––––––––––––––––––––––––

Number of tracks: 13
Official DR value: DR10

Samplerate: 44100 Hz
Channels: 2
Bits per sample: 16
Bitrate: 813 kbps
Codec: FLAC

Ten Years After - Recorded Live (1973) [2013, Chrysalis, 825646413393]

All thanks go to the original releaser

Ten Years After in my Blog
Download Ten Years After - Recorded Live (1973):