Tags
Language
Tags

Ten Years After - Recorded Live (1973)

Posted By: v3122
Ten Years After - Recorded Live (1973)

Ten Years After - Recorded Live (1973)
EAC | Flac(Image) + Cue + Log & MP3 CBR 320Kbps
1988 | Chrysalis, VK 41049, DIDX 4148 | ~ 447 or 183 Mb | Scans
Classic Rock / Blues Rock

This live set is OK in small doses. Ten Years After were always rooted in the blues, and the highlights here, such as "Good Morning Little Schoolgirl" and "Slow Blues in C," show they hadn't changed. While this set is competent enough, there just isn't enough of the excitement you would expect coming from this band. You could say that they could do no more and no less, and that proved to be the conundrum for Ten Years After. With Recorded Live they had become predictable, and there wasn't really anywhere left for them to go.

by James Chrispell, AMG
Ten Years After - Recorded Live (1973)


Ten Years After - Recorded Live (1973):

Ten Years After - Recorded Live (1973)

Tracklist:

01. One of These Days - 6:26
02. You Give Me Loving - 6:03
03. Good Morning Little Schoolgirl - 7:36
04. Help Me - 11:07
05. Classical Thing - 0:56
06. Scat Thing - 0:54
07. I Can't Keep From Crying Sometimes 1 - 9:05
08. I Can't Keep From Crying Sometimes 2 - 3:39
09. I Can't Keep From Crying Sometimes 3 - 3:16
10. Silly Thing - 0:55
11. Slow Blues in C - 7:52
12. I'm Going Home - 11:40
13. Choo Choo Mama - 3:12

Exact Audio Copy V1.0 beta 4 from 7. December 2014

EAC extraction logfile from 12. February 2016, 22:10

Ten Years After / Recorded Live (1988, VK 41049, DIDX 4148)

Used drive : ATAPI iHAS124 B Adapter: 1 ID: 0

Read mode : Secure
Utilize accurate stream : Yes
Defeat audio cache : Yes
Make use of C2 pointers : No

Read offset correction : 6
Overread into Lead-In and Lead-Out : No
Fill up missing offset samples with silence : Yes
Delete leading and trailing silent blocks : No
Null samples used in CRC calculations : Yes
Used interface : Installed external ASPI interface

Used output format : User Defined Encoder
Selected bitrate : 128 kBit/s
Quality : High
Add ID3 tag : Yes
Command line compressor : C:\Program Files (x86)\Exact Audio Copy\Flac\flac.exe
Additional command line options : -V -8 -T "Date=%year%" -T "Genre=%genre%" %source%


TOC of the extracted CD

Track | Start | Length | Start sector | End sector
––––––––––––––––––––––––––––-
1 | 0:00.00 | 6:26.27 | 0 | 28976
2 | 6:26.27 | 6:02.48 | 28977 | 56174
3 | 12:29.00 | 7:35.65 | 56175 | 90364
4 | 20:04.65 | 11:06.40 | 90365 | 140354
5 | 31:11.30 | 0:55.65 | 140355 | 144544
6 | 32:07.20 | 0:54.07 | 144545 | 148601
7 | 33:01.27 | 9:04.45 | 148602 | 189446
8 | 42:05.72 | 3:38.68 | 189447 | 205864
9 | 45:44.65 | 3:15.67 | 205865 | 220556
10 | 49:00.57 | 0:54.55 | 220557 | 224661
11 | 49:55.37 | 7:52.35 | 224662 | 260096
12 | 57:47.72 | 11:39.58 | 260097 | 312579
13 | 69:27.55 | 3:11.47 | 312580 | 326951


Range status and errors

Selected range

Filename G:\CD\Ten Years After - Recorded Live.wav

Peak level 100.0 %
Extraction speed 6.7 X
Range quality 100.0 %
Test CRC ED949DA1
Copy CRC ED949DA1
Copy OK

No errors occurred


AccurateRip summary

Track 1 accurately ripped (confidence 6) [C626E053] (AR v2)
Track 2 accurately ripped (confidence 6) [995523C9] (AR v2)
Track 3 accurately ripped (confidence 6) [14D15A9F] (AR v2)
Track 4 accurately ripped (confidence 6) [30FE1D66] (AR v2)
Track 5 accurately ripped (confidence 6) [6F1CA8DA] (AR v2)
Track 6 accurately ripped (confidence 6) [5D09E533] (AR v2)
Track 7 accurately ripped (confidence 6) [C01E9ACB] (AR v2)
Track 8 accurately ripped (confidence 6) [1DBDC330] (AR v2)
Track 9 accurately ripped (confidence 6) [7CAF07B6] (AR v2)
Track 10 accurately ripped (confidence 6) [11766DD8] (AR v2)
Track 11 accurately ripped (confidence 6) [A72CDA90] (AR v2)
Track 12 accurately ripped (confidence 6) [6D3AC757] (AR v2)
Track 13 accurately ripped (confidence 3) [0F38F64B] (AR v2)

All tracks accurately ripped

End of status report

–– CUETools DB Plugin V2.1.4

[CTDB TOCID: cdaLeH9r.RVFYR.XLtKBYSpFQXs-] found
Submit result: cdaLeH9r.RVFYR.XLtKBYSpFQXs- has been confirmed
Track | CTDB Status
1 | (15/17) Accurately ripped
2 | (15/17) Accurately ripped
3 | (15/17) Accurately ripped
4 | (15/17) Accurately ripped
5 | (15/17) Accurately ripped
6 | (15/17) Accurately ripped
7 | (15/17) Accurately ripped
8 | (15/17) Accurately ripped
9 | (15/17) Accurately ripped
10 | (15/17) Accurately ripped
11 | (15/17) Accurately ripped
12 | (15/17) Accurately ripped
13 | (15/17) Accurately ripped


==== Log checksum 544BC4C2850B6163C645578F013D90299D91FD63B03793A26668EFF277421F74 ====


DR Peak RMS Duration Track
––––––––––––––––––––––––––––––––––––––––
DR12 -0.69 dB -15.43 dB 6:26 01-One of These Days
DR12 -1.37 dB -15.34 dB 6:03 02-You Give Me Loving
DR12 -2.47 dB -15.73 dB 7:36 03-Good Morning Little Schoolgirl
DR12 0.00 dB -15.86 dB 11:07 04-Help Me
DR12 -8.94 dB -26.99 dB 0:56 05-Classical Thing
DR10 -2.13 dB -18.45 dB 0:54 06-Scat Thing
DR11 0.00 dB -13.89 dB 9:05 07-I Can't Keep From Crying Sometimes 1
DR11 -0.44 dB -13.46 dB 3:39 08-I Can't Keep From Crying Sometimes 2
DR10 -1.29 dB -16.31 dB 3:16 09-I Can't Keep From Crying Sometimes 3
DR11 -3.91 dB -20.42 dB 0:55 10-Silly Thing
DR12 -0.51 dB -16.09 dB 7:52 11-Slow Blues in C
DR12 -0.05 dB -15.83 dB 11:40 12-I'm Going Home
DR12 0.00 dB -14.11 dB 3:12 13-Choo Choo Mama
––––––––––––––––––––––––––––––––––––––––

Number of tracks: 13
Official DR value: DR12

Samplerate: 44100 Hz
Channels: 2
Bits per sample: 16
Bitrate: 813 kbps
Codec: FLAC

[CUETools log; Date: 12.07.2016 18:11:10; Version: 2.1.4]
[CTDB TOCID: cdaLeH9r.RVFYR.XLtKBYSpFQXs-] found.
Track | CTDB Status
1 | (22/24) Accurately ripped
2 | (22/24) Accurately ripped
3 | (21/24) Accurately ripped
4 | (21/24) Accurately ripped
5 | (21/24) Accurately ripped
6 | (22/24) Accurately ripped
7 | (22/24) Accurately ripped
8 | (22/24) Accurately ripped
9 | (22/24) Accurately ripped
10 | (22/24) Accurately ripped
11 | (22/24) Accurately ripped
12 | (21/24) Accurately ripped
13 | (22/24) Accurately ripped
[AccurateRip ID: 0023d87b-015f051c-e111070d] found.
Track [ CRC | V2 ] Status
01 [08625d47|c626e053] (14+07/31) Accurately ripped
02 [7b751f23|995523c9] (14+07/31) Accurately ripped
03 [f4863d03|14d15a9f] (14+07/31) Accurately ripped
04 [de740103|30fe1d66] (14+07/30) Accurately ripped
05 [c635640a|6f1ca8da] (14+07/30) Accurately ripped
06 [61e2996b|5d09e533] (14+07/31) Accurately ripped
07 [35a61a3b|c01e9acb] (14+07/31) Accurately ripped
08 [70b3820f|1dbdc330] (14+07/31) Accurately ripped
09 [b9335768|7caf07b6] (14+07/31) Accurately ripped
10 [08144219|11766dd8] (14+07/31) Accurately ripped
11 [fc531f40|a72cda90] (14+07/31) Accurately ripped
12 [52582905|6d3ac757] (12+07/29) Accurately ripped
13 [084c6eb0|0f38f64b] (11+04/23) Accurately ripped
Offsetted by 249:
01 [1dde11c3] (03/31) Accurately ripped
02 [de5016d0] (03/31) Accurately ripped
03 [147556ab] (03/31) Accurately ripped
04 [b97d55eb] (03/30) Accurately ripped
05 [fb981670] (03/30) Accurately ripped
06 [5189293b] (03/31) Accurately ripped
07 [9f183745] (03/31) Accurately ripped
08 [f05e035f] (03/31) Accurately ripped
09 [eff6b3af] (03/31) Accurately ripped
10 [0dd0b14f] (03/31) Accurately ripped
11 [49152305] (03/31) Accurately ripped
12 [45f50ea1] (03/29) Accurately ripped
13 [373180a2] (03/23) Accurately ripped
Offsetted by 415:
01 [1037918e] (03/31) Accurately ripped
02 [10de58e5] (03/31) Accurately ripped
03 [78c0fb6c] (03/31) Accurately ripped
04 [d77c890a] (02/30) Accurately ripped
05 [6ccedf14] (02/30) Accurately ripped
06 [848c5a30] (03/31) Accurately ripped
07 [127d69ee] (03/31) Accurately ripped
08 [1c3ed6e2] (03/31) Accurately ripped
09 [6052b0e3] (03/31) Accurately ripped
10 [9d62ed4f] (03/31) Accurately ripped
11 [7b775561] (03/31) Accurately ripped
12 [1e2ecd4b] (03/29) Accurately ripped
13 [b18dadf5] (03/23) Accurately ripped

Track Peak [ CRC32 ] [W/O NULL] [ LOG ]
– 100,0 [ED949DA1] [4E18193C] CRC32
01 92,3 [0E0F75B3] [E0138876]
02 85,3 [6E2D06FB] [31229E03]
03 75,2 [71D9109A] [72B12B40]
04 100,0 [322D245A] [EA66B776]
05 35,7 [6BD6D6AE] [43695119]
06 78,2 [115AEE2A] [1813615F]
07 100,0 [3BEAE8C2] [A38B8454]
08 95,0 [5FB312F0] [0E7AEBDE]
09 86,2 [D454250E] [69BE6CF7]
10 63,7 [13A5E92C] [47F7AF6C]
11 94,3 [92E09B79] [DF428E8F]
12 99,4 [B4D59A93] [BD8AB37D]
13 100,0 [A44862A3] [D5FCBA72]

Ten Years After - Recorded Live (1973)

All thanks go to gerrV

Ten Years After in my Blog

Download Ten Years After - Recorded Live (1973):