Subcategories

Ten Years After - Undead (1968)

Posted By: v3122
Ten Years After - Undead (1968)

Ten Years After - Undead (1968)
EAC | Flac(Image) + Cue + Log & MP3 CBR 320Kbps
2015 | 2CD | Deram, 472 644-9 | ~ 638 or 240 Mb | Scans(jpg) -> 61 Mb
Blues Rock / Classic Rock / Rock & Roll

Recorded live in a small London club, Undead contains the original "I'm Going Home," the song that brought Ten Years After its first blush of popularity following the Woodstock festival and film in which it was featured. However, the real strength of this album is side one, which contains two extended jazz jams, "I May Be Wrong, But I Won't Be Wrong Always" and Woody Herman's "Woodchopper's Ball," both of which spotlight guitarist Alvin Lee's amazing speed and technique. Side two is less interesting, with an extended slow blues typical of the time, a drum solo feature, and the rock & roll rave-up of "I'm Going Home."

by Jim Newsom, allmusic
Ten Years After - Undead (1968)


Ten Years After - Undead (1968):

Ten Years After - Undead (1968)

Tracklist CD1:

01. I May Be Wrong, But I Won't Be Wrong Always - 10:42
02. (At The) Woodchoppers' Ball - 7:38
03. Spider In My Web - 7:42
04. Summertime / Shantung Cabbage - 6:06
05. I'm Going Home - 6:27

Exact Audio Copy V1.0 beta 4 from 7. December 2014

EAC extraction logfile from 5. November 2016, 11:09

Ten Years After / Undead CD1 (2015, 2CD, 472 644-9)

Used drive : ATAPI iHAS124 B Adapter: 1 ID: 0

Read mode : Secure
Utilize accurate stream : Yes
Defeat audio cache : Yes
Make use of C2 pointers : No

Read offset correction : 6
Overread into Lead-In and Lead-Out : No
Fill up missing offset samples with silence : Yes
Delete leading and trailing silent blocks : No
Null samples used in CRC calculations : Yes
Used interface : Installed external ASPI interface

Used output format : User Defined Encoder
Selected bitrate : 128 kBit/s
Quality : High
Add ID3 tag : Yes
Command line compressor : C:\Program Files (x86)\Exact Audio Copy\Flac\flac.exe
Additional command line options : -V -8 -T "Date=%year%" -T "Genre=%genre%" %source%


TOC of the extracted CD

Track | Start | Length | Start sector | End sector
––––––––––––––––––––––––––––-
1 | 0:00.00 | 10:41.48 | 0 | 48122
2 | 10:41.48 | 7:38.11 | 48123 | 82483
3 | 18:19.59 | 7:41.43 | 82484 | 117101
4 | 26:01.27 | 6:05.38 | 117102 | 144514
5 | 32:06.65 | 6:27.13 | 144515 | 173552


Range status and errors

Selected range

Filename F:\CD\Ten Years After - Undead CD1.wav

Peak level 97.0 %
Extraction speed 5.2 X
Range quality 99.9 %
Test CRC F6D6D195
Copy CRC F6D6D195
Copy OK

No errors occurred


AccurateRip summary

Track 1 accurately ripped (confidence 9) [A884C7CA] (AR v2)
Track 2 accurately ripped (confidence 9) [C2F32F9E] (AR v2)
Track 3 accurately ripped (confidence 10) [C08B0EAF] (AR v2)
Track 4 accurately ripped (confidence 11) [E06BD71F] (AR v2)
Track 5 accurately ripped (confidence 11) [8BF39D62] (AR v2)

All tracks accurately ripped

End of status report

–– CUETools DB Plugin V2.1.4

[CTDB TOCID: QJ38.5sgFqmEWc.SDdFlfEVoi0k-] found
Submit result: QJ38.5sgFqmEWc.SDdFlfEVoi0k- has been confirmed
Track | CTDB Status
1 | (22/26) Accurately ripped
2 | (25/26) Accurately ripped
3 | (26/26) Accurately ripped
4 | (25/26) Accurately ripped
5 | (26/26) Accurately ripped


==== Log checksum 4AB5CBD0DEC69E8F4C04D075C67EA1E8708A97C9EFCE99006F4A000C4538FF74 ====

foobar2000 1.2.9 / Dynamic Range Meter 1.1.1
log date: 2016-11-15 23:20:31

––––––––––––––––––––––––––––––––––––––––
Analyzed: Ten Years After / Undead CD1. Original Stereo album (2015, 2CD, 472 644-9, 472 645-0)
––––––––––––––––––––––––––––––––––––––––

DR Peak RMS Duration Track
––––––––––––––––––––––––––––––––––––––––
DR11 -0.26 dB -13.14 dB 10:42 01-I May Be Wrong, But I Won't Be Wrong Always (Deram LP SML 1023)
DR11 -0.26 dB -13.12 dB 7:38 02-(At The) Woodchoppers' Ball (Deram LP SML 1023)
DR10 -0.26 dB -13.21 dB 7:42 03-Spider In My Web (Deram LP SML 1023)
DR11 -0.26 dB -14.34 dB 6:06 04-Summertime / Shantung Cabbage (Deram LP SML 1023)
DR10 -0.26 dB -12.63 dB 6:27 05-I'm Going Home (Deram LP SML 1023)
––––––––––––––––––––––––––––––––––––––––

Number of tracks: 5
Official DR value: DR11

Samplerate: 44100 Hz
Channels: 2
Bits per sample: 16
Bitrate: 950 kbps
Codec: FLAC

[CUETools log; Date: 15.11.2016 23:09:46; Version: 2.1.4]
[CTDB TOCID: QJ38.5sgFqmEWc.SDdFlfEVoi0k-] found.
Track | CTDB Status
1 | (23/27) Accurately ripped
2 | (26/27) Accurately ripped
3 | (27/27) Accurately ripped
4 | (26/27) Accurately ripped
5 | (27/27) Accurately ripped
[AccurateRip ID: 0008a211-00274e80-35090a05] found.
Track [ CRC | V2 ] Status
01 [452a930e|a884c7ca] (00+09/09) Accurately ripped
02 [5d265eec|c2f32f9e] (00+09/09) Accurately ripped
03 [b44b6d42|c08b0eaf] (00+10/10) Accurately ripped
04 [7ca8d751|e06bd71f] (00+11/11) Accurately ripped
05 [b3f7affd|8bf39d62] (00+11/11) Accurately ripped

Track Peak [ CRC32 ] [W/O NULL] [ LOG ]
– 97,0 [F6D6D195] [E283A3F1] CRC32
01 97,0 [3BE46EB8] [54FE71C9]
02 97,0 [D29C467A] [940C03D2]
03 97,0 [1F7197EF] [6D223740]
04 97,0 [8CC3A695] [2EC0D96C]
05 97,0 [D559C91E] [695F193D]

Ten Years After - Undead (1968)

Tracklist CD2:

01. Rock Your Mama (recorded live at the 'Undead' session) - 3:48
02. Spoonful (recorded live at the 'Undead' session) - 6:49
03. Standing At The Crossroads (recorded live at the 'Undead' session) - 5:07
04. Medley (recorded live at the 'Undead' session) - 17:07
a) I Can't Keep From Crying, Sometimes,
b) Extension On One Chord,
c) I Can't Keep From Crying Sometimes
05. Woman Trouble (recorded live at the 'Undead' session) - 4:54
06. (At The) Woodchoppers' Ball (recorded for BBC 'Top Gear', London 1967) - 4:30
07. No Title Blues (recorded for BBC 'Top Gear', London 1967) - 7:03
08. I'm Going Home (recorded for BBC 'Top Gear', London 1967) - 4:02
09. Hear Me Calling (recorded for BBC 'Top Gear', London 1967) - 4:10
10. Woman Trouble (recorded for BBC 'David Symonds Show', London 1967) - 2:40
11. Standing At The Crossroads (recorded for BBC 'David Symonds Show', London 1967) - 2:20

Exact Audio Copy V1.0 beta 4 from 7. December 2014

EAC extraction logfile from 5. November 2016, 11:35

Ten Years After / Undead CD2 (2015, 2CD, 472 644-9)

Used drive : Optiarc BD RW BD-5300S Adapter: 0 ID: 0

Read mode : Secure
Utilize accurate stream : Yes
Defeat audio cache : Yes
Make use of C2 pointers : No

Read offset correction : 6
Overread into Lead-In and Lead-Out : No
Fill up missing offset samples with silence : Yes
Delete leading and trailing silent blocks : No
Null samples used in CRC calculations : Yes
Used interface : Installed external ASPI interface

Used output format : User Defined Encoder
Selected bitrate : 128 kBit/s
Quality : High
Add ID3 tag : Yes
Command line compressor : C:\Program Files (x86)\Exact Audio Copy\Flac\flac.exe
Additional command line options : -V -8 -T "Date=%year%" -T "Genre=%genre%" %source%


TOC of the extracted CD

Track | Start | Length | Start sector | End sector
––––––––––––––––––––––––––––-
1 | 0:00.00 | 3:47.69 | 0 | 17093
2 | 3:47.69 | 6:48.67 | 17094 | 47760
3 | 10:36.61 | 5:07.11 | 47761 | 70796
4 | 15:43.72 | 17:07.17 | 70797 | 147838
5 | 32:51.14 | 4:53.58 | 147839 | 169871
6 | 37:44.72 | 4:29.45 | 169872 | 190091
7 | 42:14.42 | 7:03.03 | 190092 | 221819
8 | 49:17.45 | 4:01.62 | 221820 | 239956
9 | 53:19.32 | 4:09.64 | 239957 | 258695
10 | 57:29.21 | 2:39.53 | 258696 | 270673
11 | 60:08.74 | 2:19.57 | 270674 | 281155


Range status and errors

Selected range

Filename F:\CD\Ten Years After - Undead CD2.wav

Peak level 97.0 %
Extraction speed 3.4 X
Range quality 100.0 %
Test CRC B1F0E98F
Copy CRC B1F0E98F
Copy OK

No errors occurred


AccurateRip summary

Track 1 accurately ripped (confidence 13) [F802CB8F] (AR v2)
Track 2 accurately ripped (confidence 13) [99C02D2B] (AR v2)
Track 3 accurately ripped (confidence 13) [8380BFD0] (AR v2)
Track 4 accurately ripped (confidence 13) [498D8E58] (AR v2)
Track 5 accurately ripped (confidence 13) [84EDA614] (AR v2)
Track 6 accurately ripped (confidence 12) [68252C1E] (AR v2)
Track 7 accurately ripped (confidence 13) [E2705D3E] (AR v2)
Track 8 accurately ripped (confidence 13) [2036453F] (AR v2)
Track 9 accurately ripped (confidence 13) [8A5766A5] (AR v2)
Track 10 accurately ripped (confidence 13) [1ADCDF3C] (AR v2)
Track 11 accurately ripped (confidence 13) [F6AACB3C] (AR v2)

All tracks accurately ripped

End of status report

–– CUETools DB Plugin V2.1.4

[CTDB TOCID: uVnd_N7bBq4FHfh.ZbdR9RO2hY0-] found
Submit result: uVnd_N7bBq4FHfh.ZbdR9RO2hY0- has been confirmed
Track | CTDB Status
1 | (23/23) Accurately ripped
2 | (23/23) Accurately ripped
3 | (23/23) Accurately ripped
4 | (23/23) Accurately ripped
5 | (23/23) Accurately ripped
6 | (23/23) Accurately ripped
7 | (23/23) Accurately ripped
8 | (23/23) Accurately ripped
9 | (23/23) Accurately ripped
10 | (23/23) Accurately ripped
11 | (23/23) Accurately ripped


==== Log checksum 1C0FCED5557DAC2CACD542E9EF81B097F4EB8F189FA9A8C9CFD730B3BF83740F ====

foobar2000 1.2.9 / Dynamic Range Meter 1.1.1
log date: 2016-11-15 23:20:12

––––––––––––––––––––––––––––––––––––––––
Analyzed: Ten Years After / Undead CD2 (2015, 2CD, 472 644-9, 472 645-1)
––––––––––––––––––––––––––––––––––––––––

DR Peak RMS Duration Track
––––––––––––––––––––––––––––––––––––––––
DR10 -1.31 dB -13.96 dB 3:48 01-Rock Your Mama (recorded live at the 'Undead' session)
DR10 -0.71 dB -13.49 dB 6:49 02-Spoonful (recorded live at the 'Undead' session)
DR11 -1.51 dB -14.55 dB 5:07 03-Standing At The Crossroads (recorded live at the 'Undead' session)
DR11 -1.48 dB -15.95 dB 17:07 04-a) I Can't Keep From Crying, Sometimes, b) Extension On One Chord, c) I Can't Keep From Crying Sometimes Medley (recorded live at the 'Undead' session)
DR10 -0.26 dB -12.80 dB 4:54 05-Woman Trouble (recorded live at the 'Undead' session)
DR10 -0.26 dB -11.71 dB 4:30 06-(At The) Woodchoppers' Ball (recorded for BBC 'Top Gear', London 1967)
DR10 -0.81 dB -13.69 dB 7:03 07-No Title Blues (recorded for BBC 'Top Gear', London 1967)
DR9 -0.66 dB -11.90 dB 4:02 08-I'm Going Home (recorded for BBC 'Top Gear', London 1967)
DR10 -0.26 dB -12.67 dB 4:10 09-Hear Me Calling (recorded for BBC 'Top Gear', London 1967)
DR11 -1.17 dB -15.36 dB 2:40 10-Woman Trouble (recorded for BBC 'David Symonds Show', London 1967)
DR11 -1.06 dB -13.43 dB 2:20 11-Standing At The Crossroads (recorded for BBC 'David Symonds Show', London 1967)
––––––––––––––––––––––––––––––––––––––––

Number of tracks: 11
Official DR value: DR10

Samplerate: 44100 Hz
Channels: 2
Bits per sample: 16
Bitrate: 799 kbps
Codec: FLAC

[CUETools log; Date: 15.11.2016 23:36:13; Version: 2.1.4]
[CTDB TOCID: uVnd_N7bBq4FHfh.ZbdR9RO2hY0-] found.
Track | CTDB Status
1 | (24/24) Accurately ripped
2 | (24/24) Accurately ripped
3 | (24/24) Accurately ripped
4 | (24/24) Accurately ripped
5 | (24/24) Accurately ripped
6 | (24/24) Accurately ripped
7 | (24/24) Accurately ripped
8 | (24/24) Accurately ripped
9 | (24/24) Accurately ripped
10 | (24/24) Accurately ripped
11 | (24/24) Accurately ripped
[AccurateRip ID: 001d3b6e-00fa9506-9c0ea40b] found.
Track [ CRC | V2 ] Status
01 [b6da7917|f802cb8f] (00+13/13) Accurately ripped
02 [51564b89|99c02d2b] (00+13/13) Accurately ripped
03 [a184ae5b|8380bfd0] (00+13/13) Accurately ripped
04 [131b10a4|498d8e58] (00+13/13) Accurately ripped
05 [daad8a36|84eda614] (00+13/13) Accurately ripped
06 [61a67dec|68252c1e] (00+12/12) Accurately ripped
07 [d2a8df99|e2705d3e] (00+13/13) Accurately ripped
08 [ac86277d|2036453f] (00+13/13) Accurately ripped
09 [729e4134|8a5766a5] (00+13/13) Accurately ripped
10 [c2d34dd1|1adcdf3c] (00+13/13) Accurately ripped
11 [d4a8e6ba|f6aacb3c] (00+13/13) Accurately ripped

Track Peak [ CRC32 ] [W/O NULL] [ LOG ]
– 97,0 [B1F0E98F] [3507EBAB] CRC32
01 86,0 [EE40E209] [A38FE98F]
02 92,1 [33F460BA] [C5E2F286]
03 84,0 [52454A1A] [230265C7]
04 84,3 [E9AD264A] [FA037506]
05 97,0 [E4C590E9] [C41F6A8F]
06 97,0 [0C8F515A] [40723647]
07 91,0 [36A0B413] [0B8C1328]
08 92,6 [41775F63] [887D74A2]
09 97,0 [A590C4C1] [734AA180]
10 87,3 [A8443F1D] [AE599317]
11 88,5 [CDF51E5E] [67208BB4]

Ten Years After - Undead (1968)

All thanks go to gerrV

Ten Years After in my Blog

Download Ten Years After - Undead (1968):