Tags
Language
Tags

Terje Rypdal / David Darling – Eos (1984) {ECM 1263}

Posted By: tiburon
Terje Rypdal / David Darling – Eos (1984) {ECM 1263}

Terje Rypdal / David Darling – Eos (1984) {ECM 1263}
EAC 0.95b4 | FLAC tracks level 8 | Cue+Log+M3U | Full Scans 400dpi | 201MB + 5% Recovery
MP3 CBR 320 Kbps | 114MB + 5% Recovery
Genre: Jazz, Experimental Jazz

This is a collaboration between Rypdal (on electric guitar & synth), and David Darling (cello). If you think electric guitar & cello is an odd combination for a band, you're right! If you think it couldn't possibly work, you're wrong!! Moody and compelling, and definitely not for everyone.Worth it just for the track "Mirage", which lives up to its title sonically. The track "Laser" does the same also… a blistering solo electric guitar kills any semblance of peace and silence, and after it's over, sets up the hot-summer-day-let-me-lay-and-listen mood for the rest of the CD. All are well worth the listening effort.
Track List
01. Laser 4:08
02. Eos 14:30
03. Bedtime Story 5:57
04. Light Years 4:49
05. Melody 2:17
06. Mirage 9:12
07. Adagietto 5:02

musicians
Terje Rypdal - electronic guitar Casio MT-30
David Darling - 8-string electric cello

Produced by Manfred Eicher


EAC extraction logfile from 6. October 2007, 13:55 for CD
Terje Rypdal & David Darling / Eos

Used drive : TSSTcorpCD/DVDW SH-S183L Adapter: 3 ID: 1
Read mode : Secure with NO C2, accurate stream, disable cache
Read offset correction : 6
Overread into Lead-In and Lead-Out : No

Used output format : C:\Program Files\FLAC\flac.exe (User Defined Encoder)
128 kBit/s
Additional command line options : -V -8 -T "artist=%a" -T "title=%t" -T "album=%g" -T "date=%y" -T "tracknumber=%n" -T "genre=%m" %s

Other options :
Fill up missing offset samples with silence : Yes
Delete leading and trailing silent blocks : No
Installed external ASPI interface


Track 1
Filename D:\Torrents\up\Terje Rypdal & David Darling - Eos (1983) [FLAC]\01 - Laser.wav

Pre-gap length 0:00:02.44

Peak level 72.1 %
Track quality 100.0 %
Test CRC F2C2FB4F
Copy CRC F2C2FB4F
Copy OK

Track 2
Filename D:\Torrents\up\Terje Rypdal & David Darling - Eos (1983) [FLAC]\02 - Eos.wav

Pre-gap length 0:00:00.45

Peak level 86.4 %
Track quality 100.0 %
Test CRC EAE82BB3
Copy CRC EAE82BB3
Copy OK

Track 3
Filename D:\Torrents\up\Terje Rypdal & David Darling - Eos (1983) [FLAC]\03 - Bedtime Story.wav

Pre-gap length 0:00:03.36

Peak level 68.2 %
Track quality 99.9 %
Test CRC 86CC84CF
Copy CRC 86CC84CF
Copy OK

Track 4
Filename D:\Torrents\up\Terje Rypdal & David Darling - Eos (1983) [FLAC]\04 - Light Years.wav

Pre-gap length 0:00:05.96

Peak level 63.7 %
Track quality 100.0 %
Test CRC B836CA7F
Copy CRC B836CA7F
Copy OK

Track 5
Filename D:\Torrents\up\Terje Rypdal & David Darling - Eos (1983) [FLAC]\05 - Melody.wav

Pre-gap length 0:00:03.32

Peak level 50.6 %
Track quality 100.0 %
Test CRC 8AF4B71F
Copy CRC 8AF4B71F
Copy OK

Track 6
Filename D:\Torrents\up\Terje Rypdal & David Darling - Eos (1983) [FLAC]\06 - Mirage.wav

Pre-gap length 0:00:04.97

Peak level 71.6 %
Track quality 100.0 %
Test CRC 01A78FF6
Copy CRC 01A78FF6
Copy OK

Track 7
Filename D:\Torrents\up\Terje Rypdal & David Darling - Eos (1983) [FLAC]\07 - Adagietto.wav

Pre-gap length 0:00:02.89

Peak level 67.1 %
Track quality 100.0 %
Test CRC 31FCC2C0
Copy CRC 31FCC2C0
Copy OK

No errors occured


End of status report


––––––––––––––––––––––––––––––––––––––––
Analyzed: Terje Rypdal & David Darling / Eos
––––––––––––––––––––––––––––––––––––––––

DR Peak RMS Duration Track
––––––––––––––––––––––––––––––––––––––––
DR9 -2.83 dB -13.42 dB 4:09 01-Laser
DR11 -1.26 dB -18.51 dB 14:34 02-Eos
DR15 -3.32 dB -23.71 dB 6:04 03-Bedtime Story
DR15 -3.90 dB -24.48 dB 4:53 04-Light Years
DR11 -5.90 dB -22.18 dB 2:23 05-Melody
DR14 -2.90 dB -21.56 dB 9:16 06-Mirage
DR11 -3.46 dB -20.28 dB 5:02 07-Adagietto
––––––––––––––––––––––––––––––––––––––––

Number of tracks: 7
Official DR value: DR12

Samplerate: 44100 Hz
Channels: 2
Bits per sample: 16
Bitrate: 611 kbps
Codec: FLAC
================================================================================

Terje Rypdal / David Darling – Eos (1984) {ECM 1263}
Terje Rypdal / David Darling – Eos (1984) {ECM 1263}
Terje Rypdal / David Darling – Eos (1984) {ECM 1263}


Thanks to the original ripper