Subcategories
Tags
Language
Tags

Terje Rypdal - Descendre (1980) {ECM 1144}

Posted By: tiburon
Terje Rypdal - Descendre (1980) {ECM 1144}

Terje Rypdal - Descendre (1980) {ECM 1144}
EAC 1.1 | FLAC tracks level 8 | Cue+Log+M3U | Full Scans 300dpi | 255MB + 5% Recovery
MP3 CBR 320 Kbps | 124MB + 5% Recovery
Genre: Jazz, Fusion
Terje Rypdal - Descendre (1980) {ECM 1144}

Among the pleasures of this group of Rypdal reissues is the presence throughout of drummer Jon Christensen. Terje and Jon, lifelong friends, played on dozens of albums and in many groups together. Christensen always alluded to the trio with Terje and Danish trumpeter Palle Mikkelborg as heard on Descendre - as a particular favourite of his, an ideal instance of an interactive small group that could move in multiple directions. As drummer in the trio he could from moment to moment underline the melodic jazz phrasing of Palle Mikkelborg or rock out with Terje, find ways to combine their different time feelings, or strike out on his own. The three musicians could create highly atmospheric ensemble music, drifting clouds of sound sometimes with both Terje and Palle playing keyboards or develop freely contrapuntal ideas. The very open pieces that Rypdal wrote for this trio - such as the superb “Circles” allowed maximum room for expression.
Track List
1. Avskjed
2. Circles
3. Descendre
4. Innseiling
5. Men of Mystery
6. Speil

musicians
Terje Rypdal guitar, keyboards, flute
Palle Mikkelborg trumpet, fluegelhorn, keyboards
Jon Christensen drums, percussion

Recorded March 1979 at Talent Studio, Oslo

Produced by Manfred Eicher


Exact Audio Copy V1.1 from 23. June 2015

EAC extraction logfile from 6. October 2015, 17:13

Terje Rypdal / Descendre

Used drive : ATAPI iHAS124 C Adapter: 1 ID: 1

Read mode : Secure
Utilize accurate stream : Yes
Defeat audio cache : Yes
Make use of C2 pointers : No

Read offset correction : 6
Overread into Lead-In and Lead-Out : No
Fill up missing offset samples with silence : Yes
Delete leading and trailing silent blocks : No
Null samples used in CRC calculations : Yes
Used interface : Native Win32 interface for Win NT & 2000
Gap handling : Appended to previous track

Used output format : User Defined Encoder
Selected bitrate : 1024 kBit/s
Quality : High
Add ID3 tag : No
Command line compressor : C:\Program Files (x86)\flac\win32\flac.exe
Additional command line options : -8 -V -T "ARTIST=%artist%" -T "TITLE=%title%" -T "ALBUM=%albumtitle%" -T "DATE=%year%" -T "TRACKNUMBER=%tracknr%" -T "GENRE=%genre%" -T "PERFORMER=%albuminterpret%" -T "COMPOSER=%composer%" %haslyrics%–tag-from-file=LYRICS="%lyricsfile%"%haslyrics% -T "ALBUMARTIST=%albumartist%" -T "DISCNUMBER=%cdnumber%" -T "TOTALDISCS=%totalcds%" -T "TOTALTRACKS=%numtracks%" -T "COMMENT=%comment%" %source% -o %dest%


TOC of the extracted CD

Track | Start | Length | Start sector | End sector
––––––––––––––––––––––––––––-
1 | 0:00.33 | 5:47.00 | 33 | 26057
2 | 5:47.33 | 11:18.00 | 26058 | 76907
3 | 17:05.33 | 3:15.00 | 76908 | 91532
4 | 20:20.33 | 8:02.00 | 91533 | 127682
5 | 28:22.33 | 8:28.37 | 127683 | 165819
6 | 36:50.70 | 8:23.63 | 165820 | 203607


Track 1

Filename D:\media\EAC-rip\new\01 - Avskjed.wav

Pre-gap length 0:00:02.44

Peak level 70.2 %
Extraction speed 5.5 X
Track quality 100.0 %
Test CRC EE321CA8
Copy CRC EE321CA8
Accurately ripped (confidence 5) [900F45A8] (AR v2)
Copy OK

Track 2

Filename D:\media\EAC-rip\new\02 - Circles.wav

Pre-gap length 0:00:04.53

Peak level 83.0 %
Extraction speed 6.9 X
Track quality 100.0 %
Test CRC 0BA5675C
Copy CRC 0BA5675C
Accurately ripped (confidence 5) [C9FB4965] (AR v2)
Copy OK

Track 3

Filename D:\media\EAC-rip\new\03 - Descendre.wav

Pre-gap length 0:00:04.70

Peak level 71.7 %
Extraction speed 6.9 X
Track quality 100.0 %
Test CRC DEF5ADD4
Copy CRC DEF5ADD4
Accurately ripped (confidence 5) [AA465E85] (AR v2)
Copy OK

Track 4

Filename D:\media\EAC-rip\new\04 - Innseiling.wav

Pre-gap length 0:00:04.17

Peak level 80.8 %
Extraction speed 8.2 X
Track quality 100.0 %
Test CRC 43D87C5C
Copy CRC 43D87C5C
Accurately ripped (confidence 5) [992486DF] (AR v2)
Copy OK

Track 5

Filename D:\media\EAC-rip\new\05 - Men of Mystery.wav

Pre-gap length 0:00:04.70

Peak level 75.3 %
Extraction speed 9.0 X
Track quality 100.0 %
Test CRC 049A3ED3
Copy CRC 049A3ED3
Accurately ripped (confidence 5) [C3E39140] (AR v2)
Copy OK

Track 6

Filename D:\media\EAC-rip\new\06 - Speil.wav

Pre-gap length 0:00:05.40

Peak level 74.4 %
Extraction speed 9.7 X
Track quality 100.0 %
Test CRC CD1FFD93
Copy CRC CD1FFD93
Accurately ripped (confidence 5) [7DB8ACF3] (AR v2)
Copy OK


All tracks accurately ripped

No errors occurred

End of status report

–– CUETools DB Plugin V2.1.6

[CTDB TOCID: 4JNCni_LR5zrG2684YfhiXot0vM-] found
Submit result: 4JNCni_LR5zrG2684YfhiXot0vM- has been confirmed
Track | CTDB Status
1 | (6/7) Accurately ripped
2 | (6/7) Accurately ripped
3 | (6/7) Accurately ripped
4 | (6/7) Accurately ripped
5 | (6/7) Accurately ripped
6 | (6/7) Accurately ripped


==== Log checksum FD65869F78975FBEAC07B2A274941343481E2EB2C8D1B7FFDA38840B96E79053 ====


foobar2000 1.3.13 / Dynamic Range Meter 1.1.1
log date: 2021-06-18 18:43:16

––––––––––––––––––––––––––––––––––––––––
Analyzed: Terje Rypdal / Descendre
––––––––––––––––––––––––––––––––––––––––

DR Peak RMS Duration Track
––––––––––––––––––––––––––––––––––––––––
DR12 -3.06 dB -19.88 dB 5:47 01-Avskjed
DR15 -1.62 dB -21.65 dB 11:18 02-Circles
DR12 -2.88 dB -21.24 dB 3:15 03-Descendre
DR14 -1.85 dB -21.31 dB 8:02 04-Innseiling
DR14 -2.46 dB -19.82 dB 8:28 05-Men of Mystery
DR15 -2.57 dB -20.91 dB 8:24 06-Speil
––––––––––––––––––––––––––––––––––––––––

Number of tracks: 6
Official DR value: DR14

Samplerate: 44100 Hz
Channels: 2
Bits per sample: 16
Bitrate: 680 kbps
Codec: FLAC
================================================================================

Terje Rypdal - Descendre (1980) {ECM 1144}
Terje Rypdal - Descendre (1980) {ECM 1144}


Thanks to the original ripper