Tags
Language
Tags

The 31st Of February - The 31st Of February (1968) {2009, Remastered}

Posted By: popsakov
The 31st Of February - The 31st Of February (1968) {2009, Remastered}

The 31st Of February - The 31st Of February (1968) {2009, Remastered}
XLD Rip | FLAC (Tracks) + Cue + m3u8 + Log ~ 231 Mb | MP3 CBR320 ~ 105 Mb
Scans Included | 00:40:15 | RAR 5% Recovery
Folk Rock, Psychedelic Rock | Henry Stone Music #HSM 5041-2

The 31st of February made an obscure album for Vanguard in the late 1960s that was typical of many LPs of the time in that it was made up of a little bit of folk-rock, a little bit of psychedelia, and a little bit of pop. The record didn't make a commercial splash, but the trio became a historical footnote when, after meeting Gregg and Duane Allman, they ended up backing the brothers on the Duane & Greg Allman album, which was issued in 1972. After the band split up, Butch Trucks became drummer for the Allman Brothers, Scott Boyer played in Cowboy, and bassist David Brown worked as a session musician, notably with Boz Scaggs.

~ Richie Unterberger, All Music

***************

Track List:

01. Sandcastles [2:45]
02. Porcelain Mirrors [2:59]
03. Broken Day [3:00]
04. Wrong [2:13]
05. The Greener Isle [2:44]
06. Cod'Ine [6:21]
07. A Different Kind Of Head [2:47]
08. Pedestals [2:27]
09. Free [2:32]
10. A Nickel's Worth Of Benny's Help [4:23]
11. Pick A Gripe [2:09]
12. Cries Of Treason [3:23]
13. In The Morning When I'm Real [2:36]

X Lossless Decoder version 20160920 (149.2)

XLD extraction logfile from 2017-12-26 18:20:59 +0100

The 31st Of February / The 31st Of February

Used drive : HL-DT-ST DVDRW GX40N (revision RQ00)
Media type : CD-Recordable

Ripper mode : XLD Secure Ripper
Disable audio cache : OK for the drive with a cache less than 1375KiB
Make use of C2 pointers : NO
Read offset correction : 6
Max retry count : 20
Gap status : Analyzed, Appended (except HTOA)

TOC of the extracted CD
Track | Start | Length | Start sector | End sector
––––––––––––––––––––––––––––-
1 | 00:00:00 | 02:44:71 | 0 | 12370
2 | 02:44:71 | 02:58:24 | 12371 | 25744
3 | 05:43:20 | 02:59:33 | 25745 | 39202
4 | 08:42:53 | 02:13:00 | 39203 | 49177
5 | 10:55:53 | 02:43:69 | 49178 | 61471
6 | 13:39:47 | 06:20:73 | 61472 | 90044
7 | 20:00:45 | 02:46:74 | 90045 | 102568
8 | 22:47:44 | 02:26:28 | 102569 | 113546
9 | 25:13:72 | 02:31:01 | 113547 | 124872
10 | 27:44:73 | 04:22:05 | 124873 | 144527
11 | 32:07:03 | 02:08:68 | 144528 | 154195
12 | 34:15:71 | 03:22:36 | 154196 | 169381
13 | 37:38:32 | 02:35:62 | 169382 | 181068

List of alternate offset correction values
# | Absolute | Relative | Confidence
–––––––––––––––––––––
1 | 72 | 66 | 1

AccurateRip Summary (DiscID: 001359d2-00c2e31c-a7096e0d)
Track 01 : OK (v2, confidence 1/1, with different offset)
Track 02 : OK (v2, confidence 1/1, with different offset)
Track 03 : OK (v2, confidence 1/1, with different offset)
Track 04 : OK (v2, confidence 1/1, with different offset)
Track 05 : OK (v2, confidence 1/1, with different offset)
Track 06 : OK (v2, confidence 1/1, with different offset)
Track 07 : OK (v2, confidence 1/1, with different offset)
Track 08 : OK (v2, confidence 1/1, with different offset)
Track 09 : OK (v2, confidence 1/1, with different offset)
Track 10 : OK (v2, confidence 1/1, with different offset)
Track 11 : OK (v2, confidence 1/1, with different offset)
Track 12 : OK (v2, confidence 1/1, with different offset)
Track 13 : OK (v2, confidence 1/1, with different offset)
->All tracks accurately ripped.

All Tracks
Album gain : -4.32 dB
Peak : 0.716553
Statistics
Read error : 0
Jitter error (maybe fixed) : 0
Retry sector count : 0
Damaged sector count : 0

Track 01
Filename : /Users/Bea/Downloads/The 31st Of February - The 31st Of February (1968) [FLAC]/01 Sandcastles.flac
Pre-gap length : 00:02:00

Track gain : -3.67 dB
Peak : 0.640717
CRC32 hash (test run) : 59EC1ED2
CRC32 hash : 59EC1ED2
CRC32 hash (skip zero) : 146FFB81
AccurateRip v1 signature : A4DB1038
AccurateRip v2 signature : A23FDA13 (6B31FF55 w/correction)
->Accurately ripped with different offset (v2, confidence 1/1, offset +66)
Statistics
Read error : 0
Jitter error (maybe fixed) : 0
Retry sector count : 0
Damaged sector count : 0

Track 02
Filename : /Users/Bea/Downloads/The 31st Of February - The 31st Of February (1968) [FLAC]/02 Porcelain Mirrors.flac

Track gain : -3.11 dB
Peak : 0.658417
CRC32 hash (test run) : E6D822AD
CRC32 hash : E6D822AD
CRC32 hash (skip zero) : 9E457553
AccurateRip v1 signature : F66FDE9A
AccurateRip v2 signature : 414481CF (7EFACCD8 w/correction)
->Accurately ripped with different offset (v2, confidence 1/1, offset +66)
Statistics
Read error : 0
Jitter error (maybe fixed) : 0
Retry sector count : 0
Damaged sector count : 0

Track 03
Filename : /Users/Bea/Downloads/The 31st Of February - The 31st Of February (1968) [FLAC]/03 Broken Day.flac

Track gain : -3.71 dB
Peak : 0.637238
CRC32 hash (test run) : A7E95844
CRC32 hash : A7E95844
CRC32 hash (skip zero) : 7CF9E54A
AccurateRip v1 signature : 7D1FEA2E
AccurateRip v2 signature : FB082A1B (46449248 w/correction)
->Accurately ripped with different offset (v2, confidence 1/1, offset +66)
Statistics
Read error : 0
Jitter error (maybe fixed) : 0
Retry sector count : 0
Damaged sector count : 0

Track 04
Filename : /Users/Bea/Downloads/The 31st Of February - The 31st Of February (1968) [FLAC]/04 Wrong.flac

Track gain : -3.23 dB
Peak : 0.716553
CRC32 hash (test run) : 2B9C08E5
CRC32 hash : 2B9C08E5
CRC32 hash (skip zero) : 7A4EB983
AccurateRip v1 signature : 4CE9D60F
AccurateRip v2 signature : B727F2B6 (F9BA7036 w/correction)
->Accurately ripped with different offset (v2, confidence 1/1, offset +66)
Statistics
Read error : 0
Jitter error (maybe fixed) : 0
Retry sector count : 0
Damaged sector count : 0

Track 05
Filename : /Users/Bea/Downloads/The 31st Of February - The 31st Of February (1968) [FLAC]/05 The Greener Isle.flac

Track gain : -4.41 dB
Peak : 0.619598
CRC32 hash (test run) : 9145220D
CRC32 hash : 9145220D
CRC32 hash (skip zero) : 0C00D712
AccurateRip v1 signature : EC2A877D
AccurateRip v2 signature : D2A236A4 (D02FF349 w/correction)
->Accurately ripped with different offset (v2, confidence 1/1, offset +66)
Statistics
Read error : 0
Jitter error (maybe fixed) : 0
Retry sector count : 0
Damaged sector count : 0

Track 06
Filename : /Users/Bea/Downloads/The 31st Of February - The 31st Of February (1968) [FLAC]/06 Cod'Ine.flac

Track gain : -4.89 dB
Peak : 0.623657
CRC32 hash (test run) : 9CB15CF5
CRC32 hash : 9CB15CF5
CRC32 hash (skip zero) : DED3F88E
AccurateRip v1 signature : D82DE2FA
AccurateRip v2 signature : 536183ED (95F74915 w/correction)
->Accurately ripped with different offset (v2, confidence 1/1, offset +66)
Statistics
Read error : 0
Jitter error (maybe fixed) : 0
Retry sector count : 0
Damaged sector count : 0

Track 07
Filename : /Users/Bea/Downloads/The 31st Of February - The 31st Of February (1968) [FLAC]/07 A Different Kind Of Head.flac

Track gain : -3.83 dB
Peak : 0.621338
CRC32 hash (test run) : 14A417A7
CRC32 hash : 14A417A7
CRC32 hash (skip zero) : AA15208E
AccurateRip v1 signature : 76B13F2C
AccurateRip v2 signature : FDD7F540 (32D9BC02 w/correction)
->Accurately ripped with different offset (v2, confidence 1/1, offset +66)
Statistics
Read error : 0
Jitter error (maybe fixed) : 0
Retry sector count : 0
Damaged sector count : 0

Track 08
Filename : /Users/Bea/Downloads/The 31st Of February - The 31st Of February (1968) [FLAC]/08 Pedestals.flac

Track gain : -4.73 dB
Peak : 0.623016
CRC32 hash (test run) : 373419C0
CRC32 hash : 373419C0
CRC32 hash (skip zero) : D096C3A9
AccurateRip v1 signature : F7492466
AccurateRip v2 signature : 85B8044B (C98E7BCD w/correction)
->Accurately ripped with different offset (v2, confidence 1/1, offset +66)
Statistics
Read error : 0
Jitter error (maybe fixed) : 0
Retry sector count : 0
Damaged sector count : 0

Track 09
Filename : /Users/Bea/Downloads/The 31st Of February - The 31st Of February (1968) [FLAC]/09 Free.flac

Track gain : -4.38 dB
Peak : 0.709290
CRC32 hash (test run) : 9B9429D8
CRC32 hash : 9B9429D8
CRC32 hash (skip zero) : B68274B9
AccurateRip v1 signature : BAB58548
AccurateRip v2 signature : DE8351EB (384D829C w/correction)
->Accurately ripped with different offset (v2, confidence 1/1, offset +66)
Statistics
Read error : 0
Jitter error (maybe fixed) : 0
Retry sector count : 0
Damaged sector count : 0

Track 10
Filename : /Users/Bea/Downloads/The 31st Of February - The 31st Of February (1968) [FLAC]/10 A Nickel's Worth Of Benny's Help.flac

Track gain : -5.07 dB
Peak : 0.624268
CRC32 hash (test run) : DF4943AC
CRC32 hash : DF4943AC
CRC32 hash (skip zero) : AE544579
AccurateRip v1 signature : 227F9568
AccurateRip v2 signature : CF6ED6C9 (EBE6687C w/correction)
->Accurately ripped with different offset (v2, confidence 1/1, offset +66)
Statistics
Read error : 0
Jitter error (maybe fixed) : 0
Retry sector count : 0
Damaged sector count : 0

Track 11
Filename : /Users/Bea/Downloads/The 31st Of February - The 31st Of February (1968) [FLAC]/11 Pick A Gripe.flac

Track gain : -3.33 dB
Peak : 0.624390
CRC32 hash (test run) : 490200AA
CRC32 hash : 490200AA
CRC32 hash (skip zero) : 43C95D8E
AccurateRip v1 signature : 4EEE5F08
AccurateRip v2 signature : C33055EF (0F75F661 w/correction)
->Accurately ripped with different offset (v2, confidence 1/1, offset +66)
Statistics
Read error : 0
Jitter error (maybe fixed) : 0
Retry sector count : 0
Damaged sector count : 0

Track 12
Filename : /Users/Bea/Downloads/The 31st Of February - The 31st Of February (1968) [FLAC]/12 Cries Of Treason.flac

Track gain : -2.48 dB
Peak : 0.615570
CRC32 hash (test run) : D8804441
CRC32 hash : D8804441
CRC32 hash (skip zero) : C6905D24
AccurateRip v1 signature : 95F2A048
AccurateRip v2 signature : D41408D0 (1306CB4C w/correction)
->Accurately ripped with different offset (v2, confidence 1/1, offset +66)
Statistics
Read error : 0
Jitter error (maybe fixed) : 0
Retry sector count : 0
Damaged sector count : 0

Track 13
Filename : /Users/Bea/Downloads/The 31st Of February - The 31st Of February (1968) [FLAC]/13 In The Morning When I'm Real.flac

Track gain : -3.56 dB
Peak : 0.695801
CRC32 hash (test run) : 1FAAB847
CRC32 hash : 1FAAB847
CRC32 hash (skip zero) : 864968E0
AccurateRip v1 signature : A7CA149F
AccurateRip v2 signature : 57150EF2 (5A79DE59 w/correction)
->Accurately ripped with different offset (v2, confidence 1/1, offset +66)
Statistics
Read error : 0
Jitter error (maybe fixed) : 0
Retry sector count : 0
Damaged sector count : 0

No errors occurred

End of status report

––-BEGIN XLD SIGNATURE––-
gyrAT_HVxRiT2PJpXhXIZwShiEUzavZDKQuYFiK_iJjp7BgbM6NZyVlvkJHIDyevvkGPQoZYpug7lspSDrxe1qO6AECZ2Q7tTbDg8MG
––-END XLD SIGNATURE––-

All thanks go to the original ripper(s) …

>>> My Blog <<<

DOWNLOAD: