Tags
Language
Tags
April 2024
Su Mo Tu We Th Fr Sa
31 1 2 3 4 5 6
7 8 9 10 11 12 13
14 15 16 17 18 19 20
21 22 23 24 25 26 27
28 29 30 1 2 3 4

The Archies - Sugar, Sugar... [Recorded 1968-1971] (2005)

Posted By: gribovar
The Archies - Sugar, Sugar... [Recorded 1968-1971] (2005)

The Archies - Sugar, Sugar… [Recorded 1968-1971] (2005)
EAC Rip | WavPack (image+.cue+log) - 402 MB | MP3 CBR 320 kbps (LAME 3.93) - 143 MB | Covers - 39 MB
Genre: Pop Rock, Bubblegum | RAR 3% Rec. | Label: Repertoire Records (REP 4804-WG)

The two dozen songs on Sugar, Sugar… come from the first four long-players issued in conjunction with the CBS-TV animated program The Archie Show and the expanded Archie Comedy Hour. The project was spearheaded by pop music mogul Don Kirshner. Having scored notable success with early Monkees sides, he found another batch of recording studio pros to provide material and audibly animate the Archies. Among the primary contributors were Ron Dante (vocals/guitar), Andy Kim (vocals), and Jeannie Thomas (vocals), who was replaced by Toni Wine (vocals). The Archies (1968) was the prefab combo's debut and despite an appearance in the album charts, this package yields only the churning midtempo "Truck Driver," the pseudo-affective and hormone-driven ballad "Seventeen Ain't Young," and the infectious bubblegum frolic "Bang-Shang-A-Lang." Conversely, ten of the 12 cuts from the follow-up, Everything's Archie (1969), are present and accounted for. These include the mega hit "Sugar, Sugar" as well as "Feelin' So Good," "Melody Hill," "Rock & Roll Music" (not to be confused with the Chuck Berry classic), "Don't Touch My Guitar," "You Little Angel, You," "Bicycles, Roller Skates and You," "Inside Out, Upside Down," "Love Light," and the infectiously fun "Hot Dog," which fans will recall is the name of Archie Andrews' prankster pup. Jingle Jangle (1969) produced the Top Ten title tune, which sits alongside "Everything's Alright," "Justine," "Get On the Line," "Sugar and Spice," and "Archie's Party." If for no other reason, the latter is memorable for the immortal spoken line "Jughead, stop touching my body!" during the instrumental break. Perhaps the lackluster showing of Jingle Jangle instigated a more mature sound for the Archies on Sunshine. This anthology contains "Sunshine," "Who's Gonna Love Me," and "Over and Over" from the predominantly forgettable affair. That leaves the original Archies' Greatest Hits (1970) compilation, which is worth mentioning as it was the only LP to have the Top 40 side "Who's Your Baby." As an example of how far the band had come from the characters on the TV, the track features a very prominent bass vocal that could easily be equated to the likes of Isaac Hayes or Barry White. Of the numerous Archies collections available, this one is recommended as a perfect primer to the Archies' most essential entries.
Tracklist:
01. Bang-Shang-A-Lang
02. Feelin' So Good (S.K.O.O.B.Y. D.O.O.)
03. Sugar Sugar
04. Sunshine
05. Jingle Jangle
06. Who's Your Baby
07. Everything's Alright
08. This Is Love
09. Truck Driver
10. Love Light
11. Melody Hill
12. Over And Over
13. Justine
14. Rock And Roll Music
15. Don't Touch My Guitar
16. You Little Angel
17. Hot Dog
18. Inside Out - Upside Down
19. Get On The Line
20. Sugar And Spice
21. Bicycles, Roller Skates
22. Seventeen Ain't Young
23. Who's Gonna Love Me
24. Archie's Party

Total time: 01:00:52

Exact Audio Copy V1.0 beta 3 from 29. August 2011

EAC extraction logfile from 21. April 2013, 13:12

The Archies / Sugar, Sugar…

Used drive : PLEXTOR DVDR PX-L890SA Adapter: 1 ID: 0

Read mode : Secure
Utilize accurate stream : Yes
Defeat audio cache : Yes
Make use of C2 pointers : No

Read offset correction : 6
Overread into Lead-In and Lead-Out : No
Fill up missing offset samples with silence : Yes
Delete leading and trailing silent blocks : No
Null samples used in CRC calculations : Yes
Used interface : Installed external ASPI interface

Used output format : User Defined Encoder
Selected bitrate : 1024 kBit/s
Quality : High
Add ID3 tag : No
Command line compressor : C:\Program Files (x86)\Exact Audio Copy\wavpack.exe
Additional command line options : -hlm %source%


TOC of the extracted CD

Track | Start | Length | Start sector | End sector
––––––––––––––––––––––––––––-
1 | 0:00.00 | 2:36.52 | 0 | 11751
2 | 2:36.52 | 3:11.53 | 11752 | 26129
3 | 5:48.30 | 2:49.50 | 26130 | 38854
4 | 8:38.05 | 3:17.27 | 38855 | 53656
5 | 11:55.32 | 2:45.40 | 53657 | 66071
6 | 14:40.72 | 2:55.68 | 66072 | 79264
7 | 17:36.65 | 2:19.52 | 79265 | 89741
8 | 19:56.42 | 2:38.20 | 89742 | 101611
9 | 22:34.62 | 2:57.00 | 101612 | 114886
10 | 25:31.62 | 2:32.13 | 114887 | 126299
11 | 28:04.00 | 2:27.37 | 126300 | 137361
12 | 30:31.37 | 2:20.05 | 137362 | 147866
13 | 32:51.42 | 2:16.70 | 147867 | 158136
14 | 35:08.37 | 2:35.15 | 158137 | 169776
15 | 37:43.52 | 2:17.63 | 169777 | 180114
16 | 40:01.40 | 2:39.27 | 180115 | 192066
17 | 42:40.67 | 2:20.25 | 192067 | 202591
18 | 45:01.17 | 2:14.58 | 202592 | 212699
19 | 47:16.00 | 2:32.65 | 212700 | 224164
20 | 49:48.65 | 2:04.52 | 224165 | 233516
21 | 51:53.42 | 2:34.23 | 233517 | 245089
22 | 54:27.65 | 2:20.25 | 245090 | 255614
23 | 56:48.15 | 1:51.45 | 255615 | 263984
24 | 58:39.60 | 2:12.07 | 263985 | 273891


Range status and errors

Selected range

Filename D:\wwphil\The Archies - Sugar, Sugar\The Archies - Sugar, Sugar….wav

Peak level 100.0 %
Extraction speed 8.7 X
Range quality 100.0 %
Test CRC 690F922F
Copy CRC 690F922F
Copy OK

No errors occurred


AccurateRip summary

Track 1 accurately ripped (confidence 4) [FE5FAE0A] (AR v1)
Track 2 accurately ripped (confidence 4) [EE1BCCD3] (AR v1)
Track 3 accurately ripped (confidence 4) [222BD8E5] (AR v1)
Track 4 accurately ripped (confidence 4) [8C70D05E] (AR v1)
Track 5 accurately ripped (confidence 4) [A1F63016] (AR v1)
Track 6 accurately ripped (confidence 4) [FBA01E46] (AR v1)
Track 7 accurately ripped (confidence 4) [F783E14C] (AR v1)
Track 8 accurately ripped (confidence 4) [585D7209] (AR v1)
Track 9 accurately ripped (confidence 4) [DBB71ED2] (AR v1)
Track 10 accurately ripped (confidence 4) [72D7345D] (AR v1)
Track 11 accurately ripped (confidence 4) [D7D4187A] (AR v1)
Track 12 accurately ripped (confidence 4) [AFBAE52E] (AR v1)
Track 13 accurately ripped (confidence 4) [C6E4334B] (AR v1)
Track 14 accurately ripped (confidence 4) [1AA246E4] (AR v1)
Track 15 accurately ripped (confidence 4) [BB6EE423] (AR v1)
Track 16 accurately ripped (confidence 4) [1DBDC201] (AR v1)
Track 17 accurately ripped (confidence 4) [4CB7E105] (AR v1)
Track 18 accurately ripped (confidence 4) [07D7D1E6] (AR v1)
Track 19 accurately ripped (confidence 4) [15B8293E] (AR v1)
Track 20 accurately ripped (confidence 4) [B0E4B2FB] (AR v1)
Track 21 accurately ripped (confidence 4) [69329FA3] (AR v1)
Track 22 accurately ripped (confidence 4) [5FAC2794] (AR v1)
Track 23 accurately ripped (confidence 4) [3C36523A] (AR v1)
Track 24 accurately ripped (confidence 4) [4390ADDE] (AR v1)

All tracks accurately ripped

End of status report

==== Log checksum 3E9D2FF54E9643963C9A61BE9107BF7F9FB3E8290E587163471F3A6C73F838BE ====

[CUETools log; Date: 03.11.2023 12:10:59; Version: 2.1.4]
[CTDB TOCID: 47iorwtF3Ogu1fBdltLAiakLCqY-] found.
Track | CTDB Status
1 | (49/49) Accurately ripped
2 | (49/49) Accurately ripped
3 | (49/49) Accurately ripped
4 | (49/49) Accurately ripped
5 | (49/49) Accurately ripped
6 | (49/49) Accurately ripped
7 | (49/49) Accurately ripped
8 | (49/49) Accurately ripped
9 | (49/49) Accurately ripped
10 | (49/49) Accurately ripped
11 | (49/49) Accurately ripped
12 | (49/49) Accurately ripped
13 | (49/49) Accurately ripped
14 | (49/49) Accurately ripped
15 | (49/49) Accurately ripped
16 | (49/49) Accurately ripped
17 | (49/49) Accurately ripped
18 | (49/49) Accurately ripped
19 | (49/49) Accurately ripped
20 | (49/49) Accurately ripped
21 | (49/49) Accurately ripped
22 | (49/49) Accurately ripped
23 | (49/49) Accurately ripped
24 | (48/49) Accurately ripped
[AccurateRip ID: 003702a1-03acc73e-460e4318] found.
Track [ CRC | V2 ] Status
01 [fe5fae0a|b3d0600f] (05+06/17) Accurately ripped
02 [ee1bccd3|edbaf0e8] (05+06/17) Accurately ripped
03 [222bd8e5|c97f7fde] (05+07/18) Accurately ripped
04 [8c70d05e|9a789349] (05+06/17) Accurately ripped
05 [a1f63016|4ba2886c] (05+06/17) Accurately ripped
06 [fba01e46|0066f1cf] (05+06/17) Accurately ripped
07 [f783e14c|17ff661a] (05+06/17) Accurately ripped
08 [585d7209|043f17ed] (05+06/17) Accurately ripped
09 [dbb71ed2|7cc36c50] (05+06/17) Accurately ripped
10 [72d7345d|135c9226] (05+06/17) Accurately ripped
11 [d7d4187a|b00dfe3f] (05+06/17) Accurately ripped
12 [afbae52e|c51a078e] (05+06/17) Accurately ripped
13 [c6e4334b|3f3363c1] (05+06/17) Accurately ripped
14 [1aa246e4|e7d2a788] (05+06/17) Accurately ripped
15 [bb6ee423|31badf29] (05+06/17) Accurately ripped
16 [1dbdc201|bdc2ad3c] (05+06/17) Accurately ripped
17 [4cb7e105|97d20920] (05+06/17) Accurately ripped
18 [07d7d1e6|2f70b50a] (05+06/17) Accurately ripped
19 [15b8293e|f2be393a] (05+06/17) Accurately ripped
20 [b0e4b2fb|5b16cd34] (05+06/17) Accurately ripped
21 [69329fa3|a73a0060] (05+06/17) Accurately ripped
22 [5fac2794|9df79543] (05+06/17) Accurately ripped
23 [3c36523a|e46a6a2b] (05+07/18) Accurately ripped
24 [4390adde|28dce35f] (05+06/18) Accurately ripped
Offsetted by -48:
01 [dd1d0c9a] (02/17) Accurately ripped
02 [c8b720a3] (02/17) Accurately ripped
03 [978a8fc5] (02/18) Accurately ripped
04 [52a1f0ae] (02/17) Accurately ripped
05 [2a5eb626] (02/17) Accurately ripped
06 [f50bbba6] (02/17) Accurately ripped
07 [5de38f5c] (02/17) Accurately ripped
08 [261e1e29] (02/17) Accurately ripped
09 [9fc83d42] (02/17) Accurately ripped
10 [3843743d] (02/17) Accurately ripped
11 [ab4ec84a] (02/17) Accurately ripped
12 [29d4ec1e] (02/17) Accurately ripped
13 [2cf0f26b] (02/17) Accurately ripped
14 [d1668c04] (02/17) Accurately ripped
15 [d7df6c93] (02/17) Accurately ripped
16 [d3004761] (02/17) Accurately ripped
17 [7c2bd795] (02/17) Accurately ripped
18 [e96f3696] (02/17) Accurately ripped
19 [22226bae] (02/17) Accurately ripped
20 [e4e480cb] (02/17) Accurately ripped
21 [e678ae93] (02/17) Accurately ripped
22 [b6e89384] (02/17) Accurately ripped
23 [43adc78a] (02/18) Accurately ripped
24 [0967920e] (02/18) Accurately ripped

Track Peak [ CRC32 ] [W/O NULL] [ LOG ]
– 99,9 [690F922F] [22F5B709] CRC32
01 99,9 [E470558B] [CD5D05DC]
02 99,9 [31D3E14B] [6ECC009A]
03 99,9 [047159C1] [28B8799A]
04 99,9 [08D0127C] [B823C6C9]
05 98,9 [B8969498] [0A1BBEFC]
06 99,9 [85455D38] [EBA308EC]
07 99,2 [5250A40B] [413D3721]
08 99,9 [CB2F0A35] [731A30BA]
09 99,9 [2DB924CE] [42F6E286]
10 99,9 [FDA2B805] [3D901C0D]
11 99,9 [992CDC1F] [534A9F22]
12 98,8 [B5D3B91D] [6733476B]
13 98,8 [4228E4EE] [4AF39325]
14 99,9 [F20EDD0F] [B214AB86]
15 99,9 [DEDAD341] [34D80BE4]
16 99,9 [9314F7B4] [7FB0A863]
17 99,9 [476B2D66] [3D0B4BCA]
18 99,9 [D4286885] [21187391]
19 99,9 [D8216AF6] [D2F34600]
20 99,4 [01915A36] [DF40F936]
21 99,9 [A40E55E9] [3B34871B]
22 98,5 [DC10FFFE] [DD6988AF]
23 99,9 [B9B65AF1] [340E1A9C]
24 99,9 [8F84C3B1] [4000FCD1]

Thanks to wwf

See also:
The Archies - The Archies (1968) [Reissue 2006]