Subcategories

The Art Farmer Quintet - Blame It On My Youth (1988) [Re-Up]

Posted By: Designol
The Art Farmer Quintet - Blame It On My Youth (1988) [Re-Up]

The Art Farmer Quintet - Blame It On My Youth (1988)
EAC | FLAC | Tracks (Cue&Log) ~ 268 Mb | Mp3 (CBR320) ~ 115 Mb | Scans included
Bop, Hard Bop, Cool | Label: Contemporary/Victor | # VDJ-1172 | Time: 00:47:34

This is one of the better Art Farmer recordings of the 1980s, which is saying a great deal, for the flugelhornist is among the most consistent of all jazz musicians. The two ballads that open and close this set ("Blame It on My Youth" and "I'll Be Around") give Farmer an opportunity to display his warm and attractive sound (with fine support from pianist James Williams, bassist Rufus Reid and drummer Victor Lewis), while the other five pieces (Benny Carter's "Summer Serenade" and more obscure material) add the great tenor saxophonist (and so-so soprano player) Clifford Jordan to the group. It's an enjoyable and very successful outing.

Review by Scott Yanow, Allmusic.com

The Art Farmer Quintet - Blame It On My Youth (1988) [Re-Up]



Art Farmer - flugelhorn
Clifford Jordan - tenor saxophone, soprano saxophone
James Williams - piano
Rufus Reid - bass
Victor Lewis - drums

Tracklist:

01. Blame It on My Youth (07:09)
02. Fairytale Countryside (09:53)
03. The Smile of The Snake (06:03)
04. Third Avenue (08:21)
05. Summer Serenade (06:21)
06. Progress Report (04:35)
07. I'll Be Around (05:09)


Exact Audio Copy V1.0 beta 2 from 29. April 2011

EAC extraction logfile from 29. April 2012, 22:48

The Art Farmer Quintet / Blame It on My Youth

Used drive : PHILIPS SPD2519T Adapter: 4 ID: 0

Read mode : Secure
Utilize accurate stream : Yes
Defeat audio cache : Yes
Make use of C2 pointers : No

Read offset correction : 6
Overread into Lead-In and Lead-Out : No
Fill up missing offset samples with silence : Yes
Delete leading and trailing silent blocks : No
Null samples used in CRC calculations : No
Used interface : Native Win32 interface for Win NT & 2000
Gap handling : Appended to previous track

Used output format : User Defined Encoder
Selected bitrate : 1024 kBit/s
Quality : High
Add ID3 tag : No
Command line compressor : C:\Program Files\Exact Audio Copy\FLAC\FLAC.EXE
Additional command line options : -6 -V -T "ARTIST=%artist%" -T "TITLE=%title%" -T "ALBUM=%albumtitle%" -T "DATE=%year%" -T "TRACKNUMBER=%tracknr%" -T "GENRE=%genre%" -T "COMMENT=%comment%" -T "BAND=%albuminterpret%" -T "COMPOSER=%composer%" %haslyrics%–ta


TOC of the extracted CD

Track | Start | Length | Start sector | End sector
––––––––––––––––––––––––––––-
1 | 0:00.37 | 7:09.48 | 37 | 32259
2 | 7:10.10 | 9:53.42 | 32260 | 76776
3 | 17:03.52 | 6:03.03 | 76777 | 104004
4 | 23:06.55 | 8:21.12 | 104005 | 141591
5 | 31:27.67 | 6:21.48 | 141592 | 170214
6 | 37:49.40 | 4:35.45 | 170215 | 190884
7 | 42:25.10 | 5:09.42 | 190885 | 214101


Track 1

Filename H:\New Rip\VDJ Japan\The Art Farmer Quintet - Blame It on My Youth (VDJ-1172)(1988)\01 Blame It on My Youth.wav

Pre-gap length 0:00:02.37

Peak level 96.4 %
Extraction speed 2.2 X
Track quality 100.0 %
Test CRC 49EF3AC4
Copy CRC 49EF3AC4
Accurately ripped (confidence 1) [BEB5DCE4] (AR v1)
Copy OK

Track 2

Filename H:\New Rip\VDJ Japan\The Art Farmer Quintet - Blame It on My Youth (VDJ-1172)(1988)\02 Fairytale Countryside.wav

Pre-gap length 0:00:01.56

Peak level 96.9 %
Extraction speed 2.3 X
Track quality 100.0 %
Test CRC E2673186
Copy CRC E2673186
Accurately ripped (confidence 1) [493F5954] (AR v1)
Copy OK

Track 3

Filename H:\New Rip\VDJ Japan\The Art Farmer Quintet - Blame It on My Youth (VDJ-1172)(1988)\03 The Smile of The Snake.wav

Pre-gap length 0:00:03.04

Peak level 96.9 %
Extraction speed 2.2 X
Track quality 100.0 %
Test CRC AC071D1A
Copy CRC AC071D1A
Accurately ripped (confidence 1) [DC8B66C5] (AR v1)
Copy OK

Track 4

Filename H:\New Rip\VDJ Japan\The Art Farmer Quintet - Blame It on My Youth (VDJ-1172)(1988)\04 Third Avenue.wav

Pre-gap length 0:00:01.12

Peak level 97.3 %
Extraction speed 2.2 X
Track quality 100.0 %
Test CRC 51D8976D
Copy CRC 51D8976D
Accurately ripped (confidence 1) [147CFFCA] (AR v1)
Copy OK

Track 5

Filename H:\New Rip\VDJ Japan\The Art Farmer Quintet - Blame It on My Youth (VDJ-1172)(1988)\05 Summer Serenade.wav

Pre-gap length 0:00:01.01

Peak level 76.0 %
Extraction speed 2.2 X
Track quality 100.0 %
Test CRC C44AEF70
Copy CRC C44AEF70
Accurately ripped (confidence 1) [7CC75E90] (AR v1)
Copy OK

Track 6

Filename H:\New Rip\VDJ Japan\The Art Farmer Quintet - Blame It on My Youth (VDJ-1172)(1988)\06 Progress Report.wav

Pre-gap length 0:00:02.46

Peak level 96.6 %
Extraction speed 2.1 X
Track quality 100.0 %
Test CRC 035A258B
Copy CRC 035A258B
Accurately ripped (confidence 1) [4F0313E4] (AR v1)
Copy OK

Track 7

Filename H:\New Rip\VDJ Japan\The Art Farmer Quintet - Blame It on My Youth (VDJ-1172)(1988)\07 I'll Be Around.wav

Pre-gap length 0:00:01.58

Peak level 80.9 %
Extraction speed 2.1 X
Track quality 100.0 %
Test CRC 26B522C9
Copy CRC 26B522C9
Accurately ripped (confidence 1) [51DA8190] (AR v1)
Copy OK


All tracks accurately ripped

No errors occurred

End of status report

foobar2000 1.2 / Dynamic Range Meter 1.1.1
log date: 2016-06-11 12:59:06

––––––––––––––––––––––––––––––––––––––––
Analyzed: The Art Farmer Quintet / Blame It on My Youth
––––––––––––––––––––––––––––––––––––––––

DR Peak RMS Duration Track
––––––––––––––––––––––––––––––––––––––––
DR15 -0.32 dB -18.68 dB 7:10 01-Blame It on My Youth
DR14 -0.27 dB -17.42 dB 9:54 02-Fairytale Countryside
DR15 -0.27 dB -18.33 dB 6:03 03-The Smile of The Snake
DR14 -0.24 dB -16.46 dB 8:21 04-Third Avenue
DR13 -2.38 dB -19.09 dB 6:22 05-Summer Serenade
DR13 -0.30 dB -16.09 dB 4:36 06-Progress Report
DR14 -1.84 dB -19.16 dB 5:10 07-I'll Be Around
––––––––––––––––––––––––––––––––––––––––

Number of tracks: 7
Official DR value: DR14

Samplerate: 44100 Hz
Channels: 2
Bits per sample: 16
Bitrate: 688 kbps
Codec: FLAC
================================================================================

The Art Farmer Quintet - Blame It On My Youth (1988) [Re-Up]

The Art Farmer Quintet - Blame It On My Youth (1988) [Re-Up]

All thanks to original releaser - jack335

More interesting music in My Blog