Subcategories

The Beatles - A Collection Of Beatles Oldies (2010)

Posted By: v3122
The Beatles - A Collection Of Beatles Oldies (2010)

The Beatles - A Collection Of Beatles Oldies (2010)
EAC | Flac(Image) + Cue + Log & MP3 CBR 320Kbps
Dr. Ebbetts, PMC 7016 | ~ 157 or 95 Mb | Scans(jpg) -> 27 Mb
Pop Rock, Rock & Roll, Beat

A Collection of Beatles Oldies (subtitled But Goldies!) is a compilation album by the English rock band the Beatles. Issued in the United Kingdom in December 1966, it features hit singles and other songs released by the group between 1963 and 1966. The compilation served as a stopgap release to satisfy EMI's demand for product during the Christmas period, since the Beatles had only begun the recording for their new studio album, Sgt. Pepper's Lonely Hearts Club Band, late the previous month. The album was the band's first official greatest hits collection.

A Collection of Beatles Oldies peaked at number 7 on the UK Albums Chart. It was also released in some other European countries and in Australia. The album was deleted from the Beatles' catalogue following the reissue of their albums on compact disc in 1987…

~ wiki
The Beatles - A Collection Of Beatles Oldies (2010):

The Beatles - A Collection Of Beatles Oldies (2010)

Tracklist:

01. She Loves You 2:24
02. From Me To You 2:01
03. We Can Work It Out 2:16
04. Help! 2:22
05. Michelle 2:40
06. Yesterday 2:09
07. I Feel Fine 2:24
08. Yellow Submarine 2:44
09. Can't Buy Me Love 2:16
10. Bad Boy 2:22
11. Day Tripper 2:54
12. A Hard Day's Night 2:32
13. Ticket To Ride 3:07
14. Paperback Writer 2:29
15. Eleanor Rigby 2:10
16. I Want To Hold Your Hand 2:26

Exact Audio Copy V1.3 from 2. September 2016

EAC extraction logfile from 16. September 2017, 11:57

The Beatles / A Collection Of Beatles Oldies (PMC 7016)

Used drive : PLEXTOR DVDR PX-891SA Adapter: 1 ID: 0

Read mode : Secure
Utilize accurate stream : Yes
Defeat audio cache : Yes
Make use of C2 pointers : No

Read offset correction : 6
Overread into Lead-In and Lead-Out : No
Fill up missing offset samples with silence : Yes
Delete leading and trailing silent blocks : No
Null samples used in CRC calculations : Yes
Used interface : Native Win32 interface for Win NT & 2000

Used output format : User Defined Encoder
Selected bitrate : 128 kBit/s
Quality : High
Add ID3 tag : No
Command line compressor : C:\Program Files (x86)\Exact Audio Copy\Flac\flac.exe
Additional command line options : -V -8 -T "Genre=%genre%" -T "Artist=%artist%" -T "Title=%title%" -T "Album=%albumtitle%" -T "Date=%year%" -T "Tracknumber=%tracknr%" -T "Comment=%comment%" %source%


TOC of the extracted CD

Track | Start | Length | Start sector | End sector
––––––––––––––––––––––––––––-
1 | 0:00.00 | 2:24.20 | 0 | 10819
2 | 2:24.20 | 2:00.44 | 10820 | 19863
3 | 4:24.64 | 2:15.51 | 19864 | 30039
4 | 6:40.40 | 2:21.73 | 30040 | 40687
5 | 9:02.38 | 2:39.55 | 40688 | 52667
6 | 11:42.18 | 2:08.45 | 52668 | 62312
7 | 13:50.63 | 2:24.37 | 62313 | 73149
8 | 16:15.25 | 2:43.42 | 73150 | 85416
9 | 18:58.67 | 2:16.20 | 85417 | 95636
10 | 21:15.12 | 2:22.36 | 95637 | 106322
11 | 23:37.48 | 2:54.17 | 106323 | 119389
12 | 26:31.65 | 2:32.25 | 119390 | 130814
13 | 29:04.15 | 3:07.37 | 130815 | 144876
14 | 32:11.52 | 2:29.31 | 144877 | 156082
15 | 34:41.08 | 2:10.09 | 156083 | 165841
16 | 36:51.17 | 2:25.55 | 165842 | 176771


Range status and errors

Selected range

Filename H:\dafnaplus\Beatles - A Collection Of Beatles Oldies\The Beatles - A Collection Of Beatles Oldies (PMC 7016).wav

Peak level 100.0 %
Extraction speed 8.1 X
Range quality 100.0 %
Test CRC 745BA412
Copy CRC 745BA412
Copy OK

No errors occurred


AccurateRip summary

Track 1 cannot be verified as accurate (confidence 2) [FF9C145E], AccurateRip returned [8AD46CF0] (AR v2)
Track 2 cannot be verified as accurate (confidence 2) [585DDB0E], AccurateRip returned [2FA1A108] (AR v2)
Track 3 cannot be verified as accurate (confidence 2) [73015F86], AccurateRip returned [DEED4F1A] (AR v2)
Track 4 cannot be verified as accurate (confidence 2) [725C9F03], AccurateRip returned [AAC63A10] (AR v2)
Track 5 cannot be verified as accurate (confidence 2) [479D4720], AccurateRip returned [9BA02209] (AR v2)
Track 6 cannot be verified as accurate (confidence 2) [D3783E85], AccurateRip returned [8D976193] (AR v2)
Track 7 cannot be verified as accurate (confidence 2) [BF8489EB], AccurateRip returned [06F70FEC] (AR v2)
Track 8 cannot be verified as accurate (confidence 2) [2EB64326], AccurateRip returned [77B16DC6] (AR v2)
Track 9 cannot be verified as accurate (confidence 2) [DD2E4C84], AccurateRip returned [78EF5F45] (AR v2)
Track 10 cannot be verified as accurate (confidence 2) [3E4ED1E8], AccurateRip returned [3147C304] (AR v2)
Track 11 cannot be verified as accurate (confidence 2) [1AAACA07], AccurateRip returned [972DB53A] (AR v2)
Track 12 cannot be verified as accurate (confidence 2) [459F4072], AccurateRip returned [1A657F2C] (AR v2)
Track 13 cannot be verified as accurate (confidence 2) [34A005BF], AccurateRip returned [701AEAD9] (AR v2)
Track 14 cannot be verified as accurate (confidence 2) [A4065924], AccurateRip returned [CF29506F] (AR v2)
Track 15 cannot be verified as accurate (confidence 2) [01561932], AccurateRip returned [A481B4AE] (AR v2)
Track 16 cannot be verified as accurate (confidence 2) [155F5770], AccurateRip returned [AFA466D5] (AR v2)

No tracks could be verified as accurate
You may have a different pressing from the one(s) in the database

End of status report

–– CUETools DB Plugin V2.1.6

[CTDB TOCID: oV5YnvZRVIQOgTVnExEGq6yvt5Q-] found
Submit result: already submitted
Track | CTDB Status
1 | (1/2) Accurately ripped
2 | (1/2) Accurately ripped
3 | (1/2) Accurately ripped
4 | (1/2) Accurately ripped
5 | (1/2) Accurately ripped
6 | (1/2) Accurately ripped
7 | (1/2) Accurately ripped
8 | (1/2) Accurately ripped
9 | (1/2) Accurately ripped
10 | (1/2) Accurately ripped
11 | (1/2) Accurately ripped
12 | (1/2) Accurately ripped
13 | (1/2) Accurately ripped
14 | (1/2) Accurately ripped
15 | (1/2) Accurately ripped
16 | (1/2) Accurately ripped


==== Log checksum 69816D64D91B71FB8D5F66673E312388CB608F362B518AF8EFAC9D70D34B8424 ====


[CUETools log; Date: 16.09.2017 13:08:03; Version: 2.1.5]
[AccurateRip ID: 001670eb-010f949e-cc093410] found.
Track [ CRC | V2 ] Status
01 [1ce66284|ff9c145e] (0+0/2) No match
02 [73339168|585ddb0e] (0+0/2) No match
03 [b6baf861|73015f86] (0+0/2) No match
04 [d637092a|725c9f03] (0+0/2) No match
05 [644ee2a0|479d4720] (0+0/2) No match
06 [7997888a|d3783e85] (0+0/2) No match
07 [b08a4ce7|bf8489eb] (0+0/2) No match
08 [44bd3fba|2eb64326] (0+0/2) No match
09 [94e01b18|dd2e4c84] (0+0/2) No match
10 [29851a63|3e4ed1e8] (0+0/2) No match
11 [4e9748c0|1aaaca07] (0+0/2) No match
12 [d94fddd7|459f4072] (0+0/2) No match
13 [58a8ddd0|34a005bf] (0+0/2) No match
14 [f1a3358f|a4065924] (0+0/2) No match
15 [4a5359b2|01561932] (0+0/2) No match
16 [fce8c1af|155f5770] (0+0/2) No match

Track Peak [ CRC32 ] [W/O NULL] [ LOG ]
– 100,0 [745BA412] [D6C7E888] CRC32
01 98,8 [CF887253] [ADB91ED9]
02 96,3 [48120A5F] [5147B5A3]
03 95,3 [CDE04AB3] [AB576155]
04 95,2 [E2AA8CD4] [0A58006A]
05 73,8 [2A3D0EB2] [DE88A3B0]
06 70,4 [5E920D90] [71540EA1]
07 86,4 [1E1EFCD5] [4E996E8A]
08 100,0 [23AE51D9] [41DFC315]
09 82,2 [3B61A047] [48B875B6]
10 98,1 [5B2C6968] [A8067EE9]
11 97,2 [289C62F9] [18F59B45]
12 90,8 [B9DA00F9] [4F7FD343]
13 96,2 [2BEF9B23] [A930576D]
14 89,4 [BD4914E0] [571B93D8]
15 81,3 [098338AA] [F4187665]
16 83,7 [01DF71E4] [4868CF60]


The Beatles - A Collection Of Beatles Oldies (2010)

All thanks go to dafnaplus

The Beatles in my Blog

Download The Beatles - A Collection Of Beatles Oldies (2010):