Subcategories
Tags
Language
Tags

The Beatles - Dr. Ebbetts Japanese Mono LP Red Wax Series (1963-1969) [2007-2008, 11CD]

Posted By: v3122
The Beatles - Dr. Ebbetts Japanese Mono LP Red Wax Series (1963-1969) [2007-2008, 11CD]

The Beatles - Dr. Ebbetts Japanese Mono LP Red Wax Series (1963-1969)
EAC | Flac(Image) + Cue + Log & MP3 CBR 320Kbps
Dr. Ebbetts | ~ 1809 or 861 Mb | Artwork(jpg) -> 37 Mb
Classic Rock

~ Please Please Me (EAS 70130), With The Beatles (EAS 70131), A Hard Day's Night (EAS 70132), Beatles For Sale (EAS 70133), Help (EAS 70134), Rubber Soul (EAS 70135), Revolver (EAS 70136), Sgt. Pepper's Lonely Hearts Club Band (EAS 70137), The Beatles (The White Album) (EAS 67157~8), Yellow Submarine (EAS 70138) ~

Dr. Ebbets was a needledropper (a person who rips near mint/mint condition or unplayed vinyl records) who was famous in the bootleg/audiophile communities for his Beatles releases, which are regarded by some as being the best sounding versions of those albums.

He retired in 2009 due to the upcoming release of The Beatles, but returned in 2010 to release four new titles to his most dedicated customers.

~ discogs
The Beatles - Dr. Ebbetts Japanese Mono LP Red Wax Series (1963-1969) [2007-2008, 11CD]

The Beatles - Dr. Ebbetts Japanese Mono LP Red Wax Series (1963-1969):

The Beatles - Dr. Ebbetts Japanese Mono LP Red Wax Series (1963-1969) [2007-2008, 11CD]

Tracklist CD01. 1963 - Please Please Me (2007 DESS Japan Mono LP Red Wax EAS 70130):

01. I Saw Her Standing There (2:57)
02. Misery (1:52)
03. Anna (Go To Him) (3:00)
04. Chains (2:28)
05. Boys (2:29)
06. Ask Me Why (2:29)
07. Please Please Me (2:05)
08. Love Me Do (2:24)
09. P.S. I Love You (2:07)
10. Baby It's You (2:42)
11. Do You Want To Know A Secret (2:01)
12. A Taste Of Honey (2:06)
13. There's A Place (1:54)
14. Twist And Shout (2:34)

Exact Audio Copy V0.99 prebeta 3 from 28. July 2007

EAC extraction logfile from 28. January 2008, 17:56

The Beatles / Please Please Me [DESS Japan]

Used drive : MATSHITADVD-R UJ-846 Adapter: 0 ID: 0

Read mode : Secure
Utilize accurate stream : Yes
Defeat audio cache : Yes
Make use of C2 pointers : No

Read offset correction : 102
Overread into Lead-In and Lead-Out : No
Fill up missing offset samples with silence : Yes
Delete leading and trailing silent blocks : No
Null samples used in CRC calculations : Yes
Used interface : Native Win32 interface for Win NT & 2000
Gap handling : Appended to previous track

Used output format : User Defined Encoder
Selected bitrate : 192 kBit/s
Quality : High
Add ID3 tag : No
Command line compressor : C:\Program Files\Exact Audio Copy\FLAC\FLAC.EXE
Additional command line options : -8 -V -T "ARTIST=%a" -T "TITLE=%t" -T "ALBUM=%g" -T "DATE=%y" -T "TRACKNUMBER=%n" -T "GENRE=%m" -T "COMMENT=EAC FLAC -8" %s


TOC of the extracted CD

Track | Start | Length | Start sector | End sector
––––––––––––––––––––––––––––-
1 | 0:00.00 | 2:57.09 | 0 | 13283
2 | 2:57.09 | 1:52.33 | 13284 | 21716
3 | 4:49.42 | 2:59.68 | 21717 | 35209
4 | 7:49.35 | 2:28.25 | 35210 | 46334
5 | 10:17.60 | 2:28.71 | 46335 | 57505
6 | 12:46.56 | 2:29.23 | 57506 | 68703
7 | 15:16.04 | 2:05.29 | 68704 | 78107
8 | 17:21.33 | 2:23.38 | 78108 | 88870
9 | 19:44.71 | 2:07.19 | 88871 | 98414
10 | 21:52.15 | 2:41.71 | 98415 | 110560
11 | 24:34.11 | 2:01.05 | 110561 | 119640
12 | 26:35.16 | 2:06.10 | 119641 | 129100
13 | 28:41.26 | 1:53.59 | 129101 | 137634
14 | 30:35.10 | 2:34.31 | 137635 | 149215


Track 1

Filename C:\Documents and Settings\Macintel\Desktop\Please Please Me [DESS Japan]\01 - I Saw Her Standing There.wav

Pre-gap length 0:00:02.00

Peak level 98.2 %
Track quality 100.0 %
Copy CRC 11654F9A
Track not present in AccurateRip database
Copy OK

Track 2

Filename C:\Documents and Settings\Macintel\Desktop\Please Please Me [DESS Japan]\02 - Misery.wav

Peak level 95.7 %
Track quality 100.0 %
Copy CRC AB4BD059
Track not present in AccurateRip database
Copy OK

Track 3

Filename C:\Documents and Settings\Macintel\Desktop\Please Please Me [DESS Japan]\03 - Anna (Go To Him).wav

Peak level 97.3 %
Track quality 100.0 %
Copy CRC EB1D0DE2
Track not present in AccurateRip database
Copy OK

Track 4

Filename C:\Documents and Settings\Macintel\Desktop\Please Please Me [DESS Japan]\04 - Chains.wav

Peak level 96.7 %
Track quality 100.0 %
Copy CRC 514C3121
Track not present in AccurateRip database
Copy OK

Track 5

Filename C:\Documents and Settings\Macintel\Desktop\Please Please Me [DESS Japan]\05 - Boys.wav

Peak level 98.5 %
Track quality 100.0 %
Copy CRC 64FE727D
Track not present in AccurateRip database
Copy OK

Track 6

Filename C:\Documents and Settings\Macintel\Desktop\Please Please Me [DESS Japan]\06 - Ask Me Why.wav

Peak level 97.6 %
Track quality 100.0 %
Copy CRC CB813460
Track not present in AccurateRip database
Copy OK

Track 7

Filename C:\Documents and Settings\Macintel\Desktop\Please Please Me [DESS Japan]\07 - Please Please Me.wav

Peak level 92.0 %
Track quality 99.9 %
Copy CRC FA26C94A
Track not present in AccurateRip database
Copy OK

Track 8

Filename C:\Documents and Settings\Macintel\Desktop\Please Please Me [DESS Japan]\08 - Love Me Do.wav

Peak level 91.3 %
Track quality 100.0 %
Copy CRC A5F6AE3D
Track not present in AccurateRip database
Copy OK

Track 9

Filename C:\Documents and Settings\Macintel\Desktop\Please Please Me [DESS Japan]\09 - P.S. I Love You.wav

Peak level 95.6 %
Track quality 100.0 %
Copy CRC F18FD808
Track not present in AccurateRip database
Copy OK

Track 10

Filename C:\Documents and Settings\Macintel\Desktop\Please Please Me [DESS Japan]\10 - Baby It's You.wav

Peak level 95.4 %
Track quality 100.0 %
Copy CRC 4341994B
Track not present in AccurateRip database
Copy OK

Track 11

Filename C:\Documents and Settings\Macintel\Desktop\Please Please Me [DESS Japan]\11 - Do You Want To Know A Secret.wav

Peak level 95.4 %
Track quality 100.0 %
Copy CRC AA4C1318
Track not present in AccurateRip database
Copy OK

Track 12

Filename C:\Documents and Settings\Macintel\Desktop\Please Please Me [DESS Japan]\12 - A Taste Of Honey.wav

Peak level 93.0 %
Track quality 100.0 %
Copy CRC F219C928
Track not present in AccurateRip database
Copy OK

Track 13

Filename C:\Documents and Settings\Macintel\Desktop\Please Please Me [DESS Japan]\13 - There's A Place.wav

Peak level 98.4 %
Track quality 100.0 %
Copy CRC F1842278
Track not present in AccurateRip database
Copy OK

Track 14

Filename C:\Documents and Settings\Macintel\Desktop\Please Please Me [DESS Japan]\14 - Twist And Shout.wav

Peak level 95.4 %
Track quality 99.9 %
Copy CRC F49FA1A5
Track not present in AccurateRip database
Copy OK


None of the tracks are present in the AccurateRip database

No errors occurred

End of status report


[CUETools log; Date: 17.01.2020 20:11:52; Version: 2.1.6]
[CTDB TOCID: 0AM83r4ZJNd5i40nSMknu6mWAyE-] found.
Track | CTDB Status
1 | (2/2) Accurately ripped
2 | (2/2) Accurately ripped
3 | (2/2) Accurately ripped
4 | (2/2) Accurately ripped
5 | (2/2) Accurately ripped
6 | (2/2) Accurately ripped
7 | (2/2) Accurately ripped
8 | (2/2) Accurately ripped
9 | (2/2) Accurately ripped
10 | (2/2) Accurately ripped
11 | (2/2) Accurately ripped
12 | (2/2) Accurately ripped
13 | (2/2) Accurately ripped
14 | (2/2) Accurately ripped
[AccurateRip ID: 00119d00-00ba1236-cb07c50e] found.
Track [ CRC | V2 ] Status
01 [5c28e465|afc4ea77] (3+0/3) Accurately ripped
02 [32a4b2d5|7024d778] (3+0/3) Accurately ripped
03 [a283e674|d2ddc7a0] (3+0/3) Accurately ripped
04 [b2839b2d|dfc86eda] (3+0/3) Accurately ripped
05 [96aeda87|7c66cfcd] (3+0/3) Accurately ripped
06 [d9c58148|877d2877] (3+0/3) Accurately ripped
07 [2cdcc4f4|ac65a3e1] (3+0/3) Accurately ripped
08 [f919258a|e99eb93e] (3+0/3) Accurately ripped
09 [e56c1d12|d456f898] (3+0/3) Accurately ripped
10 [ab347f15|6079e1e6] (3+0/3) Accurately ripped
11 [efa6d503|c7f7ec1a] (3+0/3) Accurately ripped
12 [ff9b56a4|43fe2331] (3+0/3) Accurately ripped
13 [0fb10e3a|8863a691] (3+0/3) Accurately ripped
14 [ca335246|cc546cd8] (3+0/3) Accurately ripped

Track Peak [ CRC32 ] [W/O NULL] [ LOG ]
– 98,5 [DD97E7A2] [146654CF]
01 98,2 [11654F9A] [38E70DF9] CRC32
02 95,7 [AB4BD059] [6FDFA541] CRC32
03 97,3 [EB1D0DE2] [F4318714] CRC32
04 96,7 [514C3121] [17231C68] CRC32
05 98,5 [64FE727D] [1B2C906B] CRC32
06 97,6 [CB813460] [0EE55B21] CRC32
07 92,0 [FA26C94A] [D9F78D50] CRC32
08 91,3 [A5F6AE3D] [2B69E801] CRC32
09 95,6 [F18FD808] [0C732D27] CRC32
10 95,4 [4341994B] [A14A74E2] CRC32
11 95,4 [AA4C1318] [1E95A572] CRC32
12 93,0 [F219C928] [89502EC4] CRC32
13 98,4 [F1842278] [5897F1A1] CRC32
14 95,4 [F49FA1A5] [00639A22] CRC32


The Beatles - Dr. Ebbetts Japanese Mono LP Red Wax Series (1963-1969) [2007-2008, 11CD]

Tracklist CD02. 1963 - With The Beatles (2008 DESS Japan Mono LP Red Wax EAS 70131):

01. It Won't Be Long (2:16)
02. All I've Got To Do (2:06)
03. All My Loving (2:12)
04. Don't Bother Me (2:31)
05. Little Child (1:49)
06. Till There Was You (2:19)
07. Please Mister Postman (2:37)
08. Roll Over Beethoven (2:49)
09. Hold Me Tight (2:34)
10. You Really Got A Hold On Me (3:04)
11. I Wanna Be Your Man (2:00)
12. Devil In Her Heart (2:29)
13. Not A Second Time (2:10)
14. Money (2:51)

X Lossless Decoder version 20080926 (93.3)

XLD extraction logfile from 2008-12-23 16:32:05 -0500

The Beatles / With The Beatles (Japanese Mono LP) Red Wax [DESS 2008]

Used drive : TSSTcorp CDDVDW SH-S203N (revision LA00)

Use cdparanoia mode : YES (CDParanoia III 10.2 engine)
Disable audio cache : OK for the drive with cache less than 2750KB
Make use of C2 pointers : NO
Read offset correction : 6
Max retry count : 100

TOC of the extracted CD
Track | Start | Length | Start sector | End sector
––––––––––––––––––––––––––––-
1 | 00:00:00 | 02:16:24 | 0 | 10223
2 | 02:16:24 | 02:05:56 | 10224 | 19654
3 | 04:22:05 | 02:12:22 | 19655 | 29576
4 | 06:34:27 | 02:30:72 | 29577 | 40898
5 | 09:05:24 | 01:49:26 | 40899 | 49099
6 | 10:54:50 | 02:18:41 | 49100 | 59490
7 | 13:13:16 | 02:37:30 | 59491 | 71295
8 | 15:50:46 | 02:48:45 | 71296 | 83940
9 | 18:39:16 | 02:34:10 | 83941 | 95500
10 | 21:13:26 | 03:03:65 | 95501 | 109290
11 | 24:17:16 | 02:00:30 | 109291 | 118320
12 | 26:17:46 | 02:28:45 | 118321 | 129465
13 | 28:46:16 | 02:10:00 | 129466 | 139215
14 | 30:56:16 | 02:50:45 | 139216 | 152010

Track 01
Filename : /Users/Macintel/Desktop/MUSIC TO BURN/The Beatles/DESS/Japanese Mono LP - Red Wax [DESS 2008]/02 With The Beatles (Japanese Mono LP) Red Wax [DESS 2008]/01 It Won't Be Long.flac

CRC32 hash (test run) : A3A6707F
CRC32 hash : A3A6707F
CRC32 hash (skip zero) : 548B8574
AccurateRip signature : 72F85A74
->Track not present in AccurateRip database.
Statistics
Read error : 0
Skipped (treated as error) : 0
Edge jitter error (maybe fixed) : 0
Atom jitter error (maybe fixed) : 0
Drift error (maybe fixed) : 0
Dropped bytes error (maybe fixed) : 0
Duplicated bytes error (maybe fixed) : 0
Inconsistency in error sectors : 0

Track 02
Filename : /Users/Macintel/Desktop/MUSIC TO BURN/The Beatles/DESS/Japanese Mono LP - Red Wax [DESS 2008]/02 With The Beatles (Japanese Mono LP) Red Wax [DESS 2008]/02 All I've Got To Do.flac

CRC32 hash (test run) : 84BCC677
CRC32 hash : 84BCC677
CRC32 hash (skip zero) : FFF9BA2B
AccurateRip signature : 47431084
->Track not present in AccurateRip database.
Statistics
Read error : 0
Skipped (treated as error) : 0
Edge jitter error (maybe fixed) : 0
Atom jitter error (maybe fixed) : 0
Drift error (maybe fixed) : 0
Dropped bytes error (maybe fixed) : 0
Duplicated bytes error (maybe fixed) : 0
Inconsistency in error sectors : 0

Track 03
Filename : /Users/Macintel/Desktop/MUSIC TO BURN/The Beatles/DESS/Japanese Mono LP - Red Wax [DESS 2008]/02 With The Beatles (Japanese Mono LP) Red Wax [DESS 2008]/03 All My Loving.flac

CRC32 hash (test run) : EF5E7472
CRC32 hash : EF5E7472
CRC32 hash (skip zero) : 0022AC6F
AccurateRip signature : 0EEEB43F
->Track not present in AccurateRip database.
Statistics
Read error : 0
Skipped (treated as error) : 0
Edge jitter error (maybe fixed) : 0
Atom jitter error (maybe fixed) : 0
Drift error (maybe fixed) : 0
Dropped bytes error (maybe fixed) : 0
Duplicated bytes error (maybe fixed) : 0
Inconsistency in error sectors : 0

Track 04
Filename : /Users/Macintel/Desktop/MUSIC TO BURN/The Beatles/DESS/Japanese Mono LP - Red Wax [DESS 2008]/02 With The Beatles (Japanese Mono LP) Red Wax [DESS 2008]/04 Don't Bother Me.flac

CRC32 hash (test run) : C2748791
CRC32 hash : C2748791
CRC32 hash (skip zero) : 92609D7A
AccurateRip signature : 64EB8B6F
->Track not present in AccurateRip database.
Statistics
Read error : 0
Skipped (treated as error) : 0
Edge jitter error (maybe fixed) : 0
Atom jitter error (maybe fixed) : 0
Drift error (maybe fixed) : 0
Dropped bytes error (maybe fixed) : 0
Duplicated bytes error (maybe fixed) : 0
Inconsistency in error sectors : 0

Track 05
Filename : /Users/Macintel/Desktop/MUSIC TO BURN/The Beatles/DESS/Japanese Mono LP - Red Wax [DESS 2008]/02 With The Beatles (Japanese Mono LP) Red Wax [DESS 2008]/05 Little Child.flac

CRC32 hash (test run) : D08381B5
CRC32 hash : D08381B5
CRC32 hash (skip zero) : 93506649
AccurateRip signature : 7108708B
->Track not present in AccurateRip database.
Statistics
Read error : 0
Skipped (treated as error) : 0
Edge jitter error (maybe fixed) : 0
Atom jitter error (maybe fixed) : 0
Drift error (maybe fixed) : 0
Dropped bytes error (maybe fixed) : 0
Duplicated bytes error (maybe fixed) : 0
Inconsistency in error sectors : 0

Track 06
Filename : /Users/Macintel/Desktop/MUSIC TO BURN/The Beatles/DESS/Japanese Mono LP - Red Wax [DESS 2008]/02 With The Beatles (Japanese Mono LP) Red Wax [DESS 2008]/06 Till There Was You.flac

CRC32 hash (test run) : C372E65E
CRC32 hash : C372E65E
CRC32 hash (skip zero) : FEC5CC55
AccurateRip signature : 2C8856E1
->Track not present in AccurateRip database.
Statistics
Read error : 0
Skipped (treated as error) : 0
Edge jitter error (maybe fixed) : 0
Atom jitter error (maybe fixed) : 0
Drift error (maybe fixed) : 0
Dropped bytes error (maybe fixed) : 0
Duplicated bytes error (maybe fixed) : 0
Inconsistency in error sectors : 0

Track 07
Filename : /Users/Macintel/Desktop/MUSIC TO BURN/The Beatles/DESS/Japanese Mono LP - Red Wax [DESS 2008]/02 With The Beatles (Japanese Mono LP) Red Wax [DESS 2008]/07 Please Mister Postman.flac

CRC32 hash (test run) : 5C61FCCD
CRC32 hash : 5C61FCCD
CRC32 hash (skip zero) : 4B4205F4
AccurateRip signature : F1D76454
->Track not present in AccurateRip database.
Statistics
Read error : 0
Skipped (treated as error) : 0
Edge jitter error (maybe fixed) : 0
Atom jitter error (maybe fixed) : 0
Drift error (maybe fixed) : 0
Dropped bytes error (maybe fixed) : 0
Duplicated bytes error (maybe fixed) : 0
Inconsistency in error sectors : 0

Track 08
Filename : /Users/Macintel/Desktop/MUSIC TO BURN/The Beatles/DESS/Japanese Mono LP - Red Wax [DESS 2008]/02 With The Beatles (Japanese Mono LP) Red Wax [DESS 2008]/08 Roll Over Beethoven.flac

CRC32 hash (test run) : 8D7C5AB7
CRC32 hash : 8D7C5AB7
CRC32 hash (skip zero) : 4E02E8AE
AccurateRip signature : 13338BD0
->Track not present in AccurateRip database.
Statistics
Read error : 0
Skipped (treated as error) : 0
Edge jitter error (maybe fixed) : 0
Atom jitter error (maybe fixed) : 0
Drift error (maybe fixed) : 0
Dropped bytes error (maybe fixed) : 0
Duplicated bytes error (maybe fixed) : 0
Inconsistency in error sectors : 0

Track 09
Filename : /Users/Macintel/Desktop/MUSIC TO BURN/The Beatles/DESS/Japanese Mono LP - Red Wax [DESS 2008]/02 With The Beatles (Japanese Mono LP) Red Wax [DESS 2008]/09 Hold Me Tight.flac

CRC32 hash (test run) : 612092D8
CRC32 hash : 612092D8
CRC32 hash (skip zero) : 859A158A
AccurateRip signature : 1609EE1F
->Track not present in AccurateRip database.
Statistics
Read error : 0
Skipped (treated as error) : 0
Edge jitter error (maybe fixed) : 0
Atom jitter error (maybe fixed) : 0
Drift error (maybe fixed) : 0
Dropped bytes error (maybe fixed) : 0
Duplicated bytes error (maybe fixed) : 0
Inconsistency in error sectors : 0

Track 10
Filename : /Users/Macintel/Desktop/MUSIC TO BURN/The Beatles/DESS/Japanese Mono LP - Red Wax [DESS 2008]/02 With The Beatles (Japanese Mono LP) Red Wax [DESS 2008]/10 You Really Got A Hold On Me.flac

CRC32 hash (test run) : B241C3F0
CRC32 hash : B241C3F0
CRC32 hash (skip zero) : 635B3995
AccurateRip signature : 31CA41FF
->Track not present in AccurateRip database.
Statistics
Read error : 0
Skipped (treated as error) : 0
Edge jitter error (maybe fixed) : 0
Atom jitter error (maybe fixed) : 0
Drift error (maybe fixed) : 0
Dropped bytes error (maybe fixed) : 0
Duplicated bytes error (maybe fixed) : 0
Inconsistency in error sectors : 0

Track 11
Filename : /Users/Macintel/Desktop/MUSIC TO BURN/The Beatles/DESS/Japanese Mono LP - Red Wax [DESS 2008]/02 With The Beatles (Japanese Mono LP) Red Wax [DESS 2008]/11 I Wanna Be Your Man.flac

CRC32 hash (test run) : 79FA40AE
CRC32 hash : 79FA40AE
CRC32 hash (skip zero) : C3134F61
AccurateRip signature : DEF85F3D
->Track not present in AccurateRip database.
Statistics
Read error : 0
Skipped (treated as error) : 0
Edge jitter error (maybe fixed) : 0
Atom jitter error (maybe fixed) : 0
Drift error (maybe fixed) : 0
Dropped bytes error (maybe fixed) : 0
Duplicated bytes error (maybe fixed) : 0
Inconsistency in error sectors : 0

Track 12
Filename : /Users/Macintel/Desktop/MUSIC TO BURN/The Beatles/DESS/Japanese Mono LP - Red Wax [DESS 2008]/02 With The Beatles (Japanese Mono LP) Red Wax [DESS 2008]/12 Devil In Her Heart.flac

CRC32 hash (test run) : 477AA825
CRC32 hash : 477AA825
CRC32 hash (skip zero) : 56CC2745
AccurateRip signature : 62E8F10A
->Track not present in AccurateRip database.
Statistics
Read error : 0
Skipped (treated as error) : 0
Edge jitter error (maybe fixed) : 0
Atom jitter error (maybe fixed) : 0
Drift error (maybe fixed) : 0
Dropped bytes error (maybe fixed) : 0
Duplicated bytes error (maybe fixed) : 0
Inconsistency in error sectors : 0

Track 13
Filename : /Users/Macintel/Desktop/MUSIC TO BURN/The Beatles/DESS/Japanese Mono LP - Red Wax [DESS 2008]/02 With The Beatles (Japanese Mono LP) Red Wax [DESS 2008]/13 Not A Second Time.flac

CRC32 hash (test run) : CC0899C2
CRC32 hash : CC0899C2
CRC32 hash (skip zero) : 6F4D68A2
AccurateRip signature : 72CB3C7E
->Track not present in AccurateRip database.
Statistics
Read error : 0
Skipped (treated as error) : 0
Edge jitter error (maybe fixed) : 0
Atom jitter error (maybe fixed) : 0
Drift error (maybe fixed) : 0
Dropped bytes error (maybe fixed) : 0
Duplicated bytes error (maybe fixed) : 0
Inconsistency in error sectors : 0

Track 14
Filename : /Users/Macintel/Desktop/MUSIC TO BURN/The Beatles/DESS/Japanese Mono LP - Red Wax [DESS 2008]/02 With The Beatles (Japanese Mono LP) Red Wax [DESS 2008]/14 Money.flac

CRC32 hash (test run) : BC88F504
CRC32 hash : BC88F504
CRC32 hash (skip zero) : B0C822B2
AccurateRip signature : 9B4FE1FF
->Track not present in AccurateRip database.
Statistics
Read error : 0
Skipped (treated as error) : 0
Edge jitter error (maybe fixed) : 0
Atom jitter error (maybe fixed) : 0
Drift error (maybe fixed) : 0
Dropped bytes error (maybe fixed) : 0
Duplicated bytes error (maybe fixed) : 0
Inconsistency in error sectors : 0

No errors occurred

End of status report


[CUETools log; Date: 17.01.2020 20:13:35; Version: 2.1.6]
[CTDB TOCID: r_jWcbxmFV4yxGn1bwDB8R962VE-] found.
Track | CTDB Status
1 | (1/1) Accurately ripped
2 | (1/1) Accurately ripped
3 | (1/1) Accurately ripped
4 | (1/1) Accurately ripped
5 | (1/1) Accurately ripped
6 | (1/1) Accurately ripped
7 | (1/1) Accurately ripped
8 | (1/1) Accurately ripped
9 | (1/1) Accurately ripped
10 | (1/1) Accurately ripped
11 | (1/1) Accurately ripped
12 | (1/1) Accurately ripped
13 | (1/1) Accurately ripped
14 | (1/1) Accurately ripped
[AccurateRip ID: 0010e815-00b60351-d707ea0e] found.
Track [ CRC | V2 ] Status
01 [72f85a74|46e46bcb] (2+0/2) Accurately ripped
02 [47431084|d14d5eba] (2+0/2) Accurately ripped
03 [0eeeb43f|115e967b] (2+0/2) Accurately ripped
04 [64eb8b6f|fae65539] (2+0/2) Accurately ripped
05 [7108708b|e9ac1153] (2+0/2) Accurately ripped
06 [2c8856e1|cc3deb11] (2+0/2) Accurately ripped
07 [f1d76454|24f0fb97] (2+0/2) Accurately ripped
08 [13338bd0|47cdf899] (2+0/2) Accurately ripped
09 [1609ee1f|8bfe8b6b] (2+0/2) Accurately ripped
10 [31ca41ff|26433be7] (2+0/2) Accurately ripped
11 [def85f3d|51e82ab1] (2+0/2) Accurately ripped
12 [62e8f10a|a8ebd96b] (2+0/2) Accurately ripped
13 [72cb3c7e|2885e990] (2+0/2) Accurately ripped
14 [9b4fe1ff|c07be6e1] (2+0/2) Accurately ripped

Track Peak [ CRC32 ] [W/O NULL]
– 98,1 [D27F9759] [C404EFA9]
01 97,3 [A3A6707F] [548B8574]
02 97,1 [84BCC677] [FFF9BA2B]
03 97,0 [EF5E7472] [0022AC6F]
04 91,5 [C2748791] [92609D7A]
05 97,7 [D08381B5] [93506649]
06 97,6 [C372E65E] [FEC5CC55]
07 97,1 [5C61FCCD] [4B4205F4]
08 97,0 [8D7C5AB7] [4E02E8AE]
09 97,1 [612092D8] [859A158A]
10 93,6 [B241C3F0] [635B3995]
11 98,1 [79FA40AE] [C3134F61]
12 97,4 [477AA825] [56CC2745]
13 97,2 [CC0899C2] [6F4D68A2]
14 96,8 [BC88F504] [B0C822B2]


The Beatles - Dr. Ebbetts Japanese Mono LP Red Wax Series (1963-1969) [2007-2008, 11CD]

Tracklist CD03. 1964 - A Hard Day's Night (2007 DESS Japan Mono LP Red Wax EAS 70132):

01. A Hard Day's Night (2:34)
02. I Should Have Known Better (2:46)
03. If I Fell (2:24)
04. I'm Happy Just to Dance With You (2:00)
05. And I Love Her (2:33)
06. Tell Me Why (2:12)
07. Can't Buy Me Love (2:17)
08. Any Time At All (2:15)
09. I'll Cry Instead (1:50)
10. Things We Said Today (2:40)
11. When I Get Home (2:20)
12. You Can't Do That (2:38)
13. I'll Be Back (2:23)

Exact Audio Copy V0.99 prebeta 3 from 28. July 2007

EAC extraction logfile from 28. January 2008, 18:21

The Beatles / A Hard Day's Night [DESS Japan]

Used drive : MATSHITADVD-R UJ-846 Adapter: 0 ID: 0

Read mode : Secure
Utilize accurate stream : Yes
Defeat audio cache : Yes
Make use of C2 pointers : No

Read offset correction : 102
Overread into Lead-In and Lead-Out : No
Fill up missing offset samples with silence : Yes
Delete leading and trailing silent blocks : No
Null samples used in CRC calculations : Yes
Used interface : Native Win32 interface for Win NT & 2000
Gap handling : Appended to previous track

Used output format : User Defined Encoder
Selected bitrate : 192 kBit/s
Quality : High
Add ID3 tag : No
Command line compressor : C:\Program Files\Exact Audio Copy\FLAC\FLAC.EXE
Additional command line options : -8 -V -T "ARTIST=%a" -T "TITLE=%t" -T "ALBUM=%g" -T "DATE=%y" -T "TRACKNUMBER=%n" -T "GENRE=%m" -T "COMMENT=EAC FLAC -8" %s


TOC of the extracted CD

Track | Start | Length | Start sector | End sector
––––––––––––––––––––––––––––-
1 | 0:00.00 | 2:34.27 | 0 | 11576
2 | 2:34.27 | 2:46.32 | 11577 | 24058
3 | 5:20.59 | 2:23.56 | 24059 | 34839
4 | 7:44.40 | 2:00.04 | 34840 | 43843
5 | 9:44.44 | 2:33.12 | 43844 | 55330
6 | 12:17.56 | 2:12.21 | 55331 | 65251
7 | 14:30.02 | 2:16.48 | 65252 | 75499
8 | 16:46.50 | 2:14.74 | 75500 | 85623
9 | 19:01.49 | 1:49.50 | 85624 | 93848
10 | 20:51.24 | 2:40.13 | 93849 | 105861
11 | 23:31.37 | 2:20.10 | 105862 | 116371
12 | 25:51.47 | 2:38.14 | 116372 | 128235
13 | 28:29.61 | 2:22.67 | 128236 | 138952


Track 1

Filename C:\Documents and Settings\Macintel\Desktop\A Hard Day's Night [DESS Japan]\01 - A Hard Day's Night.wav

Pre-gap length 0:00:02.00

Peak level 99.9 %
Track quality 100.0 %
Copy CRC D163EC5E
Track not present in AccurateRip database
Copy OK

Track 2

Filename C:\Documents and Settings\Macintel\Desktop\A Hard Day's Night [DESS Japan]\02 - I Should Have Known Better.wav

Peak level 98.2 %
Track quality 100.0 %
Copy CRC 3B45C5F6
Track not present in AccurateRip database
Copy OK

Track 3

Filename C:\Documents and Settings\Macintel\Desktop\A Hard Day's Night [DESS Japan]\03 - If I Fell.wav

Peak level 85.2 %
Track quality 100.0 %
Copy CRC 1C4D5AA5
Track not present in AccurateRip database
Copy OK

Track 4

Filename C:\Documents and Settings\Macintel\Desktop\A Hard Day's Night [DESS Japan]\04 - I'm Happy Just to Dance With You.wav

Peak level 95.1 %
Track quality 100.0 %
Copy CRC CCBB9097
Track not present in AccurateRip database
Copy OK

Track 5

Filename C:\Documents and Settings\Macintel\Desktop\A Hard Day's Night [DESS Japan]\05 - And I Love Her.wav

Peak level 98.0 %
Track quality 100.0 %
Copy CRC FF864305
Track not present in AccurateRip database
Copy OK

Track 6

Filename C:\Documents and Settings\Macintel\Desktop\A Hard Day's Night [DESS Japan]\06 - Tell Me Why.wav

Peak level 90.2 %
Track quality 100.0 %
Copy CRC F9995532
Track not present in AccurateRip database
Copy OK

Track 7

Filename C:\Documents and Settings\Macintel\Desktop\A Hard Day's Night [DESS Japan]\07 - Can't Buy Me Love.wav

Peak level 100.0 %
Track quality 100.0 %
Copy CRC 1B018769
Track not present in AccurateRip database
Copy OK

Track 8

Filename C:\Documents and Settings\Macintel\Desktop\A Hard Day's Night [DESS Japan]\08 - Any Time At All.wav

Peak level 98.1 %
Track quality 100.0 %
Copy CRC B7C2762A
Track not present in AccurateRip database
Copy OK

Track 9

Filename C:\Documents and Settings\Macintel\Desktop\A Hard Day's Night [DESS Japan]\09 - I'll Cry Instead.wav

Peak level 93.5 %
Track quality 100.0 %
Copy CRC 8139378B
Track not present in AccurateRip database
Copy OK

Track 10

Filename C:\Documents and Settings\Macintel\Desktop\A Hard Day's Night [DESS Japan]\10 - Things We Said Today.wav

Peak level 100.0 %
Track quality 100.0 %
Copy CRC 33B5EF52
Track not present in AccurateRip database
Copy OK

Track 11

Filename C:\Documents and Settings\Macintel\Desktop\A Hard Day's Night [DESS Japan]\11 - When I Get Home.wav

Peak level 98.5 %
Track quality 99.9 %
Copy CRC 1BA2C6E9
Track not present in AccurateRip database
Copy OK

Track 12

Filename C:\Documents and Settings\Macintel\Desktop\A Hard Day's Night [DESS Japan]\12 - You Can't Do That.wav

Peak level 93.6 %
Track quality 100.0 %
Copy CRC 643D0AAD
Track not present in AccurateRip database
Copy OK

Track 13

Filename C:\Documents and Settings\Macintel\Desktop\A Hard Day's Night [DESS Japan]\13 - I'll Be Back.wav

Peak level 97.1 %
Track quality 100.0 %
Copy CRC 00233F44
Track not present in AccurateRip database
Copy OK


None of the tracks are present in the AccurateRip database

No errors occurred

End of status report


[CUETools log; Date: 17.01.2020 20:15:35; Version: 2.1.6]
[CTDB TOCID: f7PEl6pYtQfc0jgQNx1ryUxrn9Q-] found.
Track | CTDB Status
1 | (2/2) Accurately ripped
2 | (2/2) Accurately ripped
3 | (2/2) Accurately ripped
4 | (2/2) Accurately ripped
5 | (2/2) Accurately ripped
6 | (2/2) Accurately ripped
7 | (2/2) Accurately ripped
8 | (2/2) Accurately ripped
9 | (2/2) Accurately ripped
10 | (2/2) Accurately ripped
11 | (2/2) Accurately ripped
12 | (2/2) Accurately ripped
13 | (2/2) Accurately ripped
[AccurateRip ID: 000ef163-00947464-9a073c0d] found.
Track [ CRC | V2 ] Status
01 [e40b0c45|976059cd] (2+0/2) Accurately ripped
02 [165611e4|ac7d0eb8] (2+0/2) Accurately ripped
03 [6e896579|9518c64a] (2+0/2) Accurately ripped
04 [d77a6a20|c8dc492b] (2+0/2) Accurately ripped
05 [d04a2202|3402caf0] (2+0/2) Accurately ripped
06 [50188db3|16ad9b74] (2+0/2) Accurately ripped
07 [90cd4597|baa91044] (2+0/2) Accurately ripped
08 [9e6f6e32|f4d901b5] (2+0/2) Accurately ripped
09 [d052c0f1|be8519dd] (2+0/2) Accurately ripped
10 [983ecc58|f451b413] (2+0/2) Accurately ripped
11 [90f82ed6|6934492f] (2+0/2) Accurately ripped
12 [f24103a7|6c689ed6] (2+0/2) Accurately ripped
13 [d8fef617|5fcc0c80] (2+0/2) Accurately ripped

Track Peak [ CRC32 ] [W/O NULL] [ LOG ]
– 100,0 [7BD73C60] [DBECD4DB]
01 99,9 [D163EC5E] [F5EB00C9] CRC32
02 98,2 [3B45C5F6] [B9EB4364] CRC32
03 85,2 [1C4D5AA5] [64F4C302] CRC32
04 95,1 [CCBB9097] [4F1DA232] CRC32
05 98,0 [FF864305] [66010A2B] CRC32
06 90,2 [F9995532] [BE6DCF91] CRC32
07 100,0 [1B018769] [AEE5B760] CRC32
08 98,1 [B7C2762A] [9E1A196B] CRC32
09 93,5 [8139378B] [8E22F64E] CRC32
10 100,0 [33B5EF52] [592A590F] CRC32
11 98,5 [1BA2C6E9] [BB0E653D] CRC32
12 93,6 [643D0AAD] [6651D105] CRC32
13 97,1 [00233F44] [A1DEDA22] CRC32


The Beatles - Dr. Ebbetts Japanese Mono LP Red Wax Series (1963-1969) [2007-2008, 11CD]

Tracklist CD04. 1964 - Beatles For Sale (2007 DESS Japan Mono LP Red Wax EAS 70133):

01. No Reply (2:23)
02. I'm A Loser (2:37)
03. Baby's In Black (2:12)
04. Rock And Roll Music (2:37)
05. I'll Follow the Sun (1:55)
06. Mr. Moonlight (2:40)
07. Kansas City - Hey Hey Hey (2:38)
08. Eight Days A Week (2:49)
09. Words Of Love (2:18)
10. Honey Don't (3:03)
11. Every Little Thing (2:08)
12. I Don't Want To Spoil The Party (2:39)
13. What You're Doing (2:38)
14. Everybody's Trying To Be My Baby (2:27)

Exact Audio Copy V0.99 prebeta 3 from 28. July 2007

EAC extraction logfile from 28. January 2008, 18:48

The Beatles / Beatles For Sale [DESS Japan]

Used drive : MATSHITADVD-R UJ-846 Adapter: 0 ID: 0

Read mode : Secure
Utilize accurate stream : Yes
Defeat audio cache : Yes
Make use of C2 pointers : No

Read offset correction : 102
Overread into Lead-In and Lead-Out : No
Fill up missing offset samples with silence : Yes
Delete leading and trailing silent blocks : No
Null samples used in CRC calculations : Yes
Used interface : Native Win32 interface for Win NT & 2000
Gap handling : Appended to previous track

Used output format : User Defined Encoder
Selected bitrate : 192 kBit/s
Quality : High
Add ID3 tag : No
Command line compressor : C:\Program Files\Exact Audio Copy\FLAC\FLAC.EXE
Additional command line options : -8 -V -T "ARTIST=%a" -T "TITLE=%t" -T "ALBUM=%g" -T "DATE=%y" -T "TRACKNUMBER=%n" -T "GENRE=%m" -T "COMMENT=EAC FLAC -8" %s


TOC of the extracted CD

Track | Start | Length | Start sector | End sector
––––––––––––––––––––––––––––-
1 | 0:00.00 | 2:22.57 | 0 | 10706
2 | 2:22.57 | 2:37.36 | 10707 | 22517
3 | 5:00.18 | 2:11.40 | 22518 | 32382
4 | 7:11.58 | 2:36.70 | 32383 | 44152
5 | 9:48.53 | 1:54.55 | 44153 | 52757
6 | 11:43.33 | 2:40.32 | 52758 | 64789
7 | 14:23.65 | 2:38.37 | 64790 | 76676
8 | 17:02.27 | 2:49.37 | 76677 | 89388
9 | 19:51.64 | 2:18.25 | 89389 | 99763
10 | 22:10.14 | 3:03.02 | 99764 | 113490
11 | 25:13.16 | 2:08.05 | 113491 | 123095
12 | 27:21.21 | 2:39.26 | 123096 | 135046
13 | 30:00.47 | 2:37.69 | 135047 | 146890
14 | 32:38.41 | 2:27.18 | 146891 | 157933


Track 1

Filename C:\Documents and Settings\Macintel\Desktop\Beatles For Sale [DESS Japan]\01 - No Reply.wav

Pre-gap length 0:00:02.00

Peak level 100.0 %
Track quality 99.9 %
Copy CRC 97DB70FB
Track not present in AccurateRip database
Copy OK

Track 2

Filename C:\Documents and Settings\Macintel\Desktop\Beatles For Sale [DESS Japan]\02 - I'm A Loser.wav

Peak level 98.2 %
Track quality 100.0 %
Copy CRC A40BC74E
Track not present in AccurateRip database
Copy OK

Track 3

Filename C:\Documents and Settings\Macintel\Desktop\Beatles For Sale [DESS Japan]\03 - Baby's In Black.wav

Peak level 98.7 %
Track quality 100.0 %
Copy CRC 2DCBBE27
Track not present in AccurateRip database
Copy OK

Track 4

Filename C:\Documents and Settings\Macintel\Desktop\Beatles For Sale [DESS Japan]\04 - Rock And Roll Music.wav

Peak level 99.1 %
Track quality 100.0 %
Copy CRC 06419B44
Track not present in AccurateRip database
Copy OK

Track 5

Filename C:\Documents and Settings\Macintel\Desktop\Beatles For Sale [DESS Japan]\05 - I'll Follow the Sun.wav

Peak level 96.9 %
Track quality 100.0 %
Copy CRC 4CBEF726
Track not present in AccurateRip database
Copy OK

Track 6

Filename C:\Documents and Settings\Macintel\Desktop\Beatles For Sale [DESS Japan]\06 - Mr. Moonlight.wav

Peak level 100.0 %
Track quality 100.0 %
Copy CRC 3A070F87
Track not present in AccurateRip database
Copy OK

Track 7

Filename C:\Documents and Settings\Macintel\Desktop\Beatles For Sale [DESS Japan]\07 - Kansas City - Hey Hey Hey.wav

Peak level 96.0 %
Track quality 100.0 %
Copy CRC 150110AB
Track not present in AccurateRip database
Copy OK

Track 8

Filename C:\Documents and Settings\Macintel\Desktop\Beatles For Sale [DESS Japan]\08 - Eight Days A Week.wav

Peak level 91.8 %
Track quality 100.0 %
Copy CRC 695A08F8
Track not present in AccurateRip database
Copy OK

Track 9

Filename C:\Documents and Settings\Macintel\Desktop\Beatles For Sale [DESS Japan]\09 - Words Of Love.wav

Peak level 99.1 %
Track quality 100.0 %
Copy CRC C54FC9EA
Track not present in AccurateRip database
Copy OK

Track 10

Filename C:\Documents and Settings\Macintel\Desktop\Beatles For Sale [DESS Japan]\10 - Honey Don't.wav

Peak level 98.6 %
Track quality 100.0 %
Copy CRC 9A69004E
Track not present in AccurateRip database
Copy OK

Track 11

Filename C:\Documents and Settings\Macintel\Desktop\Beatles For Sale [DESS Japan]\11 - Every Little Thing.wav

Peak level 98.8 %
Track quality 100.0 %
Copy CRC E02DE075
Track not present in AccurateRip database
Copy OK

Track 12

Filename C:\Documents and Settings\Macintel\Desktop\Beatles For Sale [DESS Japan]\12 - I Don't Want To Spoil The Party.wav

Pre-gap length 0:00:00.01

Peak level 99.7 %
Track quality 100.0 %
Copy CRC F4A04952
Track not present in AccurateRip database
Copy OK

Track 13

Filename C:\Documents and Settings\Macintel\Desktop\Beatles For Sale [DESS Japan]\13 - What You're Doing.wav

Peak level 97.7 %
Track quality 100.0 %
Copy CRC DCAEDD55
Track not present in AccurateRip database
Copy OK

Track 14

Filename C:\Documents and Settings\Macintel\Desktop\Beatles For Sale [DESS Japan]\14 - Everybody's Trying To Be My Baby.wav

Peak level 95.2 %
Track quality 100.0 %
Copy CRC 7485E113
Track not present in AccurateRip database
Copy OK


None of the tracks are present in the AccurateRip database

No errors occurred

End of status report


[CUETools log; Date: 17.01.2020 20:17:13; Version: 2.1.6]
[CTDB TOCID: dbeTpcdTgHIvZI49RtstG8KDZww-] found.
Track | CTDB Status
1 | (1/1) Accurately ripped
2 | (1/1) Accurately ripped
3 | (1/1) Accurately ripped
4 | (1/1) Accurately ripped
5 | (1/1) Accurately ripped
6 | (1/1) Accurately ripped
7 | (1/1) Accurately ripped
8 | (1/1) Accurately ripped
9 | (1/1) Accurately ripped
10 | (1/1) Accurately ripped
11 | (1/1) Accurately ripped
12 | (1/1) Accurately ripped
13 | (1/1) Accurately ripped
14 | (1/1) Accurately ripped
[AccurateRip ID: 0011d8be-00bf375d-9a08390e] found.
Track [ CRC | V2 ] Status
01 [76d9c364|bffa55be] (3+0/3) Accurately ripped
02 [62ca4afe|7b2f515a] (3+0/3) Accurately ripped
03 [0f665b8c|9bb1c6fc] (3+0/3) Accurately ripped
04 [86725609|dc322e55] (3+0/3) Accurately ripped
05 [319040b5|4eab5e41] (3+0/3) Accurately ripped
06 [74f257a9|7bf9aa3f] (3+0/3) Accurately ripped
07 [31aa7633|89862fd6] (3+0/3) Accurately ripped
08 [4848e4cd|ff829147] (3+0/3) Accurately ripped
09 [9c99ee8e|837a16dc] (3+0/3) Accurately ripped
10 [21aa9802|8f317e5f] (3+0/3) Accurately ripped
11 [6be7e0f3|8af25dc5] (3+0/3) Accurately ripped
12 [f753d445|f77b1d88] (3+0/3) Accurately ripped
13 [9017955c|ab8edc86] (3+0/3) Accurately ripped
14 [bb0d2d39|0f5432a4] (3+0/3) Accurately ripped

Track Peak [ CRC32 ] [W/O NULL] [ LOG ]
– 100,0 [A1F43CFB] [796FB7DF]
01 100,0 [97DB70FB] [1799D95D] CRC32
02 98,2 [A40BC74E] [B32BB225] CRC32
03 98,7 [2DCBBE27] [2258B2E5] CRC32
04 99,1 [06419B44] [662DABAE] CRC32
05 96,9 [4CBEF726] [E134F5BE] CRC32
06 100,0 [3A070F87] [F0577F3D] CRC32
07 96,0 [150110AB] [23AE438B] CRC32
08 91,8 [695A08F8] [02CDD932] CRC32
09 99,1 [C54FC9EA] [7A078445] CRC32
10 98,6 [9A69004E] [A2669787] CRC32
11 98,8 [E02DE075] [89D6C85B] CRC32
12 99,7 [F4A04952] [4DC3AAF8] CRC32
13 97,7 [DCAEDD55] [834509C6] CRC32
14 95,2 [7485E113] [4D7F02F3] CRC32


The Beatles - Dr. Ebbetts Japanese Mono LP Red Wax Series (1963-1969) [2007-2008, 11CD]

Tracklist CD05. 1965 - Help (2007 DESS Japan Mono LP Red Wax):

01. Help! (2:23)
02. The Night Before (2:36)
03. You've Got To Hide Your Love Away (2:11)
04. I Need You (2:32)
05. Another Girl (2:08)
06. You're Going To Lose That Girl (2:21)
07. Ticket To Ride (3:08)
08. Act Naturally (2:33)
09. It's Only Love (1:59)
10. You Like Me Too Much (2:39)
11. Tell Me What You See (2:40)
12. I've Just Seen A Face (2:08)
13. Yesterday (2:09)
14. Dizzy Miss Lizzie (2:56)

Exact Audio Copy V0.99 prebeta 3 from 28. July 2007

EAC extraction logfile from 28. January 2008, 19:17

The Beatles / Help! [DESS Japan]

Used drive : MATSHITADVD-R UJ-846 Adapter: 0 ID: 0

Read mode : Secure
Utilize accurate stream : Yes
Defeat audio cache : Yes
Make use of C2 pointers : No

Read offset correction : 102
Overread into Lead-In and Lead-Out : No
Fill up missing offset samples with silence : Yes
Delete leading and trailing silent blocks : No
Null samples used in CRC calculations : Yes
Used interface : Native Win32 interface for Win NT & 2000
Gap handling : Appended to previous track

Used output format : User Defined Encoder
Selected bitrate : 192 kBit/s
Quality : High
Add ID3 tag : No
Command line compressor : C:\Program Files\Exact Audio Copy\FLAC\FLAC.EXE
Additional command line options : -8 -V -T "ARTIST=%a" -T "TITLE=%t" -T "ALBUM=%g" -T "DATE=%y" -T "TRACKNUMBER=%n" -T "GENRE=%m" -T "COMMENT=EAC FLAC -8" %s


TOC of the extracted CD

Track | Start | Length | Start sector | End sector
––––––––––––––––––––––––––––-
1 | 0:00.00 | 2:23.01 | 0 | 10725
2 | 2:23.01 | 2:36.11 | 10726 | 22436
3 | 4:59.12 | 2:11.37 | 22437 | 32298
4 | 7:10.49 | 2:32.24 | 32299 | 43722
5 | 9:42.73 | 2:08.01 | 43723 | 53323
6 | 11:50.74 | 2:21.33 | 53324 | 63931
7 | 14:12.32 | 3:07.58 | 63932 | 78014
8 | 17:20.15 | 2:33.11 | 78015 | 89500
9 | 19:53.26 | 1:59.28 | 89501 | 98453
10 | 21:52.54 | 2:38.74 | 98454 | 110377
11 | 24:31.53 | 2:39.74 | 110378 | 122376
12 | 27:11.52 | 2:07.63 | 122377 | 131964
13 | 29:19.40 | 2:08.57 | 131965 | 141621
14 | 31:28.22 | 2:55.71 | 141622 | 154817


Track 1

Filename C:\Documents and Settings\Macintel\Desktop\Help! [DESS Japan]\01 - Help!.wav

Pre-gap length 0:00:02.00

Peak level 99.9 %
Track quality 100.0 %
Copy CRC 9345D512
Track not present in AccurateRip database
Copy OK

Track 2

Filename C:\Documents and Settings\Macintel\Desktop\Help! [DESS Japan]\02 - The Night Before.wav

Peak level 98.9 %
Track quality 100.0 %
Copy CRC AA7E66EC
Track not present in AccurateRip database
Copy OK

Track 3

Filename C:\Documents and Settings\Macintel\Desktop\Help! [DESS Japan]\03 - You've Got To Hide Your Love Away.wav

Peak level 97.1 %
Track quality 99.9 %
Copy CRC 8282F7B9
Track not present in AccurateRip database
Copy OK

Track 4

Filename C:\Documents and Settings\Macintel\Desktop\Help! [DESS Japan]\04 - I Need You.wav

Peak level 99.5 %
Track quality 99.9 %
Copy CRC 93E945F4
Track not present in AccurateRip database
Copy OK

Track 5

Filename C:\Documents and Settings\Macintel\Desktop\Help! [DESS Japan]\05 - Another Girl.wav

Peak level 96.8 %
Track quality 100.0 %
Copy CRC 416FB330
Track not present in AccurateRip database
Copy OK

Track 6

Filename C:\Documents and Settings\Macintel\Desktop\Help! [DESS Japan]\06 - You're Going To Lose That Girl.wav

Peak level 97.9 %
Track quality 99.9 %
Copy CRC FF881E0D
Track not present in AccurateRip database
Copy OK

Track 7

Filename C:\Documents and Settings\Macintel\Desktop\Help! [DESS Japan]\07 - Ticket To Ride.wav

Peak level 96.9 %
Track quality 100.0 %
Copy CRC 752A01EC
Track not present in AccurateRip database
Copy OK

Track 8

Filename C:\Documents and Settings\Macintel\Desktop\Help! [DESS Japan]\08 - Act Naturally.wav

Peak level 94.3 %
Track quality 100.0 %
Copy CRC 54C081A2
Track not present in AccurateRip database
Copy OK

Track 9

Filename C:\Documents and Settings\Macintel\Desktop\Help! [DESS Japan]\09 - It's Only Love.wav

Peak level 94.1 %
Track quality 100.0 %
Copy CRC EBFFEB4A
Track not present in AccurateRip database
Copy OK

Track 10

Filename C:\Documents and Settings\Macintel\Desktop\Help! [DESS Japan]\10 - You Like Me Too Much.wav

Peak level 100.0 %
Track quality 100.0 %
Copy CRC 32DE9E3E
Track not present in AccurateRip database
Copy OK

Track 11

Filename C:\Documents and Settings\Macintel\Desktop\Help! [DESS Japan]\11 - Tell Me What You See.wav

Peak level 90.2 %
Track quality 100.0 %
Copy CRC 25EC1EA3
Track not present in AccurateRip database
Copy OK

Track 12

Filename C:\Documents and Settings\Macintel\Desktop\Help! [DESS Japan]\12 - I've Just Seen A Face.wav

Peak level 98.1 %
Track quality 99.9 %
Copy CRC 4F8FB2B9
Track not present in AccurateRip database
Copy OK

Track 13

Filename C:\Documents and Settings\Macintel\Desktop\Help! [DESS Japan]\13 - Yesterday.wav

Peak level 89.2 %
Track quality 100.0 %
Copy CRC 441BC84F
Track not present in AccurateRip database
Copy OK

Track 14

Filename C:\Documents and Settings\Macintel\Desktop\Help! [DESS Japan]\14 - Dizzy Miss Lizzie.wav

Peak level 97.5 %
Track quality 100.0 %
Copy CRC 027D640A
Track not present in AccurateRip database
Copy OK


None of the tracks are present in the AccurateRip database

No errors occurred

End of status report


[CUETools log; Date: 17.01.2020 20:18:57; Version: 2.1.6]
[CTDB TOCID: ehTSnC2jQ3cKsBuc_ZMdbj5f5Kg-] found.
Track | CTDB Status
1 | (1/1) Accurately ripped
2 | (1/1) Accurately ripped
3 | (1/1) Accurately ripped
4 | (1/1) Accurately ripped
5 | (1/1) Accurately ripped
6 | (1/1) Accurately ripped
7 | (1/1) Accurately ripped
8 | (1/1) Accurately ripped
9 | (1/1) Accurately ripped
10 | (1/1) Accurately ripped
11 | (1/1) Accurately ripped
12 | (1/1) Accurately ripped
13 | (1/1) Accurately ripped
14 | (1/1) Accurately ripped
[AccurateRip ID: 00119a23-00bc0289-a208100e] found.
Track [ CRC | V2 ] Status
01 [f0300845|c3a01f01] (5+0/5) Accurately ripped
02 [d59aaa8a|bf047134] (5+0/5) Accurately ripped
03 [d3ae3da9|953104ca] (5+0/5) Accurately ripped
04 [840d08b6|42db8765] (5+0/5) Accurately ripped
05 [71a8d7c5|40c7118d] (5+0/5) Accurately ripped
06 [3c493ece|7d3fda4c] (5+0/5) Accurately ripped
07 [9a87fbea|d1eacca9] (5+0/5) Accurately ripped
08 [1236d2d7|7a4fd177] (5+0/5) Accurately ripped
09 [bfef8879|0c79dc41] (5+0/5) Accurately ripped
10 [1e1b1013|7d772933] (5+0/5) Accurately ripped
11 [0f30957b|43719a65] (5+0/5) Accurately ripped
12 [3e509b81|905fa683] (5+0/5) Accurately ripped
13 [cc1562f2|8a1318bd] (5+0/5) Accurately ripped
14 [0d6f67a2|012eb4a9] (5+0/5) Accurately ripped

Track Peak [ CRC32 ] [W/O NULL] [ LOG ]
– 99,9 [13125B3A] [17AB1F64]
01 99,9 [9345D512] [C6DF3B0D] CRC32
02 98,9 [AA7E66EC] [8F23D69B] CRC32
03 97,1 [8282F7B9] [7F709D74] CRC32
04 99,5 [93E945F4] [3E2E2C0E] CRC32
05 96,8 [416FB330] [934F2B51] CRC32
06 97,9 [FF881E0D] [3E8A9069] CRC32
07 96,9 [752A01EC] [19009AA8] CRC32
08 94,3 [54C081A2] [184BA3BE] CRC32
09 94,1 [EBFFEB4A] [F08FDBA6] CRC32
10 99,9 [32DE9E3E] [F8BDB345] CRC32
11 90,2 [25EC1EA3] [2A739E54] CRC32
12 98,1 [4F8FB2B9] [5C886CCB] CRC32
13 89,2 [441BC84F] [66DB3AC0] CRC32
14 97,5 [027D640A] [08FE24BA] CRC32


The Beatles - Dr. Ebbetts Japanese Mono LP Red Wax Series (1963-1969) [2007-2008, 11CD]

Tracklist CD06. 1965 - Rubber Soul (2007 DESS Japan Mono LP Red Wax EAS 70135):

01. Drive My Car (2:34)
02. Norwegian Wood (This Bird Has Flown) (2:08)
03. You Won't See Me (3:28)
04. Nowhere Man (2:46)
05. Think For Yourself (2:21)
06. The Word (2:48)
07. Michelle (2:39)
08. What Goes On (2:51)
09. Girl (2:34)
10. I'm Looking Through You (2:34)
11. In My Life (2:30)
12. Wait (2:18)
13. If I Needed Someone (2:25)
14. Run For Your Life (2:24)

Exact Audio Copy V0.99 prebeta 3 from 28. July 2007

EAC extraction logfile from 28. January 2008, 19:44

The Beatles / Rubber Soul [DESS Japan]

Used drive : MATSHITADVD-R UJ-846 Adapter: 0 ID: 0

Read mode : Secure
Utilize accurate stream : Yes
Defeat audio cache : Yes
Make use of C2 pointers : No

Read offset correction : 102
Overread into Lead-In and Lead-Out : No
Fill up missing offset samples with silence : Yes
Delete leading and trailing silent blocks : No
Null samples used in CRC calculations : Yes
Used interface : Native Win32 interface for Win NT & 2000
Gap handling : Appended to previous track

Used output format : User Defined Encoder
Selected bitrate : 192 kBit/s
Quality : High
Add ID3 tag : No
Command line compressor : C:\Program Files\Exact Audio Copy\FLAC\FLAC.EXE
Additional command line options : -8 -V -T "ARTIST=%a" -T "TITLE=%t" -T "ALBUM=%g" -T "DATE=%y" -T "TRACKNUMBER=%n" -T "GENRE=%m" -T "COMMENT=EAC FLAC -8" %s


TOC of the extracted CD

Track | Start | Length | Start sector | End sector
––––––––––––––––––––––––––––-
1 | 0:00.00 | 2:33.40 | 0 | 11514
2 | 2:33.40 | 2:08.12 | 11515 | 21126
3 | 4:41.52 | 3:28.12 | 21127 | 36738
4 | 8:09.64 | 2:46.22 | 36739 | 49210
5 | 10:56.11 | 2:21.15 | 49211 | 59800
6 | 13:17.26 | 2:47.69 | 59801 | 72394
7 | 16:05.20 | 2:39.32 | 72395 | 84351
8 | 18:44.52 | 2:50.66 | 84352 | 97167
9 | 21:35.43 | 2:34.08 | 97168 | 108725
10 | 24:09.51 | 2:33.41 | 108726 | 120241
11 | 26:43.17 | 2:29.39 | 120242 | 131455
12 | 29:12.56 | 2:17.38 | 131456 | 141768
13 | 31:30.19 | 2:25.11 | 141769 | 152654
14 | 33:55.30 | 2:23.58 | 152655 | 163437


Track 1

Filename C:\Documents and Settings\Macintel\Desktop\Rubber Soul [DESS Japan]\01 - Drive My Car.wav

Pre-gap length 0:00:02.00

Peak level 100.0 %
Track quality 100.0 %
Copy CRC 96E87B5A
Track not present in AccurateRip database
Copy OK

Track 2

Filename C:\Documents and Settings\Macintel\Desktop\Rubber Soul [DESS Japan]\02 - Norwegian Wood (This Bird Has Flown).wav

Peak level 96.2 %
Track quality 99.9 %
Copy CRC 633C1D36
Track not present in AccurateRip database
Copy OK

Track 3

Filename C:\Documents and Settings\Macintel\Desktop\Rubber Soul [DESS Japan]\03 - You Won't See Me.wav

Peak level 97.7 %
Track quality 100.0 %
Copy CRC 11C2DBCC
Track not present in AccurateRip database
Copy OK

Track 4

Filename C:\Documents and Settings\Macintel\Desktop\Rubber Soul [DESS Japan]\04 - Nowhere Man.wav

Peak level 99.2 %
Track quality 100.0 %
Copy CRC EB691FB7
Track not present in AccurateRip database
Copy OK

Track 5

Filename C:\Documents and Settings\Macintel\Desktop\Rubber Soul [DESS Japan]\05 - Think For Yourself.wav

Peak level 91.0 %
Track quality 100.0 %
Copy CRC 686AC001
Track not present in AccurateRip database
Copy OK

Track 6

Filename C:\Documents and Settings\Macintel\Desktop\Rubber Soul [DESS Japan]\06 - The Word.wav

Peak level 89.1 %
Track quality 100.0 %
Copy CRC 418DD02F
Track not present in AccurateRip database
Copy OK

Track 7

Filename C:\Documents and Settings\Macintel\Desktop\Rubber Soul [DESS Japan]\07 - Michelle.wav

Peak level 93.1 %
Track quality 100.0 %
Copy CRC 0393A4AA
Track not present in AccurateRip database
Copy OK

Track 8

Filename C:\Documents and Settings\Macintel\Desktop\Rubber Soul [DESS Japan]\08 - What Goes On.wav

Peak level 100.0 %
Track quality 100.0 %
Copy CRC B9992AAC
Track not present in AccurateRip database
Copy OK

Track 9

Filename C:\Documents and Settings\Macintel\Desktop\Rubber Soul [DESS Japan]\09 - Girl.wav

Peak level 89.1 %
Track quality 100.0 %
Copy CRC 856E12B1
Track not present in AccurateRip database
Copy OK

Track 10

Filename C:\Documents and Settings\Macintel\Desktop\Rubber Soul [DESS Japan]\10 - I'm Looking Through You.wav

Peak level 86.3 %
Track quality 100.0 %
Copy CRC 616B337E
Track not present in AccurateRip database
Copy OK

Track 11

Filename C:\Documents and Settings\Macintel\Desktop\Rubber Soul [DESS Japan]\11 - In My Life.wav

Peak level 91.0 %
Track quality 100.0 %
Copy CRC C154D034
Track not present in AccurateRip database
Copy OK

Track 12

Filename C:\Documents and Settings\Macintel\Desktop\Rubber Soul [DESS Japan]\12 - Wait.wav

Peak level 97.5 %
Track quality 100.0 %
Copy CRC B5ECFE84
Track not present in AccurateRip database
Copy OK

Track 13

Filename C:\Documents and Settings\Macintel\Desktop\Rubber Soul [DESS Japan]\13 - If I Needed Someone.wav

Peak level 100.0 %
Track quality 100.0 %
Copy CRC 1EB7680C
Track not present in AccurateRip database
Copy OK

Track 14

Filename C:\Documents and Settings\Macintel\Desktop\Rubber Soul [DESS Japan]\14 - Run For Your Life.wav

Peak level 96.5 %
Track quality 99.9 %
Copy CRC 10FEFEC8
Track not present in AccurateRip database
Copy OK


None of the tracks are present in the AccurateRip database

No errors occurred

End of status report


[CUETools log; Date: 17.01.2020 20:20:46; Version: 2.1.6]
[CTDB TOCID: QtfNtaKBub4IwBXpuI6YEpcomKA-] found.
Track | CTDB Status
1 | (3/3) Accurately ripped
2 | (3/3) Accurately ripped
3 | (3/3) Accurately ripped
4 | (3/3) Accurately ripped
5 | (3/3) Accurately ripped
6 | (3/3) Accurately ripped
7 | (3/3) Accurately ripped
8 | (3/3) Accurately ripped
9 | (2/3) Accurately ripped, or (1/3) differs in 704 samples @00:32:38-00:32:39
10 | (3/3) Accurately ripped
11 | (3/3) Accurately ripped
12 | (2/3) Accurately ripped, or (1/3) differs in 4709 samples @01:01:11-01:01:12,01:30:19-01:30:20,01:33:46-01:33:48,01:58:41-01:58:42,01:58:61-01:58:62,01:59:70-01:59:71
13 | (2/3) Accurately ripped, or (1/3) differs in 868 samples @01:34:53-01:34:54
14 | (2/3) Accurately ripped, or (1/3) differs in 1438 samples @02:10:38-02:10:45
[AccurateRip ID: 00131522-00cb25ad-cf08830e] found.
Track [ CRC | V2 ] Status
01 [b055d6f9|3c5fcf2c] (4+0/6) Accurately ripped
02 [86812e93|9e6006b8] (4+0/6) Accurately ripped
03 [2a0f4608|b84c1816] (4+0/6) Accurately ripped
04 [83ac153d|e28a33e8] (4+0/6) Accurately ripped
05 [fa1eb212|a40e9250] (4+0/6) Accurately ripped
06 [c2130e09|68336cfc] (4+0/6) Accurately ripped
07 [83a24ac5|f8ef877d] (4+0/6) Accurately ripped
08 [db5e8ed6|f3022c58] (4+0/6) Accurately ripped
09 [39a7382e|7e40e01e] (2+0/6) Accurately ripped
10 [4b0c7fe7|d3ffbac2] (4+0/6) Accurately ripped
11 [163b5e2c|02fea0de] (4+0/6) Accurately ripped
12 [ace72770|6b7b3578] (2+0/6) Accurately ripped
13 [0043c7ff|e99c7b62] (2+0/6) Accurately ripped
14 [fd67b9b9|82b5ba9c] (2+0/6) Accurately ripped
Offsetted by 296:
01 [f41cfd9b] (2/6) Accurately ripped
02 [283807f2] (2/6) Accurately ripped
03 [fc3c9c33] (2/6) Accurately ripped
04 [9e447d2e] (2/6) Accurately ripped
05 [7debb7ab] (2/6) Accurately ripped
06 [82e15913] (2/6) Accurately ripped
07 [c261b87f] (0/6) No match (V2 was not tested)
08 [fcb09917] (0/6) No match
09 [d366256b] (2/6) Accurately ripped
10 [04957d54] (2/6) Accurately ripped
11 [f1437cd0] (2/6) Accurately ripped
12 [1d4fe1f0] (2/6) Accurately ripped
13 [1644689a] (2/6) Accurately ripped
14 [a66f0a39] (2/6) Accurately ripped
Offsetted by 302:
01 [c354b529] (0/6) No match
02 [6692206d] (0/6) No match
03 [583b5ceb] (0/6) No match
04 [2367addb] (0/6) No match
05 [fdf6e07e] (0/6) No match
06 [5d7ac491] (0/6) No match
07 [0b23232c] (0/6) No match
08 [9d95e085] (0/6) No match (V2 was not tested)
09 [5f881c74] (0/6) No match
10 [b2d391ee] (0/6) No match
11 [44393336] (0/6) No match
12 [9292dc73] (0/6) No match
13 [4e5594b2] (0/6) No match
14 [84c0ea41] (0/6) No match

Track Peak [ CRC32 ] [W/O NULL] [ LOG ]
– 100,0 [038F8B17] [8085A9EF]
01 100,0 [96E87B5A] [9F6B6C5B] CRC32
02 96,2 [633C1D36] [BE168575] CRC32
03 97,7 [11C2DBCC] [72F406EF] CRC32
04 99,2 [EB691FB7] [035B3178] CRC32
05 91,0 [686AC001] [9B2B1C0B] CRC32
06 89,1 [418DD02F] [C170765B] CRC32
07 93,1 [0393A4AA] [3841F5D2] CRC32
08 100,0 [B9992AAC] [4CA6037A] CRC32
09 89,1 [856E12B1] [C84C3EF4] CRC32
10 86,3 [616B337E] [531A5086] CRC32
11 91,0 [C154D034] [EDBC688C] CRC32
12 97,5 [B5ECFE84] [774993A7] CRC32
13 100,0 [1EB7680C] [1D46BB13] CRC32
14 96,5 [10FEFEC8] [BEB778E7] CRC32


The Beatles - Dr. Ebbetts Japanese Mono LP Red Wax Series (1963-1969) [2007-2008, 11CD]

Tracklist CD07. 1966 - Revolver (2007 DESS Japan Mono LP Red Wax EAS 70136):

01. Taxman (2:42)
02. Eleanor Rigby (2:09)
03. I'm Only Sleeping (3:02)
04. Love You To (3:09)
05. Here, There And Everywhere (2:25)
06. Yellow Submarine (2:41)
07. She Said She Said (2:38)
08. Good Day Sunshine (2:12)
09. And Your Bird Can Sing (2:03)
10. For No One (2:02)
11. Doctor Robert (2:16)
12. I Want To Tell You (2:31)
13. Got To Get You Into My Life (2:38)
14. Tomorrow Never Knows (3:00)

Exact Audio Copy V0.99 prebeta 3 from 28. July 2007

EAC extraction logfile from 28. January 2008, 20:18

The Beatles / Revolver [DESS Japan]

Used drive : MATSHITADVD-R UJ-846 Adapter: 0 ID: 0

Read mode : Secure
Utilize accurate stream : Yes
Defeat audio cache : Yes
Make use of C2 pointers : No

Read offset correction : 102
Overread into Lead-In and Lead-Out : No
Fill up missing offset samples with silence : Yes
Delete leading and trailing silent blocks : No
Null samples used in CRC calculations : Yes
Used interface : Native Win32 interface for Win NT & 2000
Gap handling : Appended to previous track

Used output format : User Defined Encoder
Selected bitrate : 192 kBit/s
Quality : High
Add ID3 tag : No
Command line compressor : C:\Program Files\Exact Audio Copy\FLAC\FLAC.EXE
Additional command line options : -8 -V -T "ARTIST=%a" -T "TITLE=%t" -T "ALBUM=%g" -T "DATE=%y" -T "TRACKNUMBER=%n" -T "GENRE=%m" -T "COMMENT=EAC FLAC -8" %s


TOC of the extracted CD

Track | Start | Length | Start sector | End sector
––––––––––––––––––––––––––––-
1 | 0:00.00 | 2:41.43 | 0 | 12117
2 | 2:41.43 | 2:08.66 | 12118 | 21783
3 | 4:50.34 | 3:02.37 | 21784 | 35470
4 | 7:52.71 | 3:08.50 | 35471 | 49620
5 | 11:01.46 | 2:25.13 | 49621 | 60508
6 | 13:26.59 | 2:41.28 | 60509 | 72611
7 | 16:08.12 | 2:38.29 | 72612 | 84490
8 | 18:46.41 | 2:11.60 | 84491 | 94375
9 | 20:58.26 | 2:02.44 | 94376 | 103569
10 | 23:00.70 | 2:01.49 | 103570 | 112693
11 | 25:02.44 | 2:16.12 | 112694 | 122905
12 | 27:18.56 | 2:31.16 | 122906 | 134246
13 | 29:49.72 | 2:38.36 | 134247 | 146132
14 | 32:28.33 | 2:59.67 | 146133 | 159624


Track 1

Filename C:\Documents and Settings\Macintel\Desktop\Revolver [DESS Japan]\01 - Taxman.wav

Pre-gap length 0:00:02.00

Peak level 100.0 %
Track quality 100.0 %
Copy CRC 67492565
Track not present in AccurateRip database
Copy OK

Track 2

Filename C:\Documents and Settings\Macintel\Desktop\Revolver [DESS Japan]\02 - Eleanor Rigby.wav

Peak level 100.0 %
Track quality 100.0 %
Copy CRC 87E042A7
Track not present in AccurateRip database
Copy OK

Track 3

Filename C:\Documents and Settings\Macintel\Desktop\Revolver [DESS Japan]\03 - I'm Only Sleeping.wav

Peak level 99.9 %
Track quality 100.0 %
Copy CRC E2179F0D
Track not present in AccurateRip database
Copy OK

Track 4

Filename C:\Documents and Settings\Macintel\Desktop\Revolver [DESS Japan]\04 - Love You To.wav

Peak level 99.9 %
Track quality 100.0 %
Copy CRC AA2BCC26
Track not present in AccurateRip database
Copy OK

Track 5

Filename C:\Documents and Settings\Macintel\Desktop\Revolver [DESS Japan]\05 - Here, There And Everywhere.wav

Peak level 99.9 %
Track quality 100.0 %
Copy CRC 0EEA2D27
Track not present in AccurateRip database
Copy OK

Track 6

Filename C:\Documents and Settings\Macintel\Desktop\Revolver [DESS Japan]\06 - Yellow Submarine.wav

Peak level 100.0 %
Track quality 99.9 %
Copy CRC 11DDBACA
Track not present in AccurateRip database
Copy OK

Track 7

Filename C:\Documents and Settings\Macintel\Desktop\Revolver [DESS Japan]\07 - She Said She Said.wav

Peak level 100.0 %
Track quality 99.9 %
Copy CRC DC878A72
Track not present in AccurateRip database
Copy OK

Track 8

Filename C:\Documents and Settings\Macintel\Desktop\Revolver [DESS Japan]\08 - Good Day Sunshine.wav

Peak level 95.7 %
Track quality 100.0 %
Copy CRC D32362F2
Track not present in AccurateRip database
Copy OK

Track 9

Filename C:\Documents and Settings\Macintel\Desktop\Revolver [DESS Japan]\09 - And Your Bird Can Sing.wav

Peak level 99.9 %
Track quality 100.0 %
Copy CRC 90F8AE8C
Track not present in AccurateRip database
Copy OK

Track 10

Filename C:\Documents and Settings\Macintel\Desktop\Revolver [DESS Japan]\10 - For No One.wav

Peak level 92.5 %
Track quality 100.0 %
Copy CRC 94E2F9A6
Track not present in AccurateRip database
Copy OK

Track 11

Filename C:\Documents and Settings\Macintel\Desktop\Revolver [DESS Japan]\11 - Doctor Robert.wav

Peak level 99.9 %
Track quality 99.9 %
Copy CRC 6C997312
Track not present in AccurateRip database
Copy OK

Track 12

Filename C:\Documents and Settings\Macintel\Desktop\Revolver [DESS Japan]\12 - I Want To Tell You.wav

Peak level 99.9 %
Track quality 100.0 %
Copy CRC 29BA7334
Track not present in AccurateRip database
Copy OK

Track 13

Filename C:\Documents and Settings\Macintel\Desktop\Revolver [DESS Japan]\13 - Got To Get You Into My Life.wav

Peak level 99.9 %
Track quality 100.0 %
Copy CRC 3E2A85AD
Track not present in AccurateRip database
Copy OK

Track 14

Filename C:\Documents and Settings\Macintel\Desktop\Revolver [DESS Japan]\14 - Tomorrow Never Knows.wav

Peak level 99.9 %
Track quality 100.0 %
Copy CRC E703A9BF
Track not present in AccurateRip database
Copy OK


None of the tracks are present in the AccurateRip database

No errors occurred

End of status report


[CUETools log; Date: 17.01.2020 20:22:40; Version: 2.1.6]
[CTDB TOCID: mvx9j8jvaA_iA4vpZi3fKS2ioKU-] found.
Track | CTDB Status
1 | (2/2) Accurately ripped
2 | (2/2) Accurately ripped
3 | (2/2) Accurately ripped
4 | (2/2) Accurately ripped
5 | (2/2) Accurately ripped
6 | (2/2) Accurately ripped
7 | (2/2) Accurately ripped
8 | (2/2) Accurately ripped
9 | (2/2) Accurately ripped
10 | (2/2) Accurately ripped
11 | (2/2) Accurately ripped
12 | (2/2) Accurately ripped
13 | (2/2) Accurately ripped
14 | (2/2) Accurately ripped
[AccurateRip ID: 0012772d-00c37e6a-b008500e] found.
Track [ CRC | V2 ] Status
01 [37a1b774|ec9bdccc] (6+0/6) Accurately ripped
02 [01620fcf|bcf832eb] (5+0/5) Accurately ripped
03 [e5bdd070|dea0a5ae] (5+0/5) Accurately ripped
04 [8737d3db|d5342b17] (5+0/5) Accurately ripped
05 [12b7ca1f|a7953cc9] (5+0/5) Accurately ripped
06 [7ca85764|fb7b59b9] (5+0/5) Accurately ripped
07 [b8546692|922f7044] (5+0/5) Accurately ripped
08 [cbfb94a6|20368cbe] (5+0/5) Accurately ripped
09 [a84ea804|5f32c9c7] (5+0/5) Accurately ripped
10 [f30a4a73|e657300f] (5+0/5) Accurately ripped
11 [2a61daeb|e9eb9d4d] (5+0/5) Accurately ripped
12 [7a8f4cf5|3a214bf3] (5+0/5) Accurately ripped
13 [1b0700cd|80469cc0] (5+0/5) Accurately ripped
14 [19195688|88919bc7] (5+0/5) Accurately ripped

Track Peak [ CRC32 ] [W/O NULL] [ LOG ]
– 100,0 [B6004311] [8EC50DCF]
01 100,0 [67492565] [C111065D] CRC32
02 100,0 [87E042A7] [B6F89335] CRC32
03 99,9 [E2179F0D] [FEC6010C] CRC32
04 99,9 [AA2BCC26] [D8C763DE] CRC32
05 99,9 [0EEA2D27] [9328ACD9] CRC32
06 100,0 [11DDBACA] [5A58BD98] CRC32
07 100,0 [DC878A72] [6D1963FE] CRC32
08 95,7 [D32362F2] [91A88FEA] CRC32
09 99,9 [90F8AE8C] [FD69259B] CRC32
10 92,5 [94E2F9A6] [DE835084] CRC32
11 99,9 [6C997312] [4C0782F6] CRC32
12 99,9 [29BA7334] [A50C2A77] CRC32
13 99,9 [3E2A85AD] [45A67024] CRC32
14 99,9 [E703A9BF] [1F48CF26] CRC32


The Beatles - Dr. Ebbetts Japanese Mono LP Red Wax Series (1963-1969) [2007-2008, 11CD]

Tracklist CD08. 1967 - Sgt. Pepper's Lonely Hearts Club Band (2008 DESS Japan Mono LP Red Wax EAS 70137):

01. Sgt. Pepper's Lonely Hearts Club Band (2:03)
02. With A Little Help From My Friends (2:45)
03. Lucy In The Sky With Diamonds (3:27)
04. Getting Better (2:47)
05. Fixing A Hole (2:37)
06. She's Leaving Home (3:25)
07. Being For The Benefit Of Mr. Kite (2:38)
08. Within You Without You (5:07)
09. When I'm Sixty-Four (2:40)
10. Lovely Rita (2:45)
11. Good Morning Good Morning (2:35)
12. Sgt. Pepper's Lonely Hearts Club Band (Reprise) (1:20)
13. A Day In The Life (5:13)

X Lossless Decoder version 20080926 (93.3)

XLD extraction logfile from 2008-12-23 17:13:57 -0500

The Beatles / Sgt. Pepper's Lonely Hearts Club Band (Japanese Mono LP) Red Wax [DESS 2008]

Used drive : TSSTcorp CDDVDW SH-S203N (revision LA00)

Use cdparanoia mode : YES (CDParanoia III 10.2 engine)
Disable audio cache : OK for the drive with cache less than 2750KB
Make use of C2 pointers : NO
Read offset correction : 6
Max retry count : 100

TOC of the extracted CD
Track | Start | Length | Start sector | End sector
––––––––––––––––––––––––––––-
1 | 00:00:00 | 02:02:62 | 0 | 9211
2 | 02:02:62 | 02:44:70 | 9212 | 21581
3 | 04:47:57 | 03:27:04 | 21582 | 37110
4 | 08:14:61 | 02:46:72 | 37111 | 49632
5 | 11:01:58 | 02:37:23 | 49633 | 61430
6 | 13:39:06 | 03:25:00 | 61431 | 76805
7 | 17:04:06 | 02:37:51 | 76806 | 88631
8 | 19:41:57 | 05:07:29 | 88632 | 111685
9 | 24:49:11 | 02:39:48 | 111686 | 123658
10 | 27:28:59 | 02:45:03 | 123659 | 136036
11 | 30:13:62 | 02:34:44 | 136037 | 147630
12 | 32:48:31 | 01:19:49 | 147631 | 153604
13 | 34:08:05 | 05:12:64 | 153605 | 177068

Track 01
Filename : /Users/Macintel/Desktop/MUSIC TO BURN/The Beatles/DESS/Japanese Mono LP - Red Wax [DESS 2008]/08 Sgt. Pepper's Lonely Hearts Club Band (Japanese Mono LP) Red Wax [DESS 2008]/01 Sgt. Pepper's Lonely Hearts Club Band.flac

CRC32 hash (test run) : 2CBDE275
CRC32 hash : 2CBDE275
CRC32 hash (skip zero) : C760E3D4
AccurateRip signature : EDEF118B
->Track not present in AccurateRip database.
Statistics
Read error : 0
Skipped (treated as error) : 0
Edge jitter error (maybe fixed) : 0
Atom jitter error (maybe fixed) : 0
Drift error (maybe fixed) : 0
Dropped bytes error (maybe fixed) : 0
Duplicated bytes error (maybe fixed) : 0
Inconsistency in error sectors : 0

Track 02
Filename : /Users/Macintel/Desktop/MUSIC TO BURN/The Beatles/DESS/Japanese Mono LP - Red Wax [DESS 2008]/08 Sgt. Pepper's Lonely Hearts Club Band (Japanese Mono LP) Red Wax [DESS 2008]/02 With A Little Help From My Friends.flac

CRC32 hash (test run) : 0E4D73FB
CRC32 hash : 0E4D73FB
CRC32 hash (skip zero) : 65868458
AccurateRip signature : EDFED018
->Track not present in AccurateRip database.
Statistics
Read error : 0
Skipped (treated as error) : 0
Edge jitter error (maybe fixed) : 0
Atom jitter error (maybe fixed) : 0
Drift error (maybe fixed) : 0
Dropped bytes error (maybe fixed) : 0
Duplicated bytes error (maybe fixed) : 0
Inconsistency in error sectors : 0

Track 03
Filename : /Users/Macintel/Desktop/MUSIC TO BURN/The Beatles/DESS/Japanese Mono LP - Red Wax [DESS 2008]/08 Sgt. Pepper's Lonely Hearts Club Band (Japanese Mono LP) Red Wax [DESS 2008]/03 Lucy In The Sky With Diamonds.flac

CRC32 hash (test run) : BF8B0DF2
CRC32 hash : BF8B0DF2
CRC32 hash (skip zero) : 43C7474C
AccurateRip signature : 78E36193
->Track not present in AccurateRip database.
Statistics
Read error : 0
Skipped (treated as error) : 0
Edge jitter error (maybe fixed) : 0
Atom jitter error (maybe fixed) : 0
Drift error (maybe fixed) : 0
Dropped bytes error (maybe fixed) : 0
Duplicated bytes error (maybe fixed) : 0
Inconsistency in error sectors : 0

Track 04
Filename : /Users/Macintel/Desktop/MUSIC TO BURN/The Beatles/DESS/Japanese Mono LP - Red Wax [DESS 2008]/08 Sgt. Pepper's Lonely Hearts Club Band (Japanese Mono LP) Red Wax [DESS 2008]/04 Getting Better.flac

CRC32 hash (test run) : 86F1A7BD
CRC32 hash : 86F1A7BD
CRC32 hash (skip zero) : 4354FB32
AccurateRip signature : DCBC9870
->Track not present in AccurateRip database.
Statistics
Read error : 0
Skipped (treated as error) : 0
Edge jitter error (maybe fixed) : 0
Atom jitter error (maybe fixed) : 0
Drift error (maybe fixed) : 0
Dropped bytes error (maybe fixed) : 0
Duplicated bytes error (maybe fixed) : 0
Inconsistency in error sectors : 0

Track 05
Filename : /Users/Macintel/Desktop/MUSIC TO BURN/The Beatles/DESS/Japanese Mono LP - Red Wax [DESS 2008]/08 Sgt. Pepper's Lonely Hearts Club Band (Japanese Mono LP) Red Wax [DESS 2008]/05 Fixing A Hole.flac

CRC32 hash (test run) : 5762D523
CRC32 hash : 5762D523
CRC32 hash (skip zero) : 7DE56E41
AccurateRip signature : 476BB0D6
->Track not present in AccurateRip database.
Statistics
Read error : 0
Skipped (treated as error) : 0
Edge jitter error (maybe fixed) : 0
Atom jitter error (maybe fixed) : 0
Drift error (maybe fixed) : 0
Dropped bytes error (maybe fixed) : 0
Duplicated bytes error (maybe fixed) : 0
Inconsistency in error sectors : 0

Track 06
Filename : /Users/Macintel/Desktop/MUSIC TO BURN/The Beatles/DESS/Japanese Mono LP - Red Wax [DESS 2008]/08 Sgt. Pepper's Lonely Hearts Club Band (Japanese Mono LP) Red Wax [DESS 2008]/06 She's Leaving Home.flac

CRC32 hash (test run) : 2783262D
CRC32 hash : 2783262D
CRC32 hash (skip zero) : C0A79051
AccurateRip signature : 73DF0ECC
->Track not present in AccurateRip database.
Statistics
Read error : 0
Skipped (treated as error) : 0
Edge jitter error (maybe fixed) : 0
Atom jitter error (maybe fixed) : 0
Drift error (maybe fixed) : 0
Dropped bytes error (maybe fixed) : 0
Duplicated bytes error (maybe fixed) : 0
Inconsistency in error sectors : 0

Track 07
Filename : /Users/Macintel/Desktop/MUSIC TO BURN/The Beatles/DESS/Japanese Mono LP - Red Wax [DESS 2008]/08 Sgt. Pepper's Lonely Hearts Club Band (Japanese Mono LP) Red Wax [DESS 2008]/07 Being For The Benefit Of Mr. Kite.flac

CRC32 hash (test run) : 7F4F350B
CRC32 hash : 7F4F350B
CRC32 hash (skip zero) : C4442753
AccurateRip signature : D314A498
->Track not present in AccurateRip database.
Statistics
Read error : 0
Skipped (treated as error) : 0
Edge jitter error (maybe fixed) : 0
Atom jitter error (maybe fixed) : 0
Drift error (maybe fixed) : 0
Dropped bytes error (maybe fixed) : 0
Duplicated bytes error (maybe fixed) : 0
Inconsistency in error sectors : 0

Track 08
Filename : /Users/Macintel/Desktop/MUSIC TO BURN/The Beatles/DESS/Japanese Mono LP - Red Wax [DESS 2008]/08 Sgt. Pepper's Lonely Hearts Club Band (Japanese Mono LP) Red Wax [DESS 2008]/08 Within You Without You.flac

CRC32 hash (test run) : 3EB71D71
CRC32 hash : 3EB71D71
CRC32 hash (skip zero) : 8CE0C674
AccurateRip signature : 4F26DC78
->Track not present in AccurateRip database.
Statistics
Read error : 0
Skipped (treated as error) : 0
Edge jitter error (maybe fixed) : 0
Atom jitter error (maybe fixed) : 0
Drift error (maybe fixed) : 0
Dropped bytes error (maybe fixed) : 0
Duplicated bytes error (maybe fixed) : 0
Inconsistency in error sectors : 0

Track 09
Filename : /Users/Macintel/Desktop/MUSIC TO BURN/The Beatles/DESS/Japanese Mono LP - Red Wax [DESS 2008]/08 Sgt. Pepper's Lonely Hearts Club Band (Japanese Mono LP) Red Wax [DESS 2008]/09 When I'm Sixty-Four.flac

CRC32 hash (test run) : 30387F59
CRC32 hash : 30387F59
CRC32 hash (skip zero) : 297E9B58
AccurateRip signature : 226A9E0F
->Track not present in AccurateRip database.
Statistics
Read error : 0
Skipped (treated as error) : 0
Edge jitter error (maybe fixed) : 0
Atom jitter error (maybe fixed) : 0
Drift error (maybe fixed) : 0
Dropped bytes error (maybe fixed) : 0
Duplicated bytes error (maybe fixed) : 0
Inconsistency in error sectors : 0

Track 10
Filename : /Users/Macintel/Desktop/MUSIC TO BURN/The Beatles/DESS/Japanese Mono LP - Red Wax [DESS 2008]/08 Sgt. Pepper's Lonely Hearts Club Band (Japanese Mono LP) Red Wax [DESS 2008]/10 Lovely Rita.flac

CRC32 hash (test run) : 7971D3E8
CRC32 hash : 7971D3E8
CRC32 hash (skip zero) : 9565D762
AccurateRip signature : EDD63538
->Track not present in AccurateRip database.
Statistics
Read error : 0
Skipped (treated as error) : 0
Edge jitter error (maybe fixed) : 0
Atom jitter error (maybe fixed) : 0
Drift error (maybe fixed) : 0
Dropped bytes error (maybe fixed) : 0
Duplicated bytes error (maybe fixed) : 0
Inconsistency in error sectors : 0

Track 11
Filename : /Users/Macintel/Desktop/MUSIC TO BURN/The Beatles/DESS/Japanese Mono LP - Red Wax [DESS 2008]/08 Sgt. Pepper's Lonely Hearts Club Band (Japanese Mono LP) Red Wax [DESS 2008]/11 Good Morning Good Morning.flac

CRC32 hash (test run) : 19BB3FDD
CRC32 hash : 19BB3FDD
CRC32 hash (skip zero) : 29470955
AccurateRip signature : C06CA91A
->Track not present in AccurateRip database.
Statistics
Read error : 0
Skipped (treated as error) : 0
Edge jitter error (maybe fixed) : 0
Atom jitter error (maybe fixed) : 0
Drift error (maybe fixed) : 0
Dropped bytes error (maybe fixed) : 0
Duplicated bytes error (maybe fixed) : 0
Inconsistency in error sectors : 0

Track 12
Filename : /Users/Macintel/Desktop/MUSIC TO BURN/The Beatles/DESS/Japanese Mono LP - Red Wax [DESS 2008]/08 Sgt. Pepper's Lonely Hearts Club Band (Japanese Mono LP) Red Wax [DESS 2008]/12 Sgt. Pepper's Lonely Hearts Club Band (Reprise).flac

CRC32 hash (test run) : 126EF82C
CRC32 hash : 126EF82C
CRC32 hash (skip zero) : 0E326783
AccurateRip signature : 0DF70585
->Track not present in AccurateRip database.
Statistics
Read error : 0
Skipped (treated as error) : 0
Edge jitter error (maybe fixed) : 0
Atom jitter error (maybe fixed) : 0
Drift error (maybe fixed) : 0
Dropped bytes error (maybe fixed) : 0
Duplicated bytes error (maybe fixed) : 0
Inconsistency in error sectors : 0

Track 13
Filename : /Users/Macintel/Desktop/MUSIC TO BURN/The Beatles/DESS/Japanese Mono LP - Red Wax [DESS 2008]/08 Sgt. Pepper's Lonely Hearts Club Band (Japanese Mono LP) Red Wax [DESS 2008]/13 A Day In The Life.flac

CRC32 hash (test run) : E9BB0EB2
CRC32 hash : E9BB0EB2
CRC32 hash (skip zero) : 19E45D63
AccurateRip signature : 50418290
->Track not present in AccurateRip database.
Statistics
Read error : 0
Skipped (treated as error) : 0
Edge jitter error (maybe fixed) : 0
Atom jitter error (maybe fixed) : 0
Drift error (maybe fixed) : 0
Dropped bytes error (maybe fixed) : 0
Duplicated bytes error (maybe fixed) : 0
Inconsistency in error sectors : 0

No errors occurred

End of status report


[CUETools log; Date: 17.01.2020 20:25:21; Version: 2.1.6]
[CTDB TOCID: FavV9tG1X0Z1g3xDxrN16uoFyiE-] found.
Track | CTDB Status
1 | (1/1) Accurately ripped
2 | (1/1) Accurately ripped
3 | (1/1) Accurately ripped
4 | (1/1) Accurately ripped
5 | (1/1) Accurately ripped
6 | (1/1) Accurately ripped
7 | (1/1) Accurately ripped
8 | (1/1) Accurately ripped
9 | (1/1) Accurately ripped
10 | (1/1) Accurately ripped
11 | (1/1) Accurately ripped
12 | (1/1) Accurately ripped
13 | (1/1) Accurately ripped
[AccurateRip ID: 0012386e-00b855fe-a109380d] found.
Track [ CRC | V2 ] Status
01 [edef118b|bb332e00] (2+0/4) Accurately ripped
02 [edfed018|b4be5c2a] (0+0/2) No match
03 [78e36193|0675268a] (0+0/2) No match
04 [dcbc9870|41a4c97e] (0+0/2) No match
05 [476bb0d6|319032f6] (0+0/2) No match
06 [73df0ecc|806fc9e8] (0+0/2) No match
07 [d314a498|9ab8b9b0] (0+0/2) No match
08 [4f26dc78|f0d7bb53] (0+0/2) No match
09 [226a9e0f|2995c939] (0+0/2) No match
10 [edd63538|4a2fdc92] (0+0/2) No match
11 [c06ca91a|7e8072a1] (0+0/2) No match
12 [0df70585|124b1905] (0+0/2) No match
13 [50418290|b402bb3f] (1+0/3) Accurately ripped
Offsetted by 6:
01 [eef5b499] (2/4) Accurately ripped
02 [1cea0662] (2/2) Accurately ripped
03 [3f689877] (2/2) Accurately ripped
04 [5912b3ec] (2/2) Accurately ripped
05 [998b340d] (2/2) Accurately ripped
06 [5ea15fc1] (2/2) Accurately ripped
07 [df0d9b9a] (2/2) Accurately ripped
08 [4106e532] (2/2) Accurately ripped
09 [6d6a0a18] (2/2) Accurately ripped
10 [a9dad708] (2/2) Accurately ripped
11 [889e10a6] (2/2) Accurately ripped
12 [d26b1536] (2/2) Accurately ripped
13 [7d0bfc16] (1/3) Accurately ripped

Track Peak [ CRC32 ] [W/O NULL]
– 100,0 [A02FC690] [5BECC0AC]
01 99,9 [2CBDE275] [C760E3D4]
02 100,0 [0E4D73FB] [65868458]
03 99,7 [BF8B0DF2] [43C7474C]
04 98,4 [86F1A7BD] [4354FB32]
05 94,5 [5762D523] [7DE56E41]
06 77,7 [2783262D] [C0A79051]
07 100,0 [7F4F350B] [C4442753]
08 99,9 [3EB71D71] [8CE0C674]
09 99,9 [30387F59] [297E9B58]
10 94,5 [7971D3E8] [9565D762]
11 100,0 [19BB3FDD] [29470955]
12 100,0 [126EF82C] [0E326783]
13 99,9 [E9BB0EB2] [19E45D63]


The Beatles - Dr. Ebbetts Japanese Mono LP Red Wax Series (1963-1969) [2007-2008, 11CD]

Tracklist CD09. 1968 - The Beatles (The White Album) (Disc 1) (2007 DESS Japan Mono LP Red Wax EAS 67157):

01. Back In The U.S.S.R. (2:44)
02. Dear Prudence (3:53)
03. Glass Onion (2:17)
04. Ob-La-Di, Ob-La-Da (3:08)
05. Wild Honey Pie (0:54)
06. The Continuing Story Of Bungalow Bill (3:14)
07. While My Guitar Gently Weeps (4:47)
08. Happiness Is A Warm Gun (2:44)
09. Martha My Dear (2:28)
10. I'm So Tired (2:03)
11. Blackbird (2:19)
12. Piggies (2:03)
13. Rocky Raccoon (3:32)
14. Don't Pass Me By (3:45)
15. Why Don't We Do It In The Road? (1:41)
16. I Will (1:45)
17. Julia (2:55)

Exact Audio Copy V0.99 prebeta 3 from 28. July 2007

EAC extraction logfile from 28. January 2008, 20:54

The Beatles / The Beatles Disc 1 [DESS Japan]

Used drive : MATSHITADVD-R UJ-846 Adapter: 0 ID: 0

Read mode : Secure
Utilize accurate stream : Yes
Defeat audio cache : Yes
Make use of C2 pointers : No

Read offset correction : 102
Overread into Lead-In and Lead-Out : No
Fill up missing offset samples with silence : Yes
Delete leading and trailing silent blocks : No
Null samples used in CRC calculations : Yes
Used interface : Native Win32 interface for Win NT & 2000
Gap handling : Appended to previous track

Used output format : User Defined Encoder
Selected bitrate : 192 kBit/s
Quality : High
Add ID3 tag : No
Command line compressor : C:\Program Files\Exact Audio Copy\FLAC\FLAC.EXE
Additional command line options : -8 -V -T "ARTIST=%a" -T "TITLE=%t" -T "ALBUM=%g" -T "DATE=%y" -T "TRACKNUMBER=%n" -T "GENRE=%m" -T "COMMENT=EAC FLAC -8" %s


TOC of the extracted CD

Track | Start | Length | Start sector | End sector
––––––––––––––––––––––––––––-
1 | 0:00.00 | 2:44.21 | 0 | 12320
2 | 2:44.21 | 3:52.41 | 12321 | 29761
3 | 6:36.62 | 2:17.05 | 29762 | 40041
4 | 8:53.67 | 3:08.13 | 40042 | 54154
5 | 12:02.05 | 0:53.61 | 54155 | 58190
6 | 12:55.66 | 3:13.48 | 58191 | 72713
7 | 16:09.39 | 4:47.00 | 72714 | 94238
8 | 20:56.39 | 2:43.59 | 94239 | 106522
9 | 23:40.23 | 2:28.02 | 106523 | 117624
10 | 26:08.25 | 2:02.57 | 117625 | 126831
11 | 28:11.07 | 2:18.44 | 126832 | 137225
12 | 30:29.51 | 2:02.60 | 137226 | 146435
13 | 32:32.36 | 3:32.07 | 146436 | 162342
14 | 36:04.43 | 3:44.67 | 162343 | 179209
15 | 39:49.35 | 1:41.26 | 179210 | 186810
16 | 41:30.61 | 1:44.66 | 186811 | 194676
17 | 43:15.52 | 2:54.38 | 194677 | 207764


Track 1

Filename C:\Documents and Settings\Macintel\Desktop\The Beatles Disc 1 [DESS Japan]\01 - Back In The U.S.S.R..wav

Pre-gap length 0:00:02.00

Peak level 100.0 %
Track quality 100.0 %
Copy CRC 20A229A5
Track not present in AccurateRip database
Copy OK

Track 2

Filename C:\Documents and Settings\Macintel\Desktop\The Beatles Disc 1 [DESS Japan]\02 - Dear Prudence.wav

Peak level 98.7 %
Track quality 100.0 %
Copy CRC 02322339
Track not present in AccurateRip database
Copy OK

Track 3

Filename C:\Documents and Settings\Macintel\Desktop\The Beatles Disc 1 [DESS Japan]\03 - Glass Onion.wav

Peak level 98.1 %
Track quality 100.0 %
Copy CRC 76ADE1FA
Track not present in AccurateRip database
Copy OK

Track 4

Filename C:\Documents and Settings\Macintel\Desktop\The Beatles Disc 1 [DESS Japan]\04 - Ob-La-Di, Ob-La-Da.wav

Peak level 91.8 %
Track quality 100.0 %
Copy CRC 939972F1
Track not present in AccurateRip database
Copy OK

Track 5

Filename C:\Documents and Settings\Macintel\Desktop\The Beatles Disc 1 [DESS Japan]\05 - Wild Honey Pie.wav

Peak level 98.1 %
Track quality 99.8 %
Copy CRC 9F80FEE7
Track not present in AccurateRip database
Copy OK

Track 6

Filename C:\Documents and Settings\Macintel\Desktop\The Beatles Disc 1 [DESS Japan]\06 - The Continuing Story Of Bungalow Bill.wav

Peak level 99.6 %
Track quality 100.0 %
Copy CRC 0D3583B3
Track not present in AccurateRip database
Copy OK

Track 7

Filename C:\Documents and Settings\Macintel\Desktop\The Beatles Disc 1 [DESS Japan]\07 - While My Guitar Gently Weeps.wav

Peak level 98.1 %
Track quality 100.0 %
Copy CRC 50618491
Track not present in AccurateRip database
Copy OK

Track 8

Filename C:\Documents and Settings\Macintel\Desktop\The Beatles Disc 1 [DESS Japan]\08 - Happiness Is A Warm Gun.wav

Peak level 90.3 %
Track quality 100.0 %
Copy CRC 9958B7C7
Track not present in AccurateRip database
Copy OK

Track 9

Filename C:\Documents and Settings\Macintel\Desktop\The Beatles Disc 1 [DESS Japan]\09 - Martha My Dear.wav

Peak level 97.8 %
Track quality 100.0 %
Copy CRC 70393670
Track not present in AccurateRip database
Copy OK

Track 10

Filename C:\Documents and Settings\Macintel\Desktop\The Beatles Disc 1 [DESS Japan]\10 - I'm So Tired.wav

Peak level 99.1 %
Track quality 100.0 %
Copy CRC 68A4895C
Track not present in AccurateRip database
Copy OK

Track 11

Filename C:\Documents and Settings\Macintel\Desktop\The Beatles Disc 1 [DESS Japan]\11 - Blackbird.wav

Peak level 99.2 %
Track quality 100.0 %
Copy CRC E2AF8F1D
Track not present in AccurateRip database
Copy OK

Track 12

Filename C:\Documents and Settings\Macintel\Desktop\The Beatles Disc 1 [DESS Japan]\12 - Piggies.wav

Peak level 100.0 %
Track quality 100.0 %
Copy CRC D4D76EBD
Track not present in AccurateRip database
Copy OK

Track 13

Filename C:\Documents and Settings\Macintel\Desktop\The Beatles Disc 1 [DESS Japan]\13 - Rocky Raccoon.wav

Peak level 98.1 %
Track quality 100.0 %
Copy CRC DA88EA05
Track not present in AccurateRip database
Copy OK

Track 14

Filename C:\Documents and Settings\Macintel\Desktop\The Beatles Disc 1 [DESS Japan]\14 - Don't Pass Me By.wav

Peak level 90.8 %
Track quality 100.0 %
Copy CRC BBA621A7
Track not present in AccurateRip database
Copy OK

Track 15

Filename C:\Documents and Settings\Macintel\Desktop\The Beatles Disc 1 [DESS Japan]\15 - Why Don't We Do It In The Road .wav

Peak level 98.1 %
Track quality 100.0 %
Copy CRC C0267547
Track not present in AccurateRip database
Copy OK

Track 16

Filename C:\Documents and Settings\Macintel\Desktop\The Beatles Disc 1 [DESS Japan]\16 - I Will.wav

Peak level 72.1 %
Track quality 100.0 %
Copy CRC 825EA265
Track not present in AccurateRip database
Copy OK

Track 17

Filename C:\Documents and Settings\Macintel\Desktop\The Beatles Disc 1 [DESS Japan]\17 - Julia.wav

Peak level 64.9 %
Track quality 100.0 %
Copy CRC 65ABAE5A
Track not present in AccurateRip database
Copy OK


None of the tracks are present in the AccurateRip database

No errors occurred

End of status report


[CUETools log; Date: 17.01.2020 20:27:59; Version: 2.1.6]
[CTDB TOCID: RtcKWh2YAgp3MjXgILtC4lfrBro-] found.
Track | CTDB Status
1 | (2/2) Accurately ripped
2 | (2/2) Accurately ripped
3 | (2/2) Accurately ripped
4 | (2/2) Accurately ripped
5 | (2/2) Accurately ripped
6 | (2/2) Accurately ripped
7 | (2/2) Accurately ripped
8 | (2/2) Accurately ripped
9 | (2/2) Accurately ripped
10 | (2/2) Accurately ripped
11 | (2/2) Accurately ripped
12 | (2/2) Accurately ripped
13 | (2/2) Accurately ripped
14 | (2/2) Accurately ripped
15 | (2/2) Accurately ripped
16 | (2/2) Accurately ripped
17 | (2/2) Accurately ripped
[AccurateRip ID: 001d66d8-0171d250-030ad211] found.
Track [ CRC | V2 ] Status
01 [4c2ff2b4|7446d5fb] (5+0/5) Accurately ripped
02 [de99237e|f7e059be] (5+0/5) Accurately ripped
03 [a4ffe186|37a6d278] (5+0/5) Accurately ripped
04 [479fae9e|93661071] (5+0/5) Accurately ripped
05 [53f10061|3ce25ca1] (5+0/5) Accurately ripped
06 [32e0ba00|c16887a1] (5+0/5) Accurately ripped
07 [adc2801f|33e2d60d] (5+0/5) Accurately ripped
08 [f55f231c|17b9141f] (4+0/4) Accurately ripped
09 [c4c5b618|2f70f2a2] (5+0/5) Accurately ripped
10 [039b1c86|e9164867] (5+0/5) Accurately ripped
11 [ad629189|918ed2ee] (5+0/5) Accurately ripped
12 [6a9ece4c|e0bb781a] (4+0/4) Accurately ripped
13 [a9b8e365|f17f2c6f] (5+0/5) Accurately ripped
14 [0132d11a|4233e65d] (5+0/5) Accurately ripped
15 [bca3b297|9c7998d6] (5+0/5) Accurately ripped
16 [88aef08e|0442b4e3] (5+0/5) Accurately ripped
17 [643e043d|b75962f3] (5+0/5) Accurately ripped

Track Peak [ CRC32 ] [W/O NULL] [ LOG ]
– 100,0 [D1FEF63F] [A3294D56]
01 100,0 [20A229A5] [828D701D] CRC32
02 98,7 [02322339] [69F97EC0] CRC32
03 98,1 [76ADE1FA] [04987DD1] CRC32
04 91,8 [939972F1] [0CA5EEF5] CRC32
05 98,1 [9F80FEE7] [3519EFEE] CRC32
06 99,6 [0D3583B3] [9B83D8BF] CRC32
07 98,1 [50618491] [CF8D4DA3] CRC32
08 90,3 [9958B7C7] [40EC8422] CRC32
09 97,8 [70393670] [2F6C6EF0] CRC32
10 99,1 [68A4895C] [2ECFBDF4] CRC32
11 99,2 [E2AF8F1D] [54926AC3] CRC32
12 99,9 [D4D76EBD] [2B0D1485] CRC32
13 98,1 [DA88EA05] [C6A4CCF3] CRC32
14 90,8 [BBA621A7] [33792492] CRC32
15 98,1 [C0267547] [D9987D05] CRC32
16 72,1 [825EA265] [1F35EA64] CRC32
17 64,9 [65ABAE5A] [CB3C0B6A] CRC32


Tracklist CD10. 1968 - The Beatles (The White Album) (Disc 2) (2007 DESS Japan Mono LP Red Wax EAS 67158):

01. Birthday (2:42)
02. Yer Blues (4:13)
03. Mother Nature's Son (2:46)
04. Everybody's Got Something To Hide Except Me And My Monkey (2:25)
05. Sexy Sadie (3:14)
06. Helter Skelter (3:39)
07. Long, Long, Long (3:04)
08. Revolution 1 (4:15)
09. Honey Pie (2:40)
10. Savoy Truffle (2:54)
11. Cry Baby Cry (3:01)
12. Revolution 9 (8:22)
13. Good Night (3:13)

Exact Audio Copy V0.99 prebeta 3 from 28. July 2007

EAC extraction logfile from 28. January 2008, 21:30

The Beatles / The Beatles Disc 2 [DESS Japan]

Used drive : MATSHITADVD-R UJ-846 Adapter: 0 ID: 0

Read mode : Secure
Utilize accurate stream : Yes
Defeat audio cache : Yes
Make use of C2 pointers : No

Read offset correction : 102
Overread into Lead-In and Lead-Out : No
Fill up missing offset samples with silence : Yes
Delete leading and trailing silent blocks : No
Null samples used in CRC calculations : Yes
Used interface : Native Win32 interface for Win NT & 2000
Gap handling : Appended to previous track

Used output format : User Defined Encoder
Selected bitrate : 192 kBit/s
Quality : High
Add ID3 tag : No
Command line compressor : C:\Program Files\Exact Audio Copy\FLAC\FLAC.EXE
Additional command line options : -8 -V -T "ARTIST=%a" -T "TITLE=%t" -T "ALBUM=%g" -T "DATE=%y" -T "TRACKNUMBER=%n" -T "GENRE=%m" -T "COMMENT=EAC FLAC -8" %s


TOC of the extracted CD

Track | Start | Length | Start sector | End sector
––––––––––––––––––––––––––––-
1 | 0:00.00 | 2:42.10 | 0 | 12159
2 | 2:42.10 | 4:12.71 | 12160 | 31130
3 | 6:55.06 | 2:45.63 | 31131 | 43568
4 | 9:40.69 | 2:24.60 | 43569 | 54428
5 | 12:05.54 | 3:14.36 | 54429 | 69014
6 | 15:20.15 | 3:38.40 | 69015 | 85404
7 | 18:58.55 | 3:04.28 | 85405 | 99232
8 | 22:03.08 | 4:14.62 | 99233 | 118344
9 | 26:17.70 | 2:40.05 | 118345 | 130349
10 | 28:58.00 | 2:53.47 | 130350 | 143371
11 | 31:51.47 | 3:01.17 | 143372 | 156963
12 | 34:52.64 | 8:21.73 | 156964 | 194611
13 | 43:14.62 | 3:13.02 | 194612 | 209088


Track 1

Filename C:\Documents and Settings\Macintel\Desktop\The Beatles Disc 2 [DESS Japan]\01 - Birthday.wav

Pre-gap length 0:00:02.00

Peak level 99.3 %
Track quality 100.0 %
Copy CRC 0EC6C46D
Track not present in AccurateRip database
Copy OK

Track 2

Filename C:\Documents and Settings\Macintel\Desktop\The Beatles Disc 2 [DESS Japan]\02 - Yer Blues.wav

Peak level 99.3 %
Track quality 100.0 %
Copy CRC BB3F30A0
Track not present in AccurateRip database
Copy OK

Track 3

Filename C:\Documents and Settings\Macintel\Desktop\The Beatles Disc 2 [DESS Japan]\03 - Mother Nature's Son.wav

Peak level 80.2 %
Track quality 100.0 %
Copy CRC A38F64C7
Track not present in AccurateRip database
Copy OK

Track 4

Filename C:\Documents and Settings\Macintel\Desktop\The Beatles Disc 2 [DESS Japan]\04 - Everybody's Got Something To Hide Except Me And My Monkey.wav

Peak level 100.0 %
Track quality 99.9 %
Copy CRC 31C41A88
Track not present in AccurateRip database
Copy OK

Track 5

Filename C:\Documents and Settings\Macintel\Desktop\The Beatles Disc 2 [DESS Japan]\05 - Sexy Sadie.wav

Peak level 89.2 %
Track quality 100.0 %
Copy CRC 4518A457
Track not present in AccurateRip database
Copy OK

Track 6

Filename C:\Documents and Settings\Macintel\Desktop\The Beatles Disc 2 [DESS Japan]\06 - Helter Skelter.wav

Peak level 88.2 %
Track quality 100.0 %
Copy CRC BEBB1D83
Track not present in AccurateRip database
Copy OK

Track 7

Filename C:\Documents and Settings\Macintel\Desktop\The Beatles Disc 2 [DESS Japan]\07 - Long, Long, Long.wav

Peak level 87.4 %
Track quality 100.0 %
Copy CRC F6098599
Track not present in AccurateRip database
Copy OK

Track 8

Filename C:\Documents and Settings\Macintel\Desktop\The Beatles Disc 2 [DESS Japan]\08 - Revolution 1.wav

Peak level 99.3 %
Track quality 100.0 %
Copy CRC D982EBC2
Track not present in AccurateRip database
Copy OK

Track 9

Filename C:\Documents and Settings\Macintel\Desktop\The Beatles Disc 2 [DESS Japan]\09 - Honey Pie.wav

Peak level 91.1 %
Track quality 99.9 %
Copy CRC 2AA0796B
Track not present in AccurateRip database
Copy OK

Track 10

Filename C:\Documents and Settings\Macintel\Desktop\The Beatles Disc 2 [DESS Japan]\10 - Savoy Truffle.wav

Pre-gap length 0:00:00.01

Peak level 99.3 %
Track quality 100.0 %
Copy CRC 9EC9B2F9
Track not present in AccurateRip database
Copy OK

Track 11

Filename C:\Documents and Settings\Macintel\Desktop\The Beatles Disc 2 [DESS Japan]\11 - Cry Baby Cry.wav

Peak level 99.3 %
Track quality 100.0 %
Copy CRC 7D9D2531
Track not present in AccurateRip database
Copy OK

Track 12

Filename C:\Documents and Settings\Macintel\Desktop\The Beatles Disc 2 [DESS Japan]\12 - Revolution 9.wav

Peak level 94.8 %
Track quality 100.0 %
Copy CRC AA56694E
Track not present in AccurateRip database
Copy OK

Track 13

Filename C:\Documents and Settings\Macintel\Desktop\The Beatles Disc 2 [DESS Japan]\13 - Good Night.wav

Peak level 80.0 %
Track quality 100.0 %
Copy CRC 0DAD73E9
Track not present in AccurateRip database
Copy OK


None of the tracks are present in the AccurateRip database

No errors occurred

End of status report


[CUETools log; Date: 17.01.2020 20:30:08; Version: 2.1.6]
[CTDB TOCID: 6te.khFeu220vBs8IX0IHKQFfl0-] found.
Track | CTDB Status
1 | (2/2) Accurately ripped
2 | (2/2) Accurately ripped
3 | (2/2) Accurately ripped
4 | (2/2) Accurately ripped
5 | (2/2) Accurately ripped
6 | (2/2) Accurately ripped
7 | (2/2) Accurately ripped
8 | (2/2) Accurately ripped
9 | (2/2) Accurately ripped
10 | (2/2) Accurately ripped
11 | (2/2) Accurately ripped
12 | (2/2) Accurately ripped
13 | (2/2) Accurately ripped
[AccurateRip ID: 0014905a-00d06147-ab0ae30d] found.
Track [ CRC | V2 ] Status
01 [6764ff2c|1852abb0] (3+0/3) Accurately ripped
02 [bb9aef0f|1af2df04] (4+0/4) Accurately ripped
03 [de05e2f5|c3397763] (3+0/3) Accurately ripped
04 [ce91ad7c|6a0daee5] (4+0/4) Accurately ripped
05 [079838c1|040544c5] (4+0/4) Accurately ripped
06 [a78032b7|97dcb6f4] (3+0/3) Accurately ripped
07 [c4038533|03249816] (4+0/4) Accurately ripped
08 [33590a12|66b372af] (4+0/4) Accurately ripped
09 [4ac8a73c|b5405b57] (4+0/4) Accurately ripped
10 [e8a3657a|2585d5c2] (4+0/4) Accurately ripped
11 [d47c817d|dead13e1] (4+0/4) Accurately ripped
12 [a44e1a31|22440799] (4+0/4) Accurately ripped
13 [eb60f953|20ed935c] (4+0/4) Accurately ripped

Track Peak [ CRC32 ] [W/O NULL] [ LOG ]
– 100,0 [1BA7AF84] [C9B0351C]
01 99,3 [0EC6C46D] [18C3C235] CRC32
02 99,3 [BB3F30A0] [1DADF1B6] CRC32
03 80,2 [A38F64C7] [61F87862] CRC32
04 100,0 [31C41A88] [13E6794D] CRC32
05 89,2 [4518A457] [6815CBAD] CRC32
06 88,2 [BEBB1D83] [69513D43] CRC32
07 87,4 [F6098599] [A7F2B6B9] CRC32
08 99,3 [D982EBC2] [E7AAF32F] CRC32
09 91,1 [2AA0796B] [FD9E8889] CRC32
10 99,3 [9EC9B2F9] [304C0685] CRC32
11 99,3 [7D9D2531] [7E214537] CRC32
12 94,8 [AA56694E] [227F0BF0] CRC32
13 80,0 [0DAD73E9] [557389E0] CRC32


The Beatles - Dr. Ebbetts Japanese Mono LP Red Wax Series (1963-1969) [2007-2008, 11CD]

Tracklist CD11. 1969 - Yellow Submarine (2007 DESS Japan Mono LP Red Wax EAS 70138):

01. Yellow Submarine (2:42)
02. Only A Northern Song (3:27)
03. All Together Now (2:13)
04. Hey Bulldog (3:13)
05. It's All Too Much (6:27)
06. All You Need Is Love (3:51)
07. Pepperland (2:22)
08. Sea Of Time (3:01)
09. Sea Of Holes (2:19)
10. Sea Of Monsters (3:41)
11. March Of The Meanies (2:22)
12. Pepperland Laid Waste (2:16)
13. Yellow Submarine In Pepperland (2:12)

Exact Audio Copy V0.99 prebeta 3 from 28. July 2007

EAC extraction logfile from 28. January 2008, 22:00

The Beatles / Yellow Submarine [DESS Japan]

Used drive : MATSHITADVD-R UJ-846 Adapter: 0 ID: 0

Read mode : Secure
Utilize accurate stream : Yes
Defeat audio cache : Yes
Make use of C2 pointers : No

Read offset correction : 102
Overread into Lead-In and Lead-Out : No
Fill up missing offset samples with silence : Yes
Delete leading and trailing silent blocks : No
Null samples used in CRC calculations : Yes
Used interface : Native Win32 interface for Win NT & 2000
Gap handling : Appended to previous track

Used output format : User Defined Encoder
Selected bitrate : 192 kBit/s
Quality : High
Add ID3 tag : No
Command line compressor : C:\Program Files\Exact Audio Copy\FLAC\FLAC.EXE
Additional command line options : -8 -V -T "ARTIST=%a" -T "TITLE=%t" -T "ALBUM=%g" -T "DATE=%y" -T "TRACKNUMBER=%n" -T "GENRE=%m" -T "COMMENT=EAC FLAC -8" %s


TOC of the extracted CD

Track | Start | Length | Start sector | End sector
––––––––––––––––––––––––––––-
1 | 0:00.00 | 2:42.26 | 0 | 12175
2 | 2:42.26 | 3:27.07 | 12176 | 27707
3 | 6:09.33 | 2:13.06 | 27708 | 37688
4 | 8:22.39 | 3:13.01 | 37689 | 52164
5 | 11:35.40 | 6:26.67 | 52165 | 81181
6 | 18:02.32 | 3:50.61 | 81182 | 98492
7 | 21:53.18 | 2:21.73 | 98493 | 109140
8 | 24:15.16 | 3:01.14 | 109141 | 122729
9 | 27:16.30 | 2:19.05 | 122730 | 133159
10 | 29:35.35 | 3:40.70 | 133160 | 149729
11 | 33:16.30 | 2:21.68 | 149730 | 160372
12 | 35:38.23 | 2:16.21 | 160373 | 170593
13 | 37:54.44 | 2:12.17 | 170594 | 180510


Track 1

Filename C:\Documents and Settings\Macintel\Desktop\Yellow Submarine [DESS Japan]\01 - Yellow Submarine.wav

Pre-gap length 0:00:02.00

Peak level 100.0 %
Track quality 99.9 %
Copy CRC 32E9569A
Track not present in AccurateRip database
Copy OK

Track 2

Filename C:\Documents and Settings\Macintel\Desktop\Yellow Submarine [DESS Japan]\02 - Only A Northern Song.wav

Peak level 99.4 %
Track quality 100.0 %
Copy CRC EC3F5476
Track not present in AccurateRip database
Copy OK

Track 3

Filename C:\Documents and Settings\Macintel\Desktop\Yellow Submarine [DESS Japan]\03 - All Together Now.wav

Peak level 99.4 %
Track quality 100.0 %
Copy CRC A9E850E3
Track not present in AccurateRip database
Copy OK

Track 4

Filename C:\Documents and Settings\Macintel\Desktop\Yellow Submarine [DESS Japan]\04 - Hey Bulldog.wav

Peak level 97.2 %
Track quality 100.0 %
Copy CRC EB308DD8
Track not present in AccurateRip database
Copy OK

Track 5

Filename C:\Documents and Settings\Macintel\Desktop\Yellow Submarine [DESS Japan]\05 - It's All Too Much.wav

Peak level 96.7 %
Track quality 100.0 %
Copy CRC EFF21FE4
Track not present in AccurateRip database
Copy OK

Track 6

Filename C:\Documents and Settings\Macintel\Desktop\Yellow Submarine [DESS Japan]\06 - All You Need Is Love.wav

Peak level 100.0 %
Track quality 100.0 %
Copy CRC DCCF8859
Track not present in AccurateRip database
Copy OK

Track 7

Filename C:\Documents and Settings\Macintel\Desktop\Yellow Submarine [DESS Japan]\07 - Pepperland.wav

Peak level 99.5 %
Track quality 100.0 %
Copy CRC 4DDF74DE
Track not present in AccurateRip database
Copy OK

Track 8

Filename C:\Documents and Settings\Macintel\Desktop\Yellow Submarine [DESS Japan]\08 - Sea Of Time.wav

Peak level 95.2 %
Track quality 100.0 %
Copy CRC 67747CEF
Track not present in AccurateRip database
Copy OK

Track 9

Filename C:\Documents and Settings\Macintel\Desktop\Yellow Submarine [DESS Japan]\09 - Sea Of Holes.wav

Peak level 100.0 %
Track quality 100.0 %
Copy CRC C706D452
Track not present in AccurateRip database
Copy OK

Track 10

Filename C:\Documents and Settings\Macintel\Desktop\Yellow Submarine [DESS Japan]\10 - Sea Of Monsters.wav

Peak level 99.9 %
Track quality 100.0 %
Copy CRC 111C44FA
Track not present in AccurateRip database
Copy OK

Track 11

Filename C:\Documents and Settings\Macintel\Desktop\Yellow Submarine [DESS Japan]\11 - March Of The Meanies.wav

Peak level 99.9 %
Track quality 100.0 %
Copy CRC E5681A9F
Track not present in AccurateRip database
Copy OK

Track 12

Filename C:\Documents and Settings\Macintel\Desktop\Yellow Submarine [DESS Japan]\12 - Pepperland Laid Waste.wav

Peak level 95.2 %
Track quality 100.0 %
Copy CRC 763670C6
Track not present in AccurateRip database
Copy OK

Track 13

Filename C:\Documents and Settings\Macintel\Desktop\Yellow Submarine [DESS Japan]\13 - Yellow Submarine In Pepperland.wav

Peak level 99.4 %
Track quality 100.0 %
Copy CRC 20D7FFD0
Track not present in AccurateRip database
Copy OK


None of the tracks are present in the AccurateRip database

No errors occurred

End of status report


[CUETools log; Date: 17.01.2020 20:32:23; Version: 2.1.6]
[CTDB TOCID: QtWDTeGZRj7hn2hZ9ElhHvx7Zd8-] found.
Track | CTDB Status
1 | (1/1) Accurately ripped
2 | (1/1) Accurately ripped
3 | (1/1) Accurately ripped
4 | (1/1) Accurately ripped
5 | (1/1) Accurately ripped
6 | (1/1) Accurately ripped
7 | (1/1) Accurately ripped
8 | (1/1) Accurately ripped
9 | (1/1) Accurately ripped
10 | (1/1) Accurately ripped
11 | (1/1) Accurately ripped
12 | (1/1) Accurately ripped
13 | (1/1) Accurately ripped
[AccurateRip ID: 00146164-00cb4441-ba09660d] found.
Track [ CRC | V2 ] Status
01 [ab939986|eaaef044] (4+0/4) Accurately ripped
02 [b1ee9a05|e2ea9276] (4+0/4) Accurately ripped
03 [100861a8|76fde8c4] (4+0/4) Accurately ripped
04 [5b44ed2e|c9dea4f4] (4+0/4) Accurately ripped
05 [6bde4dbd|1244bc48] (4+0/4) Accurately ripped
06 [89ecf96a|c0d1969a] (4+0/4) Accurately ripped
07 [344ad5e0|c6db5e72] (4+0/4) Accurately ripped
08 [839c5800|f4a1740c] (4+0/4) Accurately ripped
09 [0a3942c5|ee661b6f] (4+0/4) Accurately ripped
10 [6ce8038a|5c617262] (4+0/4) Accurately ripped
11 [4293a4ac|e203678c] (4+0/4) Accurately ripped
12 [b4dda9ca|d0a4e12d] (4+0/4) Accurately ripped
13 [ffc9623c|4097d95f] (4+0/4) Accurately ripped

Track Peak [ CRC32 ] [W/O NULL] [ LOG ]
– 100,0 [CBDF507C] [A49E3DDC]
01 100,0 [32E9569A] [460D789A] CRC32
02 99,4 [EC3F5476] [0BCF7C68] CRC32
03 99,4 [A9E850E3] [81A0E2CD] CRC32
04 97,2 [EB308DD8] [A8ECE12E] CRC32
05 96,7 [EFF21FE4] [F8BBECC2] CRC32
06 100,0 [DCCF8859] [B30292D0] CRC32
07 99,5 [4DDF74DE] [593B5B05] CRC32
08 95,2 [67747CEF] [6E95395F] CRC32
09 100,0 [C706D452] [9967964B] CRC32
10 99,9 [111C44FA] [2BFEE1C4] CRC32
11 99,9 [E5681A9F] [74F439C3] CRC32
12 95,2 [763670C6] [EE5EA13A] CRC32
13 99,4 [20D7FFD0] [24B18760] CRC32


All thanks go to the original releaser

Beatles in my Blog

Download The Beatles - Dr. Ebbetts Japanese Mono LP Red Wax Series (1963-1969):