Subcategories
Tags
Language
Tags

The Beatles: Dr. Ebbett's MFSL Half-Speed Series (1963-1970) [2008, 14CD]

Posted By: v3122
The Beatles: Dr. Ebbett's MFSL Half-Speed Series (1963-1970) [2008, 14CD]

The Beatles: Dr. Ebbett's MFSL Half-Speed Series (1963-1970)
EAC | Flac(Image) + Cue + Log & MP3 CBR 320Kbps
14 CD | Dr. Ebbetts | ~ 3285 or 1428 Mb | Artwork(jpg) -> 55 Mb
Classic Rock

The Beatles were an English rock band formed in Liverpool in 1960. With a line-up comprising John Lennon, Paul McCartney, George Harrison and Ringo Starr, they are commonly regarded as the most influential band of all time. The group were integral to the development of 1960s counterculture and popular music's recognition as an art form. Rooted in skiffle, beat and 1950s rock and roll, their sound incorporated elements of classical music and traditional pop in innovative ways; the band later explored music styles ranging from ballads and Indian music to psychedelia and hard rock. As pioneers in recording, songwriting and artistic presentation, the group revolutionised many aspects of the music industry and were often publicised as leaders of the era's youth and sociocultural movements.

Led by the band's primary songwriters, Lennon and McCartney, the Beatles built their reputation playing clubs in Liverpool and Hamburg over a three-year period from 1960, initially with Stuart Sutcliffe playing bass. The core trio of Lennon, McCartney and Harrison, together since 1958, went through a succession of drummers, including Pete Best, before asking Starr to join them in 1962. Manager Brian Epstein moulded them into a professional act, and producer George Martin guided and developed their recordings, greatly expanding their domestic success after their first hit, "Love Me Do", in late 1962. As their popularity grew into the intense fan frenzy dubbed "Beatlemania", the band acquired the nickname "the Fab Four", with Epstein, Martin and other members of the band's entourage sometimes given the informal title of "fifth Beatle".

By early 1964, the Beatles were international stars, leading the "British Invasion" of the United States pop market and breaking numerous sales records. They soon made their film debut with A Hard Day's Night (1964). From 1965 onwards, they produced increasingly innovative recordings, including the albums Rubber Soul (1965), Revolver (1966) and Sgt. Pepper's Lonely Hearts Club Band (1967), and enjoyed further commercial success with The Beatles (also known as "the White Album", 1968) and Abbey Road (1969). In 1968, they founded Apple Corps, a multi-armed multimedia corporation that continues to oversee projects related to the band's legacy. After the group's break-up in 1970, all four members enjoyed success as solo artists. Lennon was shot and killed in December 1980, and Harrison died of lung cancer in November 2001. McCartney and Starr remain musically active.

The Beatles are the best-selling music act of all time, with certified sales of over 183 million units in the US and estimated sales of 600 million units worldwide.[4] They hold the record for most number-one albums on the UK Albums Chart, most number-one hits on the Billboard Hot 100 chart, and most singles sold in the UK. The group were inducted into the Rock and Roll Hall of Fame in 1988, and all four main members were inducted individually between 1994 and 2015. In 2008, the group topped Billboard's list of the all-time most successful artists on the Billboard Hot 100. The band have received seven Grammy Awards, four Brit Awards, an Academy Award (for Best Original Song Score for the 1970 film Let It Be) and fifteen Ivor Novello Awards. Time named them among the 20th century's 100 most important people…

~ wiki


Dr. Ebbets was a needledropper (a person who rips near mint/mint condition or unplayed vinyl records) who was famous in the bootleg/audiophile communities for his Beatles releases, which are regarded by some as being the best sounding versions of those albums.

He retired in 2009 due to the upcoming release of The Beatles, but returned in 2010 to release four new titles to his most dedicated customers.

~ discogs
The Beatles: Dr. Ebbett's MFSL Half-Speed Series (1963-1970):

The Beatles: Dr. Ebbett's MFSL Half-Speed Series (1963-1970) [2008, 14CD]

Tracklist CD01. 1963 - Please Please Me (2008 Dr. Ebbetts MFSL Japan MFSL-1-101):

1. I Saw Her Standing There (2:58)
2. Misery (1:52)
3. Anna (Go To Him) (2:59)
4. Chains (2:28)
5. Boys (2:29)
6. Ask Me Why (2:29)
7. Please Please Me (2:04)
8. Love Me Do (2:24)
9. P.S. I Love You (2:06)
10. Baby It's You (2:43)
11. Do You Want To Know A Secret (2:00)
12. A Taste Of Honey (2:06)
13. There's A Place (1:53)
14. Twist And Shout (2:35)

EAC extraction logfile from 16. October 2008, 20:07 for CD
The Beatles / Please Please Me (MFSL)

Used drive : HL-DT-STDVD-RW GSA-H11N Adapter: 1 ID: 0
Read mode : Secure with NO C2, accurate stream, disable cache
Read offset correction : 667
Overread into Lead-In and Lead-Out : No

Used output format : Internal WAV Routines
44.100 Hz; 16 Bit; Stereo

Other options :
Fill up missing offset samples with silence : Yes
Delete leading and trailing silent blocks : No
Installed external ASPI interface


Track 1
Filename C:\Documents and Settings\Eric\My Documents\Downloads\The Beatles - Please Please Me (1963) [FLAC] {DESS 2008}\01 - I Saw Her Standing There.wav

Pre-gap length 0:00:02.00

Peak level 98.4 %
Track quality 100.0 %
Test CRC 6F3D37B8
Copy CRC 6F3D37B8
Copy OK

Track 2
Filename C:\Documents and Settings\Eric\My Documents\Downloads\The Beatles - Please Please Me (1963) [FLAC] {DESS 2008}\02 - Misery.wav

Peak level 92.7 %
Track quality 99.9 %
Test CRC FAF64DF5
Copy CRC FAF64DF5
Copy OK

Track 3
Filename C:\Documents and Settings\Eric\My Documents\Downloads\The Beatles - Please Please Me (1963) [FLAC] {DESS 2008}\03 - Anna (Go To Him).wav

Peak level 96.5 %
Track quality 100.0 %
Test CRC FF7DFBE2
Copy CRC FF7DFBE2
Copy OK

Track 4
Filename C:\Documents and Settings\Eric\My Documents\Downloads\The Beatles - Please Please Me (1963) [FLAC] {DESS 2008}\04 - Chains.wav

Peak level 80.8 %
Track quality 100.0 %
Test CRC 1973077B
Copy CRC 1973077B
Copy OK

Track 5
Filename C:\Documents and Settings\Eric\My Documents\Downloads\The Beatles - Please Please Me (1963) [FLAC] {DESS 2008}\05 - Boys.wav

Peak level 79.8 %
Track quality 100.0 %
Test CRC C23062E3
Copy CRC C23062E3
Copy OK

Track 6
Filename C:\Documents and Settings\Eric\My Documents\Downloads\The Beatles - Please Please Me (1963) [FLAC] {DESS 2008}\06 - Ask Me Why.wav

Peak level 87.1 %
Track quality 99.9 %
Test CRC 25486883
Copy CRC 25486883
Copy OK

Track 7
Filename C:\Documents and Settings\Eric\My Documents\Downloads\The Beatles - Please Please Me (1963) [FLAC] {DESS 2008}\07 - Please Please Me.wav

Peak level 100.0 %
Track quality 100.0 %
Test CRC 783607E3
Copy CRC 783607E3
Copy OK

Track 8
Filename C:\Documents and Settings\Eric\My Documents\Downloads\The Beatles - Please Please Me (1963) [FLAC] {DESS 2008}\08 - Love Me Do.wav

Peak level 98.6 %
Track quality 100.0 %
Test CRC 1EBB8AA2
Copy CRC 1EBB8AA2
Copy OK

Track 9
Filename C:\Documents and Settings\Eric\My Documents\Downloads\The Beatles - Please Please Me (1963) [FLAC] {DESS 2008}\09 - P.S. I Love You.wav

Peak level 96.3 %
Track quality 100.0 %
Test CRC 95445D35
Copy CRC 95445D35
Copy OK

Track 10
Filename C:\Documents and Settings\Eric\My Documents\Downloads\The Beatles - Please Please Me (1963) [FLAC] {DESS 2008}\10 - Baby It's You.wav

Peak level 98.2 %
Track quality 100.0 %
Test CRC ADD0DE47
Copy CRC ADD0DE47
Copy OK

Track 11
Filename C:\Documents and Settings\Eric\My Documents\Downloads\The Beatles - Please Please Me (1963) [FLAC] {DESS 2008}\11 - Do You Want To Know A Secret.wav

Peak level 85.4 %
Track quality 100.0 %
Test CRC A8AE5FFB
Copy CRC A8AE5FFB
Copy OK

Track 12
Filename C:\Documents and Settings\Eric\My Documents\Downloads\The Beatles - Please Please Me (1963) [FLAC] {DESS 2008}\12 - A Taste Of Honey.wav

Peak level 90.7 %
Track quality 100.0 %
Test CRC 1FD7C3E5
Copy CRC 1FD7C3E5
Copy OK

Track 13
Filename C:\Documents and Settings\Eric\My Documents\Downloads\The Beatles - Please Please Me (1963) [FLAC] {DESS 2008}\13 - There's A Place.wav

Peak level 91.0 %
Track quality 100.0 %
Test CRC AF918A4A
Copy CRC AF918A4A
Copy OK

Track 14
Filename C:\Documents and Settings\Eric\My Documents\Downloads\The Beatles - Please Please Me (1963) [FLAC] {DESS 2008}\14 - Twist And Shout.wav

Peak level 98.2 %
Track quality 100.0 %
Test CRC 028096C1
Copy CRC 028096C1
Copy OK

No errors occured


End of status report


[CUETools log; Date: 12.01.2020 19:39:34; Version: 2.1.6]
[CTDB TOCID: PfxkZt9egYMYLpsUsCMP_su2OnA-] found.
Track | CTDB Status
1 | (4/4) Accurately ripped
2 | (4/4) Accurately ripped
3 | (4/4) Accurately ripped
4 | (4/4) Accurately ripped
5 | (4/4) Accurately ripped
6 | (4/4) Accurately ripped
7 | (4/4) Accurately ripped
8 | (4/4) Accurately ripped
9 | (4/4) Accurately ripped
10 | (4/4) Accurately ripped
11 | (4/4) Accurately ripped
12 | (4/4) Accurately ripped
13 | (4/4) Accurately ripped
14 | (4/4) Accurately ripped
[AccurateRip ID: 0011909a-00b98806-bf07c00e] found.
Track [ CRC | V2 ] Status
01 [063ce0da|294adcab] (3+3/6) Accurately ripped
02 [600c8a95|39d9bc31] (3+3/6) Accurately ripped
03 [a3f978a4|f878f88d] (3+3/6) Accurately ripped
04 [5bee9047|e41b4096] (2+3/5) Accurately ripped
05 [99ec4136|52f442d3] (2+3/5) Accurately ripped
06 [6a82967e|d3e7c1ef] (2+3/5) Accurately ripped
07 [6726b36f|0d2535ae] (2+3/5) Accurately ripped
08 [95405a71|d19e90ff] (3+3/6) Accurately ripped
09 [3da278e4|d0d3b46c] (2+3/5) Accurately ripped
10 [ef551e0c|5b42727f] (2+3/5) Accurately ripped
11 [77555893|bc4ad375] (2+3/5) Accurately ripped
12 [0aabf672|ff7a6cf2] (2+3/5) Accurately ripped
13 [d7e56b6d|8666c3d6] (2+3/5) Accurately ripped
14 [8d55a6c7|948b3e43] (2+3/5) Accurately ripped
Offsetted by 6:
01 [9c04e4d4] (0/6) No match (V2 was not tested)
02 [1961763f] (0/6) No match (V2 was not tested)
03 [19c34305] (0/6) No match (V2 was not tested)
04 [830be50a] (0/5) No match (V2 was not tested)
05 [8e462181] (0/5) No match (V2 was not tested)
06 [772574a6] (0/5) No match (V2 was not tested)
07 [8d8eb346] (0/5) No match (V2 was not tested)
08 [e162435d] (0/6) No match (V2 was not tested)
09 [0a133ac5] (0/5) No match (V2 was not tested)
10 [f0582b4b] (0/5) No match (V2 was not tested)
11 [f3b91cf3] (0/5) No match (V2 was not tested)
12 [cd277720] (0/5) No match (V2 was not tested)
13 [1bbdd0a3] (0/5) No match (V2 was not tested)
14 [db006c55] (0/5) No match (V2 was not tested)

Track Peak [ CRC32 ] [W/O NULL] [ LOG ]
– 100,0 [4600BF2E] [86AA3265]
01 98,4 [6F3D37B8] [D74FDCB0] CRC32
02 92,7 [FAF64DF5] [E7FF4CEA] CRC32
03 96,5 [FF7DFBE2] [287D63F8] CRC32
04 80,8 [1973077B] [8E0C1B7A] CRC32
05 79,8 [C23062E3] [55CEE68B] CRC32
06 87,1 [25486883] [7C76A5D5] CRC32
07 100,0 [783607E3] [A19E3370] CRC32
08 98,6 [1EBB8AA2] [4EDD84B3] CRC32
09 96,3 [95445D35] [E2665B43] CRC32
10 98,2 [ADD0DE47] [61EC3209] CRC32
11 85,4 [A8AE5FFB] [64BF7C21] CRC32
12 90,7 [1FD7C3E5] [5D54FB80] CRC32
13 91,0 [AF918A4A] [21E04DE5] CRC32
14 98,2 [028096C1] [023D9282] CRC32


The Beatles: Dr. Ebbett's MFSL Half-Speed Series (1963-1970) [2008, 14CD]

Tracklist CD02. 1963 - With The Beatles (2008 Dr. Ebbetts MFSL Japan MFSL-1-102):

1. It Won't Be Long (2:17)
2. All I've Got To Do (2:05)
3. All My Loving (2:10)
4. Don't Bother Me (2:31)
5. Little Child (1:49)
6. Till There Was You (2:16)
7. Please Mister Postman (2:38)
8. Roll Over Beethoven (2:47)
9. Hold Me Tight (2:34)
10. You Really Got A Hold On Me (3:04)
11. I Wanna Be Your Man (2:02)
12. Devil In Her Heart (2:28)
13. Not A Second Time (2:09)
14. Money (That's What I Want) (2:48)

EAC extraction logfile from 14. October 2008, 18:30 for CD
Beatles / With The Beatles (MFSL)

Used drive : HL-DT-STDVD-RW GSA-H11N Adapter: 1 ID: 0
Read mode : Secure with NO C2, accurate stream, disable cache
Read offset correction : 667
Overread into Lead-In and Lead-Out : No

Used output format : Internal WAV Routines
44.100 Hz; 16 Bit; Stereo

Other options :
Fill up missing offset samples with silence : Yes
Delete leading and trailing silent blocks : No
Installed external ASPI interface


Track 1
Filename C:\Documents and Settings\Eric\My Documents\Downloads\The Beatles - With The Beatles (1963) [FLAC] {DESS 2008}\01 - Beatles - It Won't Be Long.wav

Pre-gap length 0:00:02.00

Peak level 97.1 %
Track quality 100.0 %
Test CRC 5D1F3D05
Copy CRC 5D1F3D05
Copy OK

Track 2
Filename C:\Documents and Settings\Eric\My Documents\Downloads\The Beatles - With The Beatles (1963) [FLAC] {DESS 2008}\02 - Beatles - All I've Got To Do.wav

Peak level 95.7 %
Track quality 100.0 %
Test CRC E34B517F
Copy CRC E34B517F
Copy OK

Track 3
Filename C:\Documents and Settings\Eric\My Documents\Downloads\The Beatles - With The Beatles (1963) [FLAC] {DESS 2008}\03 - Beatles - All My Loving.wav

Peak level 94.8 %
Track quality 100.0 %
Test CRC B2847A96
Copy CRC B2847A96
Copy OK

Track 4
Filename C:\Documents and Settings\Eric\My Documents\Downloads\The Beatles - With The Beatles (1963) [FLAC] {DESS 2008}\04 - Beatles - Don't Bother Me.wav

Peak level 95.7 %
Track quality 100.0 %
Test CRC 3A07DC25
Copy CRC 3A07DC25
Copy OK

Track 5
Filename C:\Documents and Settings\Eric\My Documents\Downloads\The Beatles - With The Beatles (1963) [FLAC] {DESS 2008}\05 - Beatles - Little Child.wav

Peak level 95.3 %
Track quality 100.0 %
Test CRC E093AB07
Copy CRC E093AB07
Copy OK

Track 6
Filename C:\Documents and Settings\Eric\My Documents\Downloads\The Beatles - With The Beatles (1963) [FLAC] {DESS 2008}\06 - Beatles - Till There Was You.wav

Peak level 94.3 %
Track quality 99.9 %
Test CRC 72B877B4
Copy CRC 72B877B4
Copy OK

Track 7
Filename C:\Documents and Settings\Eric\My Documents\Downloads\The Beatles - With The Beatles (1963) [FLAC] {DESS 2008}\07 - Beatles - Please Mister Postman.wav

Peak level 88.3 %
Track quality 100.0 %
Test CRC 3196B8E8
Copy CRC 3196B8E8
Copy OK

Track 8
Filename C:\Documents and Settings\Eric\My Documents\Downloads\The Beatles - With The Beatles (1963) [FLAC] {DESS 2008}\08 - Beatles - Roll Over Beethoven.wav

Peak level 97.7 %
Track quality 100.0 %
Test CRC BE5F7FF3
Copy CRC BE5F7FF3
Copy OK

Track 9
Filename C:\Documents and Settings\Eric\My Documents\Downloads\The Beatles - With The Beatles (1963) [FLAC] {DESS 2008}\09 - Beatles - Hold Me Tight.wav

Peak level 96.5 %
Track quality 100.0 %
Test CRC EFF6AFE7
Copy CRC EFF6AFE7
Copy OK

Track 10
Filename C:\Documents and Settings\Eric\My Documents\Downloads\The Beatles - With The Beatles (1963) [FLAC] {DESS 2008}\10 - Beatles - You Really Got A Hold On Me.wav

Peak level 98.3 %
Track quality 99.9 %
Test CRC FCA0B668
Copy CRC FCA0B668
Copy OK

Track 11
Filename C:\Documents and Settings\Eric\My Documents\Downloads\The Beatles - With The Beatles (1963) [FLAC] {DESS 2008}\11 - Beatles - I Wanna Be Your Man.wav

Peak level 99.9 %
Track quality 99.9 %
Test CRC D8AAAEA1
Copy CRC D8AAAEA1
Copy OK

Track 12
Filename C:\Documents and Settings\Eric\My Documents\Downloads\The Beatles - With The Beatles (1963) [FLAC] {DESS 2008}\12 - Beatles - Devil In Her Heart.wav

Peak level 99.2 %
Track quality 100.0 %
Test CRC 2DE8A059
Copy CRC 2DE8A059
Copy OK

Track 13
Filename C:\Documents and Settings\Eric\My Documents\Downloads\The Beatles - With The Beatles (1963) [FLAC] {DESS 2008}\13 - Beatles - Not A Second Time.wav

Peak level 100.0 %
Track quality 100.0 %
Test CRC C5AD679E
Copy CRC C5AD679E
Copy OK

Track 14
Filename C:\Documents and Settings\Eric\My Documents\Downloads\The Beatles - With The Beatles (1963) [FLAC] {DESS 2008}\14 - Beatles - Money (That's What I Want).wav

Peak level 100.0 %
Track quality 100.0 %
Test CRC 8C16E38D
Copy CRC 8C16E38D
Copy OK

No errors occured


End of status report


[CUETools log; Date: 12.01.2020 19:41:15; Version: 2.1.6]
[CTDB TOCID: Z._.RgkE68OOyVAj.pPhew6Uv7I-] found.
Track | CTDB Status
1 | (3/3) Accurately ripped
2 | (3/3) Accurately ripped
3 | (3/3) Accurately ripped
4 | (3/3) Accurately ripped
5 | (3/3) Accurately ripped
6 | (3/3) Accurately ripped
7 | (3/3) Accurately ripped
8 | (3/3) Accurately ripped
9 | (3/3) Accurately ripped
10 | (3/3) Accurately ripped
11 | (3/3) Accurately ripped
12 | (3/3) Accurately ripped
13 | (3/3) Accurately ripped
14 | (3/3) Accurately ripped
[AccurateRip ID: 0010d6c8-00b5513a-c507e20e] found.
Track [ CRC | V2 ] Status
01 [a21da77a|48fcc654] (2+3/5) Accurately ripped
02 [bddd98d5|310757bd] (2+3/5) Accurately ripped
03 [512a144c|09c9f287] (2+3/5) Accurately ripped
04 [96915a6e|6c5c1435] (2+3/5) Accurately ripped
05 [c9015af4|6d725be7] (2+3/5) Accurately ripped
06 [f39d44b8|2d9a7b86] (2+3/5) Accurately ripped
07 [c0e364b8|1b0100d4] (2+3/5) Accurately ripped
08 [3a6e5736|037b58e4] (2+3/5) Accurately ripped
09 [07259536|426a9229] (2+3/5) Accurately ripped
10 [a85800d0|1850002f] (2+3/5) Accurately ripped
11 [744fbbc2|baeca05b] (2+3/5) Accurately ripped
12 [a1bd7ca8|1ed69e26] (2+3/5) Accurately ripped
13 [0e61e63b|d3d289d7] (2+3/5) Accurately ripped
14 [c3428b7e|4f63fd63] (2+3/5) Accurately ripped

Track Peak [ CRC32 ] [W/O NULL] [ LOG ]
– 100,0 [B0C65AFC] [9E3D66C9]
01 97,1 [5D1F3D05] [C0250E78] CRC32
02 95,7 [E34B517F] [B8292227] CRC32
03 94,8 [B2847A96] [246EE3D9] CRC32
04 95,7 [3A07DC25] [070966D9] CRC32
05 95,3 [E093AB07] [04EAB40D] CRC32
06 94,3 [72B877B4] [9350450C] CRC32
07 88,3 [3196B8E8] [0607613C] CRC32
08 97,7 [BE5F7FF3] [C6F5952A] CRC32
09 96,5 [EFF6AFE7] [5DA3103D] CRC32
10 98,3 [FCA0B668] [192F2A25] CRC32
11 99,9 [D8AAAEA1] [21D855CF] CRC32
12 99,2 [2DE8A059] [6E936B87] CRC32
13 100,0 [C5AD679E] [D1A462EA] CRC32
14 100,0 [8C16E38D] [3FBF6C6A] CRC32


The Beatles: Dr. Ebbett's MFSL Half-Speed Series (1963-1970) [2008, 14CD]

Tracklist CD03. 1964 - A Hard Day's Night (2008 Dr. Ebbetts MFSL Japan MFSL-1-103):

1. A Hard Day's Night (2:38)
2. I Should Have Known Better (2:47)
3. If I Fell (2:22)
4. I'm Happy Just To Dance With You (1:59)
5. And I Love Her (2:33)
6. Tell Me Why (2:12)
7. Can't Buy Me Love (2:15)
8. Any Time At All (2:15)
9. I'll Cry Instead (1:49)
10. Things We Said Today (2:39)
11. When I Get Home (2:20)
12. You Can't Do That (2:38)
13. I'll Be Back (2:23)

EAC extraction logfile from 15. October 2008, 16:02 for CD
Beatles / A Hard Day's Night (MFSL)

Used drive : HL-DT-STDVD-RW GSA-H11N Adapter: 1 ID: 0
Read mode : Secure with NO C2, accurate stream, disable cache
Read offset correction : 667
Overread into Lead-In and Lead-Out : No

Used output format : Internal WAV Routines
44.100 Hz; 16 Bit; Stereo

Other options :
Fill up missing offset samples with silence : Yes
Delete leading and trailing silent blocks : No
Installed external ASPI interface


Track 1
Filename C:\Documents and Settings\Eric\My Documents\Downloads\The Beatles - A Hard Day's Night (1964) [FLAC] {DESS 2008}\01 - A Hard Day's Night.wav

Pre-gap length 0:00:02.00

Peak level 96.6 %
Track quality 100.0 %
Test CRC 972B3365
Copy CRC 972B3365
Copy OK

Track 2
Filename C:\Documents and Settings\Eric\My Documents\Downloads\The Beatles - A Hard Day's Night (1964) [FLAC] {DESS 2008}\02 - I Should Have Known Better.wav

Peak level 96.5 %
Track quality 100.0 %
Test CRC 5F677069
Copy CRC 5F677069
Copy OK

Track 3
Filename C:\Documents and Settings\Eric\My Documents\Downloads\The Beatles - A Hard Day's Night (1964) [FLAC] {DESS 2008}\03 - If I Fell.wav

Peak level 81.7 %
Track quality 99.9 %
Test CRC 3816DB8D
Copy CRC 3816DB8D
Copy OK

Track 4
Filename C:\Documents and Settings\Eric\My Documents\Downloads\The Beatles - A Hard Day's Night (1964) [FLAC] {DESS 2008}\04 - I'm Happy Just To Dance With You.wav

Peak level 98.0 %
Track quality 100.0 %
Test CRC DECC42E4
Copy CRC DECC42E4
Copy OK

Track 5
Filename C:\Documents and Settings\Eric\My Documents\Downloads\The Beatles - A Hard Day's Night (1964) [FLAC] {DESS 2008}\05 - And I Love Her.wav

Peak level 78.4 %
Track quality 100.0 %
Test CRC C8DF56BD
Copy CRC C8DF56BD
Copy OK

Track 6
Filename C:\Documents and Settings\Eric\My Documents\Downloads\The Beatles - A Hard Day's Night (1964) [FLAC] {DESS 2008}\06 - Tell Me Why.wav

Peak level 100.0 %
Track quality 100.0 %
Test CRC AB53671D
Copy CRC AB53671D
Copy OK

Track 7
Filename C:\Documents and Settings\Eric\My Documents\Downloads\The Beatles - A Hard Day's Night (1964) [FLAC] {DESS 2008}\07 - Can't Buy Me Love.wav

Peak level 95.0 %
Track quality 100.0 %
Test CRC AA24AE66
Copy CRC AA24AE66
Copy OK

Track 8
Filename C:\Documents and Settings\Eric\My Documents\Downloads\The Beatles - A Hard Day's Night (1964) [FLAC] {DESS 2008}\08 - Any Time At All.wav

Peak level 98.6 %
Track quality 100.0 %
Test CRC A0588E5B
Copy CRC A0588E5B
Copy OK

Track 9
Filename C:\Documents and Settings\Eric\My Documents\Downloads\The Beatles - A Hard Day's Night (1964) [FLAC] {DESS 2008}\09 - I'll Cry Instead.wav

Peak level 96.1 %
Track quality 100.0 %
Test CRC B7ECDB79
Copy CRC B7ECDB79
Copy OK

Track 10
Filename C:\Documents and Settings\Eric\My Documents\Downloads\The Beatles - A Hard Day's Night (1964) [FLAC] {DESS 2008}\10 - Things We Said Today.wav

Peak level 88.9 %
Track quality 100.0 %
Test CRC 1B59A7CE
Copy CRC 1B59A7CE
Copy OK

Track 11
Filename C:\Documents and Settings\Eric\My Documents\Downloads\The Beatles - A Hard Day's Night (1964) [FLAC] {DESS 2008}\11 - When I Get Home.wav

Peak level 94.5 %
Track quality 100.0 %
Test CRC 2DF73E97
Copy CRC 2DF73E97
Copy OK

Track 12
Filename C:\Documents and Settings\Eric\My Documents\Downloads\The Beatles - A Hard Day's Night (1964) [FLAC] {DESS 2008}\12 - You Can't Do That.wav

Peak level 94.2 %
Track quality 100.0 %
Test CRC B14CE8BC
Copy CRC B14CE8BC
Copy OK

Track 13
Filename C:\Documents and Settings\Eric\My Documents\Downloads\The Beatles - A Hard Day's Night (1964) [FLAC] {DESS 2008}\13 - I'll Be Back.wav

Peak level 93.1 %
Track quality 100.0 %
Test CRC 423353EE
Copy CRC 423353EE
Copy OK

No errors occured


End of status report


[CUETools log; Date: 12.01.2020 19:43:09; Version: 2.1.6]
[CTDB TOCID: 1zqZpja_LB_iwGlIoi6yhGEIDHk-] found.
Track | CTDB Status
1 | (5/5) Accurately ripped
2 | (5/5) Accurately ripped
3 | (5/5) Accurately ripped
4 | (5/5) Accurately ripped
5 | (5/5) Accurately ripped
6 | (5/5) Accurately ripped
7 | (5/5) Accurately ripped
8 | (5/5) Accurately ripped
9 | (5/5) Accurately ripped
10 | (5/5) Accurately ripped
11 | (5/5) Accurately ripped
12 | (5/5) Accurately ripped
13 | (5/5) Accurately ripped
[AccurateRip ID: 000eee1e-0094342b-a607380d] found.
Track [ CRC | V2 ] Status
01 [34e3e5dd|bf07de22] (3+3/6) Accurately ripped
02 [14990fdb|aa97c638] (3+3/6) Accurately ripped
03 [f5e83202|871a2be2] (3+3/6) Accurately ripped
04 [b281351f|26563340] (3+3/6) Accurately ripped
05 [95dd6987|107863fc] (3+3/6) Accurately ripped
06 [a72e77cb|e98253dc] (3+3/6) Accurately ripped
07 [aa9362fa|95ef7662] (3+3/6) Accurately ripped
08 [0080d94b|742db413] (3+3/6) Accurately ripped
09 [998a5220|12d8aebb] (3+3/6) Accurately ripped
10 [facab99d|bd4e5808] (3+3/6) Accurately ripped
11 [1897c2d1|e2f4f50c] (3+3/6) Accurately ripped
12 [0f8751a8|bbd77f8f] (3+3/6) Accurately ripped
13 [777ce418|b96e93fa] (3+3/6) Accurately ripped

Track Peak [ CRC32 ] [W/O NULL] [ LOG ]
– 100,0 [2A550F79] [1EDA589C]
01 96,6 [972B3365] [D05FD2EA] CRC32
02 96,5 [5F677069] [65E5E1B7] CRC32
03 81,7 [3816DB8D] [8756E9B3] CRC32
04 98,0 [DECC42E4] [C76B02D7] CRC32
05 78,4 [C8DF56BD] [06690107] CRC32
06 100,0 [AB53671D] [07D3F375] CRC32
07 95,0 [AA24AE66] [6E7C0BB4] CRC32
08 98,6 [A0588E5B] [573106F9] CRC32
09 96,1 [B7ECDB79] [0584D1DD] CRC32
10 88,9 [1B59A7CE] [C66FF4D7] CRC32
11 94,5 [2DF73E97] [A56994A9] CRC32
12 94,2 [B14CE8BC] [EC326CF3] CRC32
13 93,1 [423353EE] [1AFAA4C1] CRC32


The Beatles: Dr. Ebbett's MFSL Half-Speed Series (1963-1970) [2008, 14CD]

Tracklist CD04. 1964 - Beatles For Sale (2008 Dr. Ebbetts MFSL Japan MFSL-1-104):

1. No Reply (2:21)
2. I'm A Loser (2:33)
3. Baby's In Black (2:09)
4. Rock And Roll Music (2:35)
5. I'll Follow The Sun (1:52)
6. Mr. Moonlight (2:42)
7. Kansas City\Hey Hey Hey (2:42)
8. Eight Days A Week (2:47)
9. Words Of Love (2:08)
10. Honey Don't (3:02)
11. Every Little Thing (2:07)
12. I Don't Want To Spoil The Party (2:37)
13. What You're Doing (2:34)
14. Everybody's Trying To Be My Baby (2:27)

EAC extraction logfile from 15. October 2008, 21:03 for CD
Beatles / Beatles For Sale (MFSL)

Used drive : HL-DT-STDVD-RW GSA-H11N Adapter: 1 ID: 0
Read mode : Secure with NO C2, accurate stream, disable cache
Read offset correction : 667
Overread into Lead-In and Lead-Out : No

Used output format : Internal WAV Routines
44.100 Hz; 16 Bit; Stereo

Other options :
Fill up missing offset samples with silence : Yes
Delete leading and trailing silent blocks : No
Installed external ASPI interface


Track 1
Filename C:\Documents and Settings\Eric\My Documents\Downloads\The Beatles - Beatles For Sale (1964) [FLAC] {DESS 2008}\01 - No Reply.wav

Pre-gap length 0:00:02.00

Peak level 100.0 %
Track quality 100.0 %
Test CRC 5C874D1C
Copy CRC 5C874D1C
Copy OK

Track 2
Filename C:\Documents and Settings\Eric\My Documents\Downloads\The Beatles - Beatles For Sale (1964) [FLAC] {DESS 2008}\02 - I'm A Loser.wav

Peak level 92.2 %
Track quality 100.0 %
Test CRC F875CC1B
Copy CRC F875CC1B
Copy OK

Track 3
Filename C:\Documents and Settings\Eric\My Documents\Downloads\The Beatles - Beatles For Sale (1964) [FLAC] {DESS 2008}\03 - Baby's In Black.wav

Peak level 99.5 %
Track quality 99.9 %
Test CRC F3BBAEB9
Copy CRC F3BBAEB9
Copy OK

Track 4
Filename C:\Documents and Settings\Eric\My Documents\Downloads\The Beatles - Beatles For Sale (1964) [FLAC] {DESS 2008}\04 - Rock And Roll Music.wav

Peak level 98.8 %
Track quality 99.9 %
Test CRC 26EFE47C
Copy CRC 26EFE47C
Copy OK

Track 5
Filename C:\Documents and Settings\Eric\My Documents\Downloads\The Beatles - Beatles For Sale (1964) [FLAC] {DESS 2008}\05 - I'll Follow The Sun.wav

Peak level 81.1 %
Track quality 100.0 %
Test CRC D139CD3C
Copy CRC D139CD3C
Copy OK

Track 6
Filename C:\Documents and Settings\Eric\My Documents\Downloads\The Beatles - Beatles For Sale (1964) [FLAC] {DESS 2008}\06 - Mr. Moonlight.wav

Peak level 91.1 %
Track quality 100.0 %
Test CRC D4B1C76F
Copy CRC D4B1C76F
Copy OK

Track 7
Filename C:\Documents and Settings\Eric\My Documents\Downloads\The Beatles - Beatles For Sale (1964) [FLAC] {DESS 2008}\07 - Kansas City-Hey Hey Hey.wav

Peak level 91.9 %
Track quality 100.0 %
Test CRC 03D7FC64
Copy CRC 03D7FC64
Copy OK

Track 8
Filename C:\Documents and Settings\Eric\My Documents\Downloads\The Beatles - Beatles For Sale (1964) [FLAC] {DESS 2008}\08 - Eight Days A Week.wav

Peak level 93.1 %
Track quality 100.0 %
Test CRC 00DBE151
Copy CRC 00DBE151
Copy OK

Track 9
Filename C:\Documents and Settings\Eric\My Documents\Downloads\The Beatles - Beatles For Sale (1964) [FLAC] {DESS 2008}\09 - Words Of Love.wav

Peak level 96.7 %
Track quality 100.0 %
Test CRC 9FD091D9
Copy CRC 9FD091D9
Copy OK

Track 10
Filename C:\Documents and Settings\Eric\My Documents\Downloads\The Beatles - Beatles For Sale (1964) [FLAC] {DESS 2008}\10 - Honey Don't.wav

Peak level 96.8 %
Track quality 99.9 %
Test CRC FB2A6641
Copy CRC FB2A6641
Copy OK

Track 11
Filename C:\Documents and Settings\Eric\My Documents\Downloads\The Beatles - Beatles For Sale (1964) [FLAC] {DESS 2008}\11 - Every Little Thing.wav

Peak level 93.4 %
Track quality 100.0 %
Test CRC F9681D68
Copy CRC F9681D68
Copy OK

Track 12
Filename C:\Documents and Settings\Eric\My Documents\Downloads\The Beatles - Beatles For Sale (1964) [FLAC] {DESS 2008}\12 - I Don't Want To Spoil The Party.wav

Peak level 92.3 %
Track quality 100.0 %
Test CRC 5B17D0A9
Copy CRC 5B17D0A9
Copy OK

Track 13
Filename C:\Documents and Settings\Eric\My Documents\Downloads\The Beatles - Beatles For Sale (1964) [FLAC] {DESS 2008}\13 - What You're Doing.wav

Peak level 95.3 %
Track quality 100.0 %
Test CRC 110BABBC
Copy CRC 110BABBC
Copy OK

Track 14
Filename C:\Documents and Settings\Eric\My Documents\Downloads\The Beatles - Beatles For Sale (1964) [FLAC] {DESS 2008}\14 - Everybody's Trying To Be My Baby.wav

Peak level 99.0 %
Track quality 100.0 %
Test CRC A65E1CD2
Copy CRC A65E1CD2
Copy OK

No errors occured


End of status report


[CUETools log; Date: 12.01.2020 19:45:00; Version: 2.1.6]
[CTDB TOCID: C5mw9t2AKs.i8R1LnGoFI1eG03M-] found.
Track | CTDB Status
1 | (4/4) Accurately ripped
2 | (4/4) Accurately ripped
3 | (4/4) Accurately ripped
4 | (4/4) Accurately ripped
5 | (4/4) Accurately ripped
6 | (4/4) Accurately ripped
7 | (4/4) Accurately ripped
8 | (4/4) Accurately ripped
9 | (4/4) Accurately ripped
10 | (4/4) Accurately ripped
11 | (4/4) Accurately ripped
12 | (4/4) Accurately ripped
13 | (4/4) Accurately ripped
14 | (4/4) Accurately ripped
[AccurateRip ID: 00119642-00bc7616-b7081a0e] found.
Track [ CRC | V2 ] Status
01 [30afe0a2|d01e5ea7] (0+3/3) Accurately ripped
02 [24531535|7c795c79] (0+3/3) Accurately ripped
03 [4f8884e9|c4e10a53] (0+3/3) Accurately ripped
04 [6158aafb|0a6feff6] (0+3/3) Accurately ripped
05 [ae49abe6|4bba21c4] (0+3/3) Accurately ripped
06 [8a54287f|d4e26e8c] (0+3/3) Accurately ripped
07 [2e980852|d6860bae] (0+3/3) Accurately ripped
08 [ac21a228|d4eecb4b] (0+3/3) Accurately ripped
09 [c1fe73d8|1afba46c] (0+3/3) Accurately ripped
10 [2bdabf6f|4dafd4f5] (0+3/3) Accurately ripped
11 [b013648d|12aae442] (0+3/3) Accurately ripped
12 [ba918c71|93addb49] (0+3/3) Accurately ripped
13 [c0b9b652|74e89226] (0+3/3) Accurately ripped
14 [ec37070a|56bdb32d] (0+3/3) Accurately ripped

Track Peak [ CRC32 ] [W/O NULL] [ LOG ]
– 99,9 [23E764E5] [7342C069]
01 99,9 [5C874D1C] [293652E7] CRC32
02 92,2 [F875CC1B] [EEEEF3B2] CRC32
03 99,5 [F3BBAEB9] [7C943C1E] CRC32
04 98,8 [26EFE47C] [A6B431E3] CRC32
05 81,1 [D139CD3C] [2013A29A] CRC32
06 91,1 [D4B1C76F] [234B20CF] CRC32
07 91,9 [03D7FC64] [617C8710] CRC32
08 93,1 [00DBE151] [4AA8EF69] CRC32
09 96,7 [9FD091D9] [D4F875C3] CRC32
10 96,8 [FB2A6641] [F95A7C44] CRC32
11 93,4 [F9681D68] [FABE8ACF] CRC32
12 92,3 [5B17D0A9] [95CC8557] CRC32
13 95,3 [110BABBC] [7EBB9992] CRC32
14 99,0 [A65E1CD2] [57BC4422] CRC32


The Beatles: Dr. Ebbett's MFSL Half-Speed Series (1963-1970) [2008, 14CD]

Tracklist CD05. 1965 - Help! (2008 Dr. Ebbetts MFSL Japan MFSL-1-105):

1. Help! (2:23)
2. The Night Before (2:36)
3. You've Got To Hide Your Love Away (2:12)
4. I Need You (2:32)
5. Another Girl (2:09)
6. You're Going To Lose That Girl (2:21)
7. Ticket To Ride (3:13)
8. Act Naturally (2:33)
9. It's Only Love (1:59)
10. You Like Me Too Much (2:40)
11. Tell Me What You See (2:41)
12. I've Just Seen A Face (2:09)
13. Yesterday (2:10)
14. Dizzy Miss Lizzie (2:56)

EAC extraction logfile from 16. October 2008, 14:12 for CD
Beatles / Help! (MFSL)

Used drive : HL-DT-STDVD-RW GSA-H11N Adapter: 1 ID: 0
Read mode : Secure with NO C2, accurate stream, disable cache
Read offset correction : 667
Overread into Lead-In and Lead-Out : No

Used output format : Internal WAV Routines
44.100 Hz; 16 Bit; Stereo

Other options :
Fill up missing offset samples with silence : Yes
Delete leading and trailing silent blocks : No
Installed external ASPI interface


Track 1
Filename C:\Documents and Settings\Eric\My Documents\Downloads\The Beatles Help! (1965) [FLAC] {DESS 2008}\01 - Help!.wav

Pre-gap length 0:00:02.00

Peak level 96.7 %
Track quality 100.0 %
Test CRC 952704E9
Copy CRC 952704E9
Copy OK

Track 2
Filename C:\Documents and Settings\Eric\My Documents\Downloads\The Beatles Help! (1965) [FLAC] {DESS 2008}\02 - The Night Before.wav

Peak level 98.4 %
Track quality 100.0 %
Test CRC 89F3F065
Copy CRC 89F3F065
Copy OK

Track 3
Filename C:\Documents and Settings\Eric\My Documents\Downloads\The Beatles Help! (1965) [FLAC] {DESS 2008}\03 - You've Got To Hide Your Love Away.wav

Peak level 89.0 %
Track quality 99.9 %
Test CRC 8FD54DF3
Copy CRC 8FD54DF3
Copy OK

Track 4
Filename C:\Documents and Settings\Eric\My Documents\Downloads\The Beatles Help! (1965) [FLAC] {DESS 2008}\04 - I Need You.wav

Peak level 93.9 %
Track quality 100.0 %
Test CRC 600B3505
Copy CRC 600B3505
Copy OK

Track 5
Filename C:\Documents and Settings\Eric\My Documents\Downloads\The Beatles Help! (1965) [FLAC] {DESS 2008}\05 - Another Girl.wav

Peak level 92.4 %
Track quality 100.0 %
Test CRC 972D1C90
Copy CRC 972D1C90
Copy OK

Track 6
Filename C:\Documents and Settings\Eric\My Documents\Downloads\The Beatles Help! (1965) [FLAC] {DESS 2008}\06 - You're Going To Lose That Girl.wav

Peak level 90.1 %
Track quality 99.9 %
Test CRC 7F908B50
Copy CRC 7F908B50
Copy OK

Track 7
Filename C:\Documents and Settings\Eric\My Documents\Downloads\The Beatles Help! (1965) [FLAC] {DESS 2008}\07 - Ticket To Ride.wav

Peak level 98.6 %
Track quality 100.0 %
Test CRC 451C9431
Copy CRC 451C9431
Copy OK

Track 8
Filename C:\Documents and Settings\Eric\My Documents\Downloads\The Beatles Help! (1965) [FLAC] {DESS 2008}\08 - Act Naturally.wav

Peak level 99.2 %
Track quality 100.0 %
Test CRC B26BAC96
Copy CRC B26BAC96
Copy OK

Track 9
Filename C:\Documents and Settings\Eric\My Documents\Downloads\The Beatles Help! (1965) [FLAC] {DESS 2008}\09 - It's Only Love.wav

Peak level 76.9 %
Track quality 100.0 %
Test CRC 732A7B57
Copy CRC 732A7B57
Copy OK

Track 10
Filename C:\Documents and Settings\Eric\My Documents\Downloads\The Beatles Help! (1965) [FLAC] {DESS 2008}\10 - You Like Me Too Much.wav

Peak level 91.6 %
Track quality 99.9 %
Test CRC 13162DC3
Copy CRC 13162DC3
Copy OK

Track 11
Filename C:\Documents and Settings\Eric\My Documents\Downloads\The Beatles Help! (1965) [FLAC] {DESS 2008}\11 - Tell Me What You See.wav

Peak level 98.5 %
Track quality 100.0 %
Test CRC 97543989
Copy CRC 97543989
Copy OK

Track 12
Filename C:\Documents and Settings\Eric\My Documents\Downloads\The Beatles Help! (1965) [FLAC] {DESS 2008}\12 - I've Just Seen A Face.wav

Peak level 100.0 %
Track quality 99.9 %
Test CRC 40D67988
Copy CRC 40D67988
Copy OK

Track 13
Filename C:\Documents and Settings\Eric\My Documents\Downloads\The Beatles Help! (1965) [FLAC] {DESS 2008}\13 - Yesterday.wav

Peak level 68.0 %
Track quality 100.0 %
Test CRC A6F704F1
Copy CRC A6F704F1
Copy OK

Track 14
Filename C:\Documents and Settings\Eric\My Documents\Downloads\The Beatles Help! (1965) [FLAC] {DESS 2008}\14 - Dizzy Miss Lizzie.wav

Peak level 98.8 %
Track quality 100.0 %
Test CRC 3CC845A9
Copy CRC 3CC845A9
Copy OK

No errors occured


End of status report


[CUETools log; Date: 12.01.2020 19:46:59; Version: 2.1.6]
[CTDB TOCID: le6sbO6CBpavDRNgt8jmTbw_q2g-] found.
Track | CTDB Status
1 | (3/3) Accurately ripped
2 | (3/3) Accurately ripped
3 | (3/3) Accurately ripped
4 | (3/3) Accurately ripped
5 | (3/3) Accurately ripped
6 | (3/3) Accurately ripped
7 | (3/3) Accurately ripped
8 | (3/3) Accurately ripped
9 | (3/3) Accurately ripped
10 | (3/3) Accurately ripped
11 | (3/3) Accurately ripped
12 | (3/3) Accurately ripped
13 | (3/3) Accurately ripped
14 | (3/3) Accurately ripped
[AccurateRip ID: 0011ae87-00bcec18-93081a0e] found.
Track [ CRC | V2 ] Status
01 [7261d252|95f40293] (0+2/2) Accurately ripped
02 [0d03b1d7|7e9f4f52] (0+2/2) Accurately ripped
03 [db6a4f43|59e82ff1] (0+2/2) Accurately ripped
04 [33fb8b6e|96525306] (0+2/2) Accurately ripped
05 [d931cbe2|32db8e2c] (0+2/2) Accurately ripped
06 [2de536a5|b1347d1d] (0+2/2) Accurately ripped
07 [67b8fb31|9ae830fe] (0+2/2) Accurately ripped
08 [a27acfe3|c2382327] (0+2/2) Accurately ripped
09 [0cb21cb7|5e38d3b3] (0+2/2) Accurately ripped
10 [f5121680|43e256ee] (0+2/2) Accurately ripped
11 [1d4ca9d3|1a5ceedc] (0+2/2) Accurately ripped
12 [9bce6956|53537612] (0+2/2) Accurately ripped
13 [f8e3cc7e|4e90b37f] (0+2/2) Accurately ripped
14 [38a3cfbe|04bd8aa4] (0+2/2) Accurately ripped

Track Peak [ CRC32 ] [W/O NULL] [ LOG ]
– 100,0 [6F57A6D3] [645B5653]
01 96,7 [952704E9] [8A5CFF2E] CRC32
02 98,4 [89F3F065] [E685B00B] CRC32
03 89,0 [8FD54DF3] [9B25CA2A] CRC32
04 93,9 [600B3505] [2B7B5A05] CRC32
05 92,4 [972D1C90] [DF578A0B] CRC32
06 90,1 [7F908B50] [C0E881ED] CRC32
07 98,6 [451C9431] [93CA9359] CRC32
08 99,2 [B26BAC96] [855F49A8] CRC32
09 76,9 [732A7B57] [28F978CF] CRC32
10 91,6 [13162DC3] [27C022C9] CRC32
11 98,5 [97543989] [F4926C0B] CRC32
12 100,0 [40D67988] [A67B5422] CRC32
13 68,0 [A6F704F1] [B51AAA0C] CRC32
14 98,8 [3CC845A9] [59362ED3] CRC32


The Beatles: Dr. Ebbett's MFSL Half-Speed Series (1963-1970) [2008, 14CD]

Tracklist CD06. 1965 - Rubber Soul (2008 Dr. Ebbetts MFSL Japan MFSL-1-106):

1. Drive My Car (2:34)
2. Norwegian Wood (This Bird Has Flown) (2:08)
3. You Won't See Me (3:26)
4. Nowhere Man (2:47)
5. Think For Yourself (2:21)
6. The Word (2:46)
7. Michelle (2:46)
8. What Goes On (2:50)
9. Girl (2:33)
10. I'm Looking Through You (2:29)
11. In My Life (2:29)
12. Wait (2:17)
13. If I Needed Someone (2:25)
14. Run For Your Life (2:23)

EAC extraction logfile from 16. October 2008, 19:20 for CD
Beatles / Rubber Soul (Mfsl Lp)

Used drive : HL-DT-STDVD-RW GSA-H11N Adapter: 1 ID: 0
Read mode : Secure with NO C2, accurate stream, disable cache
Read offset correction : 667
Overread into Lead-In and Lead-Out : No

Used output format : Internal WAV Routines
44.100 Hz; 16 Bit; Stereo

Other options :
Fill up missing offset samples with silence : Yes
Delete leading and trailing silent blocks : No
Installed external ASPI interface


Track 1
Filename C:\Documents and Settings\Eric\My Documents\Downloads\The Beatles - Rubber Soul (1965) [FLAC] {DESS 2008}\01 - Drive My Car.wav

Pre-gap length 0:00:02.00

Peak level 96.7 %
Track quality 100.0 %
Test CRC 806185EA
Copy CRC 806185EA
Copy OK

Track 2
Filename C:\Documents and Settings\Eric\My Documents\Downloads\The Beatles - Rubber Soul (1965) [FLAC] {DESS 2008}\02 - Norwegian Wood (This Bird Has Flown).wav

Peak level 95.9 %
Track quality 100.0 %
Test CRC 75D0BEFB
Copy CRC 75D0BEFB
Copy OK

Track 3
Filename C:\Documents and Settings\Eric\My Documents\Downloads\The Beatles - Rubber Soul (1965) [FLAC] {DESS 2008}\03 - You Won't See Me.wav

Peak level 96.9 %
Track quality 100.0 %
Test CRC 46604564
Copy CRC 46604564
Copy OK

Track 4
Filename C:\Documents and Settings\Eric\My Documents\Downloads\The Beatles - Rubber Soul (1965) [FLAC] {DESS 2008}\04 - Nowhere Man.wav

Peak level 98.6 %
Track quality 100.0 %
Test CRC EA286757
Copy CRC EA286757
Copy OK

Track 5
Filename C:\Documents and Settings\Eric\My Documents\Downloads\The Beatles - Rubber Soul (1965) [FLAC] {DESS 2008}\05 - Think For Yourself.wav

Peak level 98.8 %
Track quality 100.0 %
Test CRC FDA912B0
Copy CRC FDA912B0
Copy OK

Track 6
Filename C:\Documents and Settings\Eric\My Documents\Downloads\The Beatles - Rubber Soul (1965) [FLAC] {DESS 2008}\06 - The Word.wav

Peak level 100.0 %
Track quality 100.0 %
Test CRC 8CA6D2B0
Copy CRC 8CA6D2B0
Copy OK

Track 7
Filename C:\Documents and Settings\Eric\My Documents\Downloads\The Beatles - Rubber Soul (1965) [FLAC] {DESS 2008}\07 - Michelle.wav

Peak level 83.8 %
Track quality 99.9 %
Test CRC 4FD26A84
Copy CRC 4FD26A84
Copy OK

Track 8
Filename C:\Documents and Settings\Eric\My Documents\Downloads\The Beatles - Rubber Soul (1965) [FLAC] {DESS 2008}\08 - What Goes On.wav

Peak level 90.2 %
Track quality 99.9 %
Test CRC D55BBC12
Copy CRC D55BBC12
Copy OK

Track 9
Filename C:\Documents and Settings\Eric\My Documents\Downloads\The Beatles - Rubber Soul (1965) [FLAC] {DESS 2008}\09 - Girl.wav

Peak level 99.4 %
Track quality 100.0 %
Test CRC CE639125
Copy CRC CE639125
Copy OK

Track 10
Filename C:\Documents and Settings\Eric\My Documents\Downloads\The Beatles - Rubber Soul (1965) [FLAC] {DESS 2008}\10 - I'm Looking Through You.wav

Peak level 99.9 %
Track quality 99.9 %
Test CRC 86C11E20
Copy CRC 86C11E20
Copy OK

Track 11
Filename C:\Documents and Settings\Eric\My Documents\Downloads\The Beatles - Rubber Soul (1965) [FLAC] {DESS 2008}\11 - In My Life.wav

Peak level 83.2 %
Track quality 100.0 %
Test CRC 308B9A61
Copy CRC 308B9A61
Copy OK

Track 12
Filename C:\Documents and Settings\Eric\My Documents\Downloads\The Beatles - Rubber Soul (1965) [FLAC] {DESS 2008}\12 - Wait.wav

Peak level 92.2 %
Track quality 100.0 %
Test CRC F32DE9DB
Copy CRC F32DE9DB
Copy OK

Track 13
Filename C:\Documents and Settings\Eric\My Documents\Downloads\The Beatles - Rubber Soul (1965) [FLAC] {DESS 2008}\13 - If I Needed Someone.wav

Peak level 92.9 %
Track quality 99.9 %
Test CRC 45F30DF5
Copy CRC 45F30DF5
Copy OK

Track 14
Filename C:\Documents and Settings\Eric\My Documents\Downloads\The Beatles - Rubber Soul (1965) [FLAC] {DESS 2008}\14 - Run For Your Life.wav

Peak level 89.7 %
Track quality 100.0 %
Test CRC 571D7050
Copy CRC 571D7050
Copy OK

No errors occured


End of status report


[CUETools log; Date: 12.01.2020 19:49:10; Version: 2.1.6]
[CTDB TOCID: NaOaRBxZAUnJhxjOmNvgnnm9I64-] found.
Track | CTDB Status
1 | (4/4) Accurately ripped
2 | (4/4) Accurately ripped
3 | (4/4) Accurately ripped
4 | (4/4) Accurately ripped
5 | (4/4) Accurately ripped
6 | (4/4) Accurately ripped
7 | (4/4) Accurately ripped
8 | (4/4) Accurately ripped
9 | (4/4) Accurately ripped
10 | (4/4) Accurately ripped
11 | (4/4) Accurately ripped
12 | (4/4) Accurately ripped
13 | (4/4) Accurately ripped
14 | (4/4) Accurately ripped
[AccurateRip ID: 00130bb8-00cab8ad-c8087c0e] found.
Track [ CRC | V2 ] Status
01 [1ca09b68|45176660] (0+0/2) No match
02 [20ca0777|819f4c0d] (0+0/2) No match
03 [f69cffc4|1233e4ca] (0+0/2) No match
04 [6b800b7f|cd7953c9] (0+0/2) No match
05 [260f13d4|35066ed8] (0+0/2) No match
06 [2a01412d|0dceb96e] (0+0/2) No match
07 [80144e6c|91b5c1cf] (0+0/2) No match
08 [021e4254|23875910] (0+0/2) No match
09 [118174bb|0ac4c769] (0+0/2) No match
10 [d62e2420|cebc02d7] (0+0/2) No match
11 [2afe5db0|7e159bed] (0+0/2) No match
12 [de186162|c9f8b736] (0+0/2) No match
13 [3625d50f|49608cae] (0+0/2) No match
14 [a5b4984b|b6a7dc3a] (0+0/2) No match
Offsetted by -18:
01 [d3776f9f] (0/2) No match (V2 was not tested)
02 [422dad6e] (0/2) No match (V2 was not tested)
03 [85057183] (0/2) No match (V2 was not tested)
04 [bef4eddb] (0/2) No match (V2 was not tested)
05 [441c4129] (0/2) No match (V2 was not tested)
06 [b0ae7593] (0/2) No match (V2 was not tested)
07 [75b4aa3b] (0/2) No match (V2 was not tested)
08 [30ad1854] (0/2) No match (V2 was not tested)
09 [119f3c9b] (0/2) No match (V2 was not tested)
10 [b21dc935] (0/2) No match (V2 was not tested)
11 [9e0c449a] (0/2) No match (V2 was not tested)
12 [ad0a4153] (0/2) No match (V2 was not tested)
13 [c92c3438] (0/2) No match (V2 was not tested)
14 [ebcaa0e9] (0/2) No match (V2 was not tested)

Track Peak [ CRC32 ] [W/O NULL] [ LOG ]
– 100,0 [1FB11785] [0A4F7726]
01 96,7 [806185EA] [747D1F8F] CRC32
02 95,9 [75D0BEFB] [24ED4B42] CRC32
03 96,9 [46604564] [2AB1B776] CRC32
04 98,6 [EA286757] [5D244361] CRC32
05 98,8 [FDA912B0] [80507F59] CRC32
06 100,0 [8CA6D2B0] [65A7D299] CRC32
07 83,8 [4FD26A84] [C63FCF8A] CRC32
08 90,2 [D55BBC12] [D05ECC96] CRC32
09 99,4 [CE639125] [FA0CEBA1] CRC32
10 99,9 [86C11E20] [B2CAE476] CRC32
11 83,2 [308B9A61] [EB9BE826] CRC32
12 92,2 [F32DE9DB] [638C8A99] CRC32
13 92,9 [45F30DF5] [21591806] CRC32
14 89,7 [571D7050] [BE2B0C7F] CRC32


The Beatles: Dr. Ebbett's MFSL Half-Speed Series (1963-1970) [2008, 14CD]

Tracklist CD07. 1966 - Revolver (2008 Dr. Ebbetts MFSL Japan MFSL-1-107):

1. Taxman (2:43)
2. Eleanor Rigby (2:09)
3. I'm Only Sleeping (3:04)
4. Love You To (3:03)
5. Here, There And Everywhere (2:28)
6. Yellow Submarine (2:43)
7. She Said She Said (2:41)
8. Good Day Sunshine (2:12)
9. And Your Bird Can Sing (2:04)
10. For No One (2:03)
11. Dr. Robert (2:18)
12. I Want To Tell You (2:33)
13. Got To Get You Into My Life (2:33)
14. Tomorrow Never Knows (3:02)

EAC extraction logfile from 18. October 2008, 15:52 for CD
Beatles / Revolver (MFSL)

Used drive : HL-DT-STDVD-RW GSA-H11N Adapter: 1 ID: 0
Read mode : Secure with NO C2, accurate stream, disable cache
Read offset correction : 667
Overread into Lead-In and Lead-Out : No

Used output format : Internal WAV Routines
44.100 Hz; 16 Bit; Stereo

Other options :
Fill up missing offset samples with silence : Yes
Delete leading and trailing silent blocks : No
Installed external ASPI interface


Track 1
Filename C:\Documents and Settings\Eric\My Documents\Downloads\The Beatles - Revolver (1966) [FLAC] {DESS 2008}\01 - Taxman.wav

Pre-gap length 0:00:02.00

Peak level 99.1 %
Track quality 99.9 %
Test CRC A9251D67
Copy CRC A9251D67
Copy OK

Track 2
Filename C:\Documents and Settings\Eric\My Documents\Downloads\The Beatles - Revolver (1966) [FLAC] {DESS 2008}\02 - Eleanor Rigby.wav

Peak level 89.2 %
Track quality 100.0 %
Test CRC 97ABDE88
Copy CRC 97ABDE88
Copy OK

Track 3
Filename C:\Documents and Settings\Eric\My Documents\Downloads\The Beatles - Revolver (1966) [FLAC] {DESS 2008}\03 - I'm Only Sleeping.wav

Peak level 100.0 %
Track quality 99.9 %
Test CRC DA04EF7D
Copy CRC DA04EF7D
Copy OK

Track 4
Filename C:\Documents and Settings\Eric\My Documents\Downloads\The Beatles - Revolver (1966) [FLAC] {DESS 2008}\04 - Love You To.wav

Peak level 100.0 %
Track quality 99.9 %
Test CRC C3D22758
Copy CRC C3D22758
Copy OK

Track 5
Filename C:\Documents and Settings\Eric\My Documents\Downloads\The Beatles - Revolver (1966) [FLAC] {DESS 2008}\05 - Here, There And Everywhere.wav

Peak level 77.9 %
Track quality 100.0 %
Test CRC E8411EB2
Copy CRC E8411EB2
Copy OK

Track 6
Filename C:\Documents and Settings\Eric\My Documents\Downloads\The Beatles - Revolver (1966) [FLAC] {DESS 2008}\06 - Yellow Submarine.wav

Peak level 99.8 %
Track quality 99.9 %
Test CRC 834B2B42
Copy CRC 834B2B42
Copy OK

Track 7
Filename C:\Documents and Settings\Eric\My Documents\Downloads\The Beatles - Revolver (1966) [FLAC] {DESS 2008}\07 - She Said She Said.wav

Peak level 98.9 %
Track quality 99.9 %
Test CRC 1896A6E0
Copy CRC 1896A6E0
Copy OK

Track 8
Filename C:\Documents and Settings\Eric\My Documents\Downloads\The Beatles - Revolver (1966) [FLAC] {DESS 2008}\08 - Good Day Sunshine.wav

Peak level 81.9 %
Track quality 100.0 %
Test CRC D62E59E5
Copy CRC D62E59E5
Copy OK

Track 9
Filename C:\Documents and Settings\Eric\My Documents\Downloads\The Beatles - Revolver (1966) [FLAC] {DESS 2008}\09 - And Your Bird Can Sing.wav

Peak level 99.2 %
Track quality 100.0 %
Test CRC FAD3B6DB
Copy CRC FAD3B6DB
Copy OK

Track 10
Filename C:\Documents and Settings\Eric\My Documents\Downloads\The Beatles - Revolver (1966) [FLAC] {DESS 2008}\10 - For No One.wav

Peak level 93.1 %
Track quality 100.0 %
Test CRC D0041469
Copy CRC D0041469
Copy OK

Track 11
Filename C:\Documents and Settings\Eric\My Documents\Downloads\The Beatles - Revolver (1966) [FLAC] {DESS 2008}\11 - Dr. Robert.wav

Peak level 97.3 %
Track quality 100.0 %
Test CRC B8207B02
Copy CRC B8207B02
Copy OK

Track 12
Filename C:\Documents and Settings\Eric\My Documents\Downloads\The Beatles - Revolver (1966) [FLAC] {DESS 2008}\12 - I Want To Tell You.wav

Peak level 95.7 %
Track quality 100.0 %
Test CRC 8F20FE40
Copy CRC 8F20FE40
Copy OK

Track 13
Filename C:\Documents and Settings\Eric\My Documents\Downloads\The Beatles - Revolver (1966) [FLAC] {DESS 2008}\13 - Got To Get You Into My Life.wav

Peak level 98.0 %
Track quality 99.9 %
Test CRC 47A9A99E
Copy CRC 47A9A99E
Copy OK

Track 14
Filename C:\Documents and Settings\Eric\My Documents\Downloads\The Beatles - Revolver (1966) [FLAC] {DESS 2008}\14 - Tomorrow Never Knows.wav

Peak level 88.9 %
Track quality 100.0 %
Test CRC A41BE589
Copy CRC A41BE589
Copy OK

No errors occured


End of status report


[CUETools log; Date: 12.01.2020 19:52:29; Version: 2.1.6]
[CTDB TOCID: Psvh4DlCAui4BjIC9S1XDz6Q1Tg-] found.
Track | CTDB Status
1 | (3/3) Accurately ripped
2 | (3/3) Accurately ripped
3 | (3/3) Accurately ripped
4 | (3/3) Accurately ripped
5 | (3/3) Accurately ripped
6 | (3/3) Accurately ripped
7 | (3/3) Accurately ripped
8 | (3/3) Accurately ripped
9 | (3/3) Accurately ripped
10 | (3/3) Accurately ripped
11 | (3/3) Accurately ripped
12 | (3/3) Accurately ripped
13 | (3/3) Accurately ripped
14 | (3/3) Accurately ripped
[AccurateRip ID: 0012868e-00c42b45-bb08560e] found.
Track [ CRC | V2 ] Status
01 [def415f0|d47356eb] (2+3/5) Accurately ripped
02 [1b7c795b|c4ae1fba] (2+3/5) Accurately ripped
03 [1a705631|975cf36a] (2+3/5) Accurately ripped
04 [eaebd445|80e2344d] (2+3/5) Accurately ripped
05 [70257a6e|5edd63b4] (2+3/5) Accurately ripped
06 [bf9f834c|c98e61d7] (2+3/5) Accurately ripped
07 [6cfdffe6|4c9e8f44] (2+3/5) Accurately ripped
08 [42f7cdfb|a1aa20ec] (2+3/5) Accurately ripped
09 [3e094989|c9f78b46] (2+3/5) Accurately ripped
10 [93f22907|c0ffcf95] (2+3/5) Accurately ripped
11 [e5c3a7e2|c1a485f0] (2+3/5) Accurately ripped
12 [0cb4c559|b122d6ce] (2+3/5) Accurately ripped
13 [c7074a3e|7593ad71] (2+3/5) Accurately ripped
14 [3d09ee01|2f725337] (2+3/5) Accurately ripped

Track Peak [ CRC32 ] [W/O NULL] [ LOG ]
– 100,0 [9C2EA092] [B522C61F]
01 99,1 [A9251D67] [23071952] CRC32
02 89,2 [97ABDE88] [EE408C01] CRC32
03 100,0 [DA04EF7D] [2E1D5937] CRC32
04 100,0 [C3D22758] [ADFBC9CF] CRC32
05 77,9 [E8411EB2] [FD411560] CRC32
06 99,8 [834B2B42] [B863296E] CRC32
07 98,9 [1896A6E0] [10D1A21C] CRC32
08 81,9 [D62E59E5] [3D4F8A39] CRC32
09 99,2 [FAD3B6DB] [3D371DC3] CRC32
10 93,1 [D0041469] [D23D4C7B] CRC32
11 97,3 [B8207B02] [F19471F4] CRC32
12 95,7 [8F20FE40] [4E9A73CF] CRC32
13 98,0 [47A9A99E] [74AE403A] CRC32
14 88,9 [A41BE589] [0A533A52] CRC32


The Beatles: Dr. Ebbett's MFSL Half-Speed Series (1963-1970) [2008, 14CD]

Tracklist CD08. 1967 - Sgt. Pepper's Lonely Hearts Club Band (2008 Dr. Ebbetts MFSL-1-100):

1. Sgt. Pepper's Lonely Hearts Club Band (2:02)
2. With A Little Help From My Friends (2:44)
3. Lucy In The Sky With Diamonds (3:28)
4. Getting Better (2:48)
5. Fixing A Hole (2:37)
6. She's Leaving Home (3:36)
7. Being For The Benefit Of Mr. Kite (2:37)
8. Within You Without You (5:04)
9. When I'm Sixty Four (2:37)
10. Lovely Rita (2:42)
11. Good Morning Good Morning (2:41)
12. Sgt. Pepper's Lonely Hearts Club Band (Reprise) (1:20)
13. A Day In The Life (5:15)

EAC extraction logfile from 18. October 2008, 21:37 for CD
Beatles / Sgt. Pepper's Lonely Hearts Club Band (MFSL)

Used drive : HL-DT-STDVD-RW GSA-H11N Adapter: 1 ID: 0
Read mode : Secure with NO C2, accurate stream, disable cache
Read offset correction : 667
Overread into Lead-In and Lead-Out : No

Used output format : Internal WAV Routines
44.100 Hz; 16 Bit; Stereo

Other options :
Fill up missing offset samples with silence : Yes
Delete leading and trailing silent blocks : No
Installed external ASPI interface


Track 1
Filename C:\Documents and Settings\Eric\My Documents\Downloads\The Beatles - Sgt. Pepper's (1967) [FLAC] {DESS 2008}\01 - Sgt. Pepper's Lonely Hearts Club Band.wav

Pre-gap length 0:00:02.00

Peak level 95.5 %
Track quality 99.9 %
Test CRC F3EF14DC
Copy CRC F3EF14DC
Copy OK

Track 2
Filename C:\Documents and Settings\Eric\My Documents\Downloads\The Beatles - Sgt. Pepper's (1967) [FLAC] {DESS 2008}\02 - With A Little Help From My Friends.wav

Peak level 100.0 %
Track quality 100.0 %
Test CRC 29A16659
Copy CRC 29A16659
Copy OK

Track 3
Filename C:\Documents and Settings\Eric\My Documents\Downloads\The Beatles - Sgt. Pepper's (1967) [FLAC] {DESS 2008}\03 - Lucy In The Sky With Diamonds.wav

Peak level 94.3 %
Track quality 99.9 %
Test CRC 20F504EB
Copy CRC 20F504EB
Copy OK

Track 4
Filename C:\Documents and Settings\Eric\My Documents\Downloads\The Beatles - Sgt. Pepper's (1967) [FLAC] {DESS 2008}\04 - Getting Better.wav

Peak level 98.2 %
Track quality 99.9 %
Test CRC 75C1871E
Copy CRC 75C1871E
Copy OK

Track 5
Filename C:\Documents and Settings\Eric\My Documents\Downloads\The Beatles - Sgt. Pepper's (1967) [FLAC] {DESS 2008}\05 - Fixing A Hole.wav

Peak level 98.6 %
Track quality 100.0 %
Test CRC 41AD5134
Copy CRC 41AD5134
Copy OK

Track 6
Filename C:\Documents and Settings\Eric\My Documents\Downloads\The Beatles - Sgt. Pepper's (1967) [FLAC] {DESS 2008}\06 - She's Leaving Home.wav

Peak level 74.2 %
Track quality 100.0 %
Test CRC AE89C9C0
Copy CRC AE89C9C0
Copy OK

Track 7
Filename C:\Documents and Settings\Eric\My Documents\Downloads\The Beatles - Sgt. Pepper's (1967) [FLAC] {DESS 2008}\07 - Being For The Benefit Of Mr. Kite.wav

Peak level 77.7 %
Track quality 100.0 %
Test CRC 8F635EB5
Copy CRC 8F635EB5
Copy OK

Track 8
Filename C:\Documents and Settings\Eric\My Documents\Downloads\The Beatles - Sgt. Pepper's (1967) [FLAC] {DESS 2008}\08 - Within You Without You.wav

Peak level 95.7 %
Track quality 100.0 %
Test CRC A9A4E407
Copy CRC A9A4E407
Copy OK

Track 9
Filename C:\Documents and Settings\Eric\My Documents\Downloads\The Beatles - Sgt. Pepper's (1967) [FLAC] {DESS 2008}\09 - When I'm Sixty Four.wav

Peak level 97.0 %
Track quality 100.0 %
Test CRC 90FC19BA
Copy CRC 90FC19BA
Copy OK

Track 10
Filename C:\Documents and Settings\Eric\My Documents\Downloads\The Beatles - Sgt. Pepper's (1967) [FLAC] {DESS 2008}\10 - Lovely Rita.wav

Peak level 96.2 %
Track quality 99.9 %
Test CRC D193AB0A
Copy CRC D193AB0A
Copy OK

Track 11
Filename C:\Documents and Settings\Eric\My Documents\Downloads\The Beatles - Sgt. Pepper's (1967) [FLAC] {DESS 2008}\11 - Good Morning Good Morning.wav

Peak level 95.1 %
Track quality 100.0 %
Test CRC 41B0DED5
Copy CRC 41B0DED5
Copy OK

Track 12
Filename C:\Documents and Settings\Eric\My Documents\Downloads\The Beatles - Sgt. Pepper's (1967) [FLAC] {DESS 2008}\12 - Sgt. Pepper's Lonely Hearts Club Band (Reprise).wav

Peak level 98.3 %
Track quality 100.0 %
Test CRC B0D861FA
Copy CRC B0D861FA
Copy OK

Track 13
Filename C:\Documents and Settings\Eric\My Documents\Downloads\The Beatles - Sgt. Pepper's (1967) [FLAC] {DESS 2008}\13 - A Day In The Life.wav

Peak level 77.1 %
Track quality 100.0 %
Test CRC 1BC44EB2
Copy CRC 1BC44EB2
Copy OK

No errors occured


End of status report


[CUETools log; Date: 12.01.2020 19:56:58; Version: 2.1.6]
[CTDB TOCID: 862mI3.JX5FUuu2NOFcJIMxS4Ls-] found.
Track | CTDB Status
1 | (5/5) Accurately ripped
2 | (5/5) Accurately ripped
3 | (5/5) Accurately ripped
4 | (5/5) Accurately ripped
5 | (5/5) Accurately ripped
6 | (5/5) Accurately ripped
7 | (5/5) Accurately ripped
8 | (5/5) Accurately ripped
9 | (5/5) Accurately ripped
10 | (5/5) Accurately ripped
11 | (5/5) Accurately ripped
12 | (5/5) Accurately ripped
13 | (5/5) Accurately ripped
[AccurateRip ID: 00124804-00b9055b-ba09440d] found.
Track [ CRC | V2 ] Status
01 [f09def35|8bf840ee] (0+0/4) No match
02 [0cde8685|0d3b8c7e] (0+0/4) No match
03 [8dc5a58e|b9306bf4] (0+0/4) No match
04 [b6f20638|1c8717e7] (0+0/4) No match
05 [bb25c06d|ccca8aea] (0+0/4) No match
06 [86b3ce7d|798ac7ff] (0+0/4) No match
07 [9db49196|b3ff0838] (0+0/4) No match
08 [47d6b272|701f18f0] (0+0/2) No match
09 [ff9aab49|ef9272bb] (0+0/4) No match
10 [0408ecb2|bf0e926b] (0+0/4) No match
11 [8a5865be|a8e53ad1] (0+0/4) No match
12 [37916bda|64c84e7c] (0+0/4) No match
13 [1dc31399|9767b609] (0+0/4) No match
Offsetted by -30:
01 [04dde965] (0/4) No match (V2 was not tested)
02 [a2125469] (0/4) No match (V2 was not tested)
03 [78f99c8d] (0/4) No match (V2 was not tested)
04 [d59951eb] (0/4) No match (V2 was not tested)
05 [f66f6e6f] (0/4) No match (V2 was not tested)
06 [d82e28dc] (0/4) No match (V2 was not tested)
07 [ee27cd48] (0/4) No match (V2 was not tested)
08 [f4e78dd1] (0/2) No match (V2 was not tested)
09 [fade09f7] (0/4) No match (V2 was not tested)
10 [f0e6d1bb] (0/4) No match (V2 was not tested)
11 [5ea79f1c] (0/4) No match (V2 was not tested)
12 [a290ed24] (0/4) No match (V2 was not tested)
13 [529c8b5a] (0/4) No match (V2 was not tested)
Offsetted by -18:
01 [a561dd3a] (2/4) Accurately ripped
02 [b490cf47] (2/4) Accurately ripped
03 [5082a1ec] (2/4) Accurately ripped
04 [52d89635] (2/4) Accurately ripped
05 [d2f5158d] (2/4) Accurately ripped
06 [588a0734] (2/4) Accurately ripped
07 [55c413e2] (2/4) Accurately ripped
08 [9f79ce92] (0/2) No match (V2 was not tested)
09 [f744800f] (2/4) Accurately ripped
10 [65676903] (2/4) Accurately ripped
11 [65f505ef] (2/4) Accurately ripped
12 [1a21ec97] (2/4) Accurately ripped
13 [b33994d9] (2/4) Accurately ripped

Track Peak [ CRC32 ] [W/O NULL] [ LOG ]
– 100,0 [892D82A3] [946683D3]
01 95,5 [F3EF14DC] [2BD17A5E] CRC32
02 100,0 [29A16659] [1E66423D] CRC32
03 94,3 [20F504EB] [8EFB7E4C] CRC32
04 98,2 [75C1871E] [1E3943AC] CRC32
05 98,6 [41AD5134] [35283B18] CRC32
06 74,2 [AE89C9C0] [4AC8CF6E] CRC32
07 77,7 [8F635EB5] [CB703469] CRC32
08 95,7 [A9A4E407] [32CAE579] CRC32
09 97,0 [90FC19BA] [631BF519] CRC32
10 96,2 [D193AB0A] [E731EB8E] CRC32
11 95,1 [41B0DED5] [1D6C06B4] CRC32
12 98,3 [B0D861FA] [B52E6654] CRC32
13 77,1 [1BC44EB2] [1463192D] CRC32


The Beatles: Dr. Ebbett's MFSL Half-Speed Series (1963-1970) [2008, 14CD]

Tracklist CD09. 1967 - Magical Mystery Tour (2008 Dr. Ebbetts MFSL Japan MFSL-1-047):

1. Magical Mystery Tour (2:49)
2. The Fool On The Hill (2:56)
3. Flying (2:16)
4. Blue Jay Way (3:52)
5. Your Mother Should Know (2:27)
6. I Am The Walrus (4:34)
7. Hello Goodbye (3:28)
8. Strawberry Fields Forever (4:07)
9. Penny Lane (2:59)
10. Baby You're A Rich Man (3:05)
11. All You Need Is Love (4:01)

EAC extraction logfile from 20. October 2008, 18:43 for CD
Beatles / Magical Mystery Tour (MFSL)

Used drive : HL-DT-STDVD-RW GSA-H11N Adapter: 1 ID: 0
Read mode : Secure with NO C2, accurate stream, disable cache
Read offset correction : 667
Overread into Lead-In and Lead-Out : No

Used output format : Internal WAV Routines
44.100 Hz; 16 Bit; Stereo

Other options :
Fill up missing offset samples with silence : Yes
Delete leading and trailing silent blocks : No
Installed external ASPI interface


Track 1
Filename C:\Documents and Settings\Eric\My Documents\Downloads\The Beatles - Magical Mystery Tour (1967) [FLAC] {DESS 2008}\01 - Magical Mystery Tour.wav

Pre-gap length 0:00:02.00

Peak level 97.0 %
Track quality 100.0 %
Test CRC D4AAAD2C
Copy CRC D4AAAD2C
Copy OK

Track 2
Filename C:\Documents and Settings\Eric\My Documents\Downloads\The Beatles - Magical Mystery Tour (1967) [FLAC] {DESS 2008}\02 - The Fool On The Hill.wav

Peak level 86.6 %
Track quality 100.0 %
Test CRC EB74E62D
Copy CRC EB74E62D
Copy OK

Track 3
Filename C:\Documents and Settings\Eric\My Documents\Downloads\The Beatles - Magical Mystery Tour (1967) [FLAC] {DESS 2008}\03 - Flying.wav

Peak level 96.6 %
Track quality 100.0 %
Test CRC 10657C76
Copy CRC 10657C76
Copy OK

Track 4
Filename C:\Documents and Settings\Eric\My Documents\Downloads\The Beatles - Magical Mystery Tour (1967) [FLAC] {DESS 2008}\04 - Blue Jay Way.wav

Peak level 100.0 %
Track quality 100.0 %
Test CRC 7BF67210
Copy CRC 7BF67210
Copy OK

Track 5
Filename C:\Documents and Settings\Eric\My Documents\Downloads\The Beatles - Magical Mystery Tour (1967) [FLAC] {DESS 2008}\05 - Your Mother Should Know.wav

Peak level 90.5 %
Track quality 100.0 %
Test CRC 0454BC63
Copy CRC 0454BC63
Copy OK

Track 6
Filename C:\Documents and Settings\Eric\My Documents\Downloads\The Beatles - Magical Mystery Tour (1967) [FLAC] {DESS 2008}\06 - I Am The Walrus.wav

Peak level 98.9 %
Track quality 100.0 %
Test CRC FBE179F9
Copy CRC FBE179F9
Copy OK

Track 7
Filename C:\Documents and Settings\Eric\My Documents\Downloads\The Beatles - Magical Mystery Tour (1967) [FLAC] {DESS 2008}\07 - Hello Goodbye.wav

Peak level 98.5 %
Track quality 100.0 %
Test CRC 09551C98
Copy CRC 09551C98
Copy OK

Track 8
Filename C:\Documents and Settings\Eric\My Documents\Downloads\The Beatles - Magical Mystery Tour (1967) [FLAC] {DESS 2008}\08 - Strawberry Fields Forever.wav

Peak level 98.6 %
Track quality 100.0 %
Test CRC 657A90DB
Copy CRC 657A90DB
Copy OK

Track 9
Filename C:\Documents and Settings\Eric\My Documents\Downloads\The Beatles - Magical Mystery Tour (1967) [FLAC] {DESS 2008}\09 - Penny Lane.wav

Peak level 75.5 %
Track quality 100.0 %
Test CRC 371C17AC
Copy CRC 371C17AC
Copy OK

Track 10
Filename C:\Documents and Settings\Eric\My Documents\Downloads\The Beatles - Magical Mystery Tour (1967) [FLAC] {DESS 2008}\10 - Baby You're A Rich Man.wav

Peak level 90.3 %
Track quality 100.0 %
Test CRC 87A0A51B
Copy CRC 87A0A51B
Copy OK

Track 11
Filename C:\Documents and Settings\Eric\My Documents\Downloads\The Beatles - Magical Mystery Tour (1967) [FLAC] {DESS 2008}\11 - All You Need Is Love.wav

Peak level 80.0 %
Track quality 100.0 %
Test CRC D638F76C
Copy CRC D638F76C
Copy OK

No errors occured


End of status report


[CUETools log; Date: 12.01.2020 19:55:01; Version: 2.1.6]
[CTDB TOCID: S3E.dWb1838uX3CKIFvSzV.C8z8-] found.
Track | CTDB Status
1 | (3/3) Accurately ripped
2 | (3/3) Accurately ripped
3 | (3/3) Accurately ripped
4 | (3/3) Accurately ripped
5 | (3/3) Accurately ripped
6 | (3/3) Accurately ripped
7 | (3/3) Accurately ripped
8 | (3/3) Accurately ripped
9 | (3/3) Accurately ripped
10 | (3/3) Accurately ripped
11 | (3/3) Accurately ripped
[AccurateRip ID: 000e5a17-007e5e51-8e08900b] found.
Track [ CRC | V2 ] Status
01 [1dfc3b9f|c452346c] (2+0/2) Accurately ripped
02 [e7448b07|4eedc1e6] (1+1/4) Accurately ripped
03 [119eee97|917c6279] (1+1/3) Accurately ripped
04 [a5f7eb54|3bf02580] (1+1/3) Accurately ripped
05 [605ba51d|6b66915d] (1+1/4) Accurately ripped
06 [7ad3976f|2700fb0a] (1+1/4) Accurately ripped
07 [dc96dd6c|39f2a04f] (1+1/4) Accurately ripped
08 [68658c14|5d7c4524] (1+1/4) Accurately ripped
09 [c06b20c4|08ce3d95] (1+1/4) Accurately ripped
10 [8837b3f7|aa2755bc] (1+1/3) Accurately ripped
11 [cc42f60a|0a15a093] (1+1/4) Accurately ripped
Offsetted by -18:
01 [301e21e3] (0/2) No match
02 [358d8d4d] (1/4) Accurately ripped
03 [68b0b1b4] (1/3) Accurately ripped
04 [d8948736] (1/3) Accurately ripped
05 [13b9c41a] (1/4) Accurately ripped
06 [97bb96b0] (1/4) Accurately ripped
07 [7431d7e7] (1/4) Accurately ripped
08 [79c7be02] (1/4) Accurately ripped
09 [9f6e0be8] (1/4) Accurately ripped
10 [0e20daad] (1/3) Accurately ripped
11 [b5ca960b] (1/4) Accurately ripped
Offsetted by 6:
01 [388c4f57] (0/2) No match
02 [ca8f1350] (1/4) Accurately ripped
03 [b270f2ff] (0/3) No match
04 [a11a0ec1] (0/3) No match
05 [2e5b4870] (1/4) Accurately ripped
06 [949b71b4] (1/4) Accurately ripped
07 [dc60ee33] (1/4) Accurately ripped
08 [3ea496a4] (1/4) Accurately ripped
09 [551e6ac2] (1/4) Accurately ripped
10 [a01e621a] (0/3) No match
11 [9ad15e53] (1/4) Accurately ripped

Track Peak [ CRC32 ] [W/O NULL] [ LOG ]
– 100,0 [CEDE6CE8] [026E13C1]
01 97,0 [D4AAAD2C] [4D54696B] CRC32
02 86,6 [EB74E62D] [6D2096AE] CRC32
03 96,6 [10657C76] [932ED01E] CRC32
04 100,0 [7BF67210] [906B006B] CRC32
05 90,5 [0454BC63] [016D8B44] CRC32
06 98,9 [FBE179F9] [50732FDE] CRC32
07 98,5 [09551C98] [45AEFDA2] CRC32
08 98,6 [657A90DB] [6492A5C0] CRC32
09 75,5 [371C17AC] [33CB5784] CRC32
10 90,3 [87A0A51B] [C982D3A4] CRC32
11 80,0 [D638F76C] [56A61004] CRC32


The Beatles: Dr. Ebbett's MFSL Half-Speed Series (1963-1970) [2008, 14CD]

Tracklist CD10-11. 1968 - The Beatles (2008 Dr. Ebbetts MFSL Japan MFSL-2-072-AB):

1. Back In The U.S.S.R (2:43)
2. Dear Prudence (3:54)
3. Glass Onion (2:17)
4. Ob-La-Di, Ob-La-Da (3:08)
5. Wild Honey Pie (0:53)
6. The Continuing Story Of Bungalow Bill (3:14)
7. While My Guitar Gently Weeps (4:46)
8. Happiness Is A Warm Gun (2:44)
9. Martha My Dear (2:28)
10. I'm So Tired (2:03)
11. Blackbird (2:18)
12. Piggies (2:04)
13. Rocky Raccoon (3:32)
14. Don't Pass Me By (3:50)
15. Why Don't We Do It In The Road (1:41)
16. I Will (1:46)
17. Julia (2:55)

EAC extraction logfile from 21. October 2008, 21:16 for CD
Beatles / The Beatles (MFSL) (Disc 1)

Used drive : HL-DT-STDVD-RW GSA-H11N Adapter: 1 ID: 0
Read mode : Secure with NO C2, accurate stream, disable cache
Read offset correction : 667
Overread into Lead-In and Lead-Out : No

Used output format : Internal WAV Routines
44.100 Hz; 16 Bit; Stereo

Other options :
Fill up missing offset samples with silence : Yes
Delete leading and trailing silent blocks : No
Installed external ASPI interface


Track 1
Filename C:\Documents and Settings\Eric\My Documents\Downloads\The Beatles - The Beatles aka White Album (1968) [FLAC] {Doctor Ebbetts DESS 2008}\Disc 1\01 - Back In The U.S.S.R..wav

Pre-gap length 0:00:02.00

Peak level 79.2 %
Track quality 100.0 %
Test CRC 782FD8AA
Copy CRC 782FD8AA
Copy OK

Track 2
Filename C:\Documents and Settings\Eric\My Documents\Downloads\The Beatles - The Beatles aka White Album (1968) [FLAC] {Doctor Ebbetts DESS 2008}\Disc 1\02 - Dear Prudence.wav

Peak level 77.4 %
Track quality 99.9 %
Test CRC 40EBCF6C
Copy CRC 40EBCF6C
Copy OK

Track 3
Filename C:\Documents and Settings\Eric\My Documents\Downloads\The Beatles - The Beatles aka White Album (1968) [FLAC] {Doctor Ebbetts DESS 2008}\Disc 1\03 - Glass Onion.wav

Peak level 98.3 %
Track quality 100.0 %
Test CRC 6F94C877
Copy CRC 6F94C877
Copy OK

Track 4
Filename C:\Documents and Settings\Eric\My Documents\Downloads\The Beatles - The Beatles aka White Album (1968) [FLAC] {Doctor Ebbetts DESS 2008}\Disc 1\04 - Ob-La-Di, Ob-La-Da.wav

Peak level 70.5 %
Track quality 100.0 %
Test CRC 7FEC82BA
Copy CRC 7FEC82BA
Copy OK

Track 5
Filename C:\Documents and Settings\Eric\My Documents\Downloads\The Beatles - The Beatles aka White Album (1968) [FLAC] {Doctor Ebbetts DESS 2008}\Disc 1\05 - Wild Honey Pie.wav

Peak level 97.5 %
Track quality 100.0 %
Test CRC B37B7473
Copy CRC B37B7473
Copy OK

Track 6
Filename C:\Documents and Settings\Eric\My Documents\Downloads\The Beatles - The Beatles aka White Album (1968) [FLAC] {Doctor Ebbetts DESS 2008}\Disc 1\06 - The Continuing Story Of Bungalow Bill.wav

Peak level 95.1 %
Track quality 100.0 %
Test CRC 6E03A0CE
Copy CRC 6E03A0CE
Copy OK

Track 7
Filename C:\Documents and Settings\Eric\My Documents\Downloads\The Beatles - The Beatles aka White Album (1968) [FLAC] {Doctor Ebbetts DESS 2008}\Disc 1\07 - While My Guitar Gently Weeps.wav

Peak level 100.0 %
Track quality 99.9 %
Test CRC 4387BB79
Copy CRC 4387BB79
Copy OK

Track 8
Filename C:\Documents and Settings\Eric\My Documents\Downloads\The Beatles - The Beatles aka White Album (1968) [FLAC] {Doctor Ebbetts DESS 2008}\Disc 1\08 - Happiness Is A Warm Gun.wav

Peak level 98.0 %
Track quality 100.0 %
Test CRC F42B46FB
Copy CRC F42B46FB
Copy OK

Track 9
Filename C:\Documents and Settings\Eric\My Documents\Downloads\The Beatles - The Beatles aka White Album (1968) [FLAC] {Doctor Ebbetts DESS 2008}\Disc 1\09 - Martha My Dear.wav

Peak level 99.3 %
Track quality 100.0 %
Test CRC BE279E06
Copy CRC BE279E06
Copy OK

Track 10
Filename C:\Documents and Settings\Eric\My Documents\Downloads\The Beatles - The Beatles aka White Album (1968) [FLAC] {Doctor Ebbetts DESS 2008}\Disc 1\10 - I'm So Tired.wav

Peak level 98.9 %
Track quality 100.0 %
Test CRC AE5D9C57
Copy CRC AE5D9C57
Copy OK

Track 11
Filename C:\Documents and Settings\Eric\My Documents\Downloads\The Beatles - The Beatles aka White Album (1968) [FLAC] {Doctor Ebbetts DESS 2008}\Disc 1\11 - Blackbird.wav

Peak level 63.2 %
Track quality 100.0 %
Test CRC 193A26B2
Copy CRC 193A26B2
Copy OK

Track 12
Filename C:\Documents and Settings\Eric\My Documents\Downloads\The Beatles - The Beatles aka White Album (1968) [FLAC] {Doctor Ebbetts DESS 2008}\Disc 1\12 - Piggies.wav

Peak level 98.6 %
Track quality 100.0 %
Test CRC 51962352
Copy CRC 51962352
Copy OK

Track 13
Filename C:\Documents and Settings\Eric\My Documents\Downloads\The Beatles - The Beatles aka White Album (1968) [FLAC] {Doctor Ebbetts DESS 2008}\Disc 1\13 - Rocky Raccoon.wav

Peak level 99.5 %
Track quality 100.0 %
Test CRC AA9CCD56
Copy CRC AA9CCD56
Copy OK

Track 14
Filename C:\Documents and Settings\Eric\My Documents\Downloads\The Beatles - The Beatles aka White Album (1968) [FLAC] {Doctor Ebbetts DESS 2008}\Disc 1\14 - Don't Pass Me By.wav

Peak level 91.6 %
Track quality 100.0 %
Test CRC 4FF5CD38
Copy CRC 4FF5CD38
Copy OK

Track 15
Filename C:\Documents and Settings\Eric\My Documents\Downloads\The Beatles - The Beatles aka White Album (1968) [FLAC] {Doctor Ebbetts DESS 2008}\Disc 1\15 - Why Don't We Do It In The Road.wav

Peak level 100.0 %
Track quality 100.0 %
Test CRC 4218748C
Copy CRC 4218748C
Copy OK

Track 16
Filename C:\Documents and Settings\Eric\My Documents\Downloads\The Beatles - The Beatles aka White Album (1968) [FLAC] {Doctor Ebbetts DESS 2008}\Disc 1\16 - I Will.wav

Peak level 96.6 %
Track quality 100.0 %
Test CRC EC489298
Copy CRC EC489298
Copy OK

Track 17
Filename C:\Documents and Settings\Eric\My Documents\Downloads\The Beatles - The Beatles aka White Album (1968) [FLAC] {Doctor Ebbetts DESS 2008}\Disc 1\17 - Julia.wav

Peak level 61.8 %
Track quality 100.0 %
Test CRC 0012D1BE
Copy CRC 0012D1BE
Copy OK

No errors occured


End of status report


[CUETools log; Date: 12.01.2020 19:59:05; Version: 2.1.6]
[CTDB TOCID: rjZrFhNoqx72Jn9ky5DRcSRgopY-] found.
Track | CTDB Status
1 | (2/2) Accurately ripped
2 | (2/2) Accurately ripped
3 | (2/2) Accurately ripped
4 | (2/2) Accurately ripped
5 | (2/2) Accurately ripped
6 | (2/2) Accurately ripped
7 | (2/2) Accurately ripped
8 | (2/2) Accurately ripped
9 | (2/2) Accurately ripped
10 | (2/2) Accurately ripped
11 | (2/2) Accurately ripped
12 | (2/2) Accurately ripped
13 | (2/2) Accurately ripped
14 | (2/2) Accurately ripped
15 | (2/2) Accurately ripped
16 | (2/2) Accurately ripped
17 | (2/2) Accurately ripped
[AccurateRip ID: 001d6d5f-01724349-0a0ad911] found.
Track [ CRC | V2 ] Status
01 [82a6d233|9d7738b5] (0+2/2) Accurately ripped
02 [f7fe5cbc|948d3607] (0+2/2) Accurately ripped
03 [fe46e37c|b8e59280] (0+2/2) Accurately ripped
04 [e9f9c8a3|bd17def7] (0+2/2) Accurately ripped
05 [05d24f97|6b611027] (0+2/2) Accurately ripped
06 [ab77e32c|47564719] (0+2/2) Accurately ripped
07 [7d5d550e|e6bbdec0] (0+2/2) Accurately ripped
08 [f4432cde|d399a599] (0+2/2) Accurately ripped
09 [09c3d471|931ea53a] (0+2/2) Accurately ripped
10 [e90cb988|7d6db5a7] (0+2/2) Accurately ripped
11 [1b42e066|abedb3c9] (0+2/2) Accurately ripped
12 [f950e36d|dda4dbe7] (0+2/2) Accurately ripped
13 [31f890e9|207d3cf3] (0+2/2) Accurately ripped
14 [ee162936|169d3c38] (0+2/2) Accurately ripped
15 [495f2b17|0cd9a6c3] (0+2/2) Accurately ripped
16 [901ebde5|1e35ec93] (0+2/2) Accurately ripped
17 [e432109e|30a1e6cf] (0+2/2) Accurately ripped

Track Peak [ CRC32 ] [W/O NULL] [ LOG ]
– 100,0 [C281E484] [E4D21DB9]
01 79,2 [782FD8AA] [EB4C6F4C] CRC32
02 77,4 [40EBCF6C] [FDC46290] CRC32
03 98,3 [6F94C877] [6B017A3B] CRC32
04 70,5 [7FEC82BA] [181CE3DC] CRC32
05 97,5 [B37B7473] [CA34B7F3] CRC32
06 95,1 [6E03A0CE] [E47453C2] CRC32
07 100,0 [4387BB79] [9D649E3F] CRC32
08 98,0 [F42B46FB] [5C242D8A] CRC32
09 99,3 [BE279E06] [5EFB603C] CRC32
10 98,9 [AE5D9C57] [C2B1CF1B] CRC32
11 63,2 [193A26B2] [93541F01] CRC32
12 98,6 [51962352] [28D034E7] CRC32
13 99,5 [AA9CCD56] [869CA832] CRC32
14 91,6 [4FF5CD38] [43EBC287] CRC32
15 100,0 [4218748C] [4948E882] CRC32
16 96,6 [EC489298] [66C01837] CRC32
17 61,8 [0012D1BE] [8992274E] CRC32



1. Birthday (2:43)
2. Yer Blues (4:00)
3. Mother Nature's Son (2:47)
4. Everybody's Got Something To Hide Except Me And My Monkey (2:24)
5. Sexy Sadie (3:15)
6. Helter Skelter (4:29)
7. Long, Long, Long (3:04)
8. Revolution 1 (4:15)
9. Honey Pie (2:41)
10. Savoy Truffle (2:55)
11. Cry Baby Cry (3:01)
12. Revolution 9 (8:21)
13. Good Night (3:14)

EAC extraction logfile from 21. October 2008, 21:34 for CD
Beatles / The Beatles (Mfsl Lp) (Disc 2)

Used drive : HL-DT-STDVD-RW GSA-H11N Adapter: 1 ID: 1
Read mode : Secure with NO C2, accurate stream, disable cache
Read offset correction : 667
Overread into Lead-In and Lead-Out : No

Used output format : Internal WAV Routines
44.100 Hz; 16 Bit; Stereo

Other options :
Fill up missing offset samples with silence : Yes
Delete leading and trailing silent blocks : No
Installed external ASPI interface


Track 1
Filename C:\Documents and Settings\Eric\My Documents\Downloads\The Beatles - The Beatles aka White Album (1968) [FLAC] {Doctor Ebbetts DESS 2008}\Disc 2\01 - Birthday.wav

Pre-gap length 0:00:02.00

Peak level 98.2 %
Track quality 100.0 %
Test CRC 118D4C90
Copy CRC 118D4C90
Copy OK

Track 2
Filename C:\Documents and Settings\Eric\My Documents\Downloads\The Beatles - The Beatles aka White Album (1968) [FLAC] {Doctor Ebbetts DESS 2008}\Disc 2\02 - Yer Blues.wav

Peak level 100.0 %
Track quality 100.0 %
Test CRC 5F8CE739
Copy CRC 5F8CE739
Copy OK

Track 3
Filename C:\Documents and Settings\Eric\My Documents\Downloads\The Beatles - The Beatles aka White Album (1968) [FLAC] {Doctor Ebbetts DESS 2008}\Disc 2\03 - Mother Nature's Son.wav

Peak level 80.8 %
Track quality 100.0 %
Test CRC D59DF571
Copy CRC D59DF571
Copy OK

Track 4
Filename C:\Documents and Settings\Eric\My Documents\Downloads\The Beatles - The Beatles aka White Album (1968) [FLAC] {Doctor Ebbetts DESS 2008}\Disc 2\04 - Everybody's Got Something To Hide Except Me And My Monkey.wav

Peak level 98.4 %
Track quality 100.0 %
Test CRC A3C6B553
Copy CRC A3C6B553
Copy OK

Track 5
Filename C:\Documents and Settings\Eric\My Documents\Downloads\The Beatles - The Beatles aka White Album (1968) [FLAC] {Doctor Ebbetts DESS 2008}\Disc 2\05 - Sexy Sadie.wav

Peak level 96.7 %
Track quality 100.0 %
Test CRC CC3DBD72
Copy CRC CC3DBD72
Copy OK

Track 6
Filename C:\Documents and Settings\Eric\My Documents\Downloads\The Beatles - The Beatles aka White Album (1968) [FLAC] {Doctor Ebbetts DESS 2008}\Disc 2\06 - Helter Skelter.wav

Peak level 83.4 %
Track quality 100.0 %
Test CRC 8138C179
Copy CRC 8138C179
Copy OK

Track 7
Filename C:\Documents and Settings\Eric\My Documents\Downloads\The Beatles - The Beatles aka White Album (1968) [FLAC] {Doctor Ebbetts DESS 2008}\Disc 2\07 - Long, Long, Long.wav

Peak level 75.6 %
Track quality 100.0 %
Test CRC 99960B27
Copy CRC 99960B27
Copy OK

Track 8
Filename C:\Documents and Settings\Eric\My Documents\Downloads\The Beatles - The Beatles aka White Album (1968) [FLAC] {Doctor Ebbetts DESS 2008}\Disc 2\08 - Revolution 1.wav

Peak level 90.6 %
Track quality 99.9 %
Test CRC E793248B
Copy CRC E793248B
Copy OK

Track 9
Filename C:\Documents and Settings\Eric\My Documents\Downloads\The Beatles - The Beatles aka White Album (1968) [FLAC] {Doctor Ebbetts DESS 2008}\Disc 2\09 - Honey Pie.wav

Peak level 70.2 %
Track quality 100.0 %
Test CRC BDAF4172
Copy CRC BDAF4172
Copy OK

Track 10
Filename C:\Documents and Settings\Eric\My Documents\Downloads\The Beatles - The Beatles aka White Album (1968) [FLAC] {Doctor Ebbetts DESS 2008}\Disc 2\10 - Savoy Truffle.wav

Peak level 91.1 %
Track quality 100.0 %
Test CRC 529BF995
Copy CRC 529BF995
Copy OK

Track 11
Filename C:\Documents and Settings\Eric\My Documents\Downloads\The Beatles - The Beatles aka White Album (1968) [FLAC] {Doctor Ebbetts DESS 2008}\Disc 2\11 - Cry Baby Cry.wav

Peak level 98.7 %
Track quality 99.9 %
Test CRC 6D89BFF1
Copy CRC 6D89BFF1
Copy OK

Track 12
Filename C:\Documents and Settings\Eric\My Documents\Downloads\The Beatles - The Beatles aka White Album (1968) [FLAC] {Doctor Ebbetts DESS 2008}\Disc 2\12 - Revolution 9.wav

Peak level 63.4 %
Track quality 99.9 %
Test CRC 315044C7
Copy CRC 315044C7
Copy OK

Track 13
Filename C:\Documents and Settings\Eric\My Documents\Downloads\The Beatles - The Beatles aka White Album (1968) [FLAC] {Doctor Ebbetts DESS 2008}\Disc 2\13 - Good Night.wav

Peak level 49.0 %
Track quality 100.0 %
Test CRC 22626513
Copy CRC 22626513
Copy OK

No errors occured


End of status report


[CUETools log; Date: 12.01.2020 20:01:27; Version: 2.1.6]
[CTDB TOCID: rA8rtW2ttkn_Xm0uHZLkcEuiP1c-] found.
Track | CTDB Status
1 | (2/2) Accurately ripped
2 | (2/2) Accurately ripped
3 | (2/2) Accurately ripped
4 | (2/2) Accurately ripped
5 | (2/2) Accurately ripped
6 | (2/2) Accurately ripped
7 | (2/2) Accurately ripped
8 | (2/2) Accurately ripped
9 | (2/2) Accurately ripped
10 | (2/2) Accurately ripped
11 | (2/2) Accurately ripped
12 | (2/2) Accurately ripped
13 | (2/2) Accurately ripped
[AccurateRip ID: 0014e25f-00d40cf8-a50b0c0d] found.
Track [ CRC | V2 ] Status
01 [47783ef4|915dbf92] (0+2/2) Accurately ripped
02 [7e959df3|ae9ab0e2] (0+2/2) Accurately ripped
03 [62a740ef|0d20898e] (0+2/2) Accurately ripped
04 [86ab3ea2|1e54a0cf] (0+2/2) Accurately ripped
05 [5a7f0063|a418866c] (0+2/2) Accurately ripped
06 [dc5dc234|989c034f] (0+2/2) Accurately ripped
07 [8ac47c6f|45862a90] (0+2/2) Accurately ripped
08 [174da4b3|5df9d202] (0+2/2) Accurately ripped
09 [76cddc7a|a9833159] (0+2/2) Accurately ripped
10 [9ee9de24|51f28c9d] (0+2/2) Accurately ripped
11 [b2a59d90|5c03857a] (0+2/2) Accurately ripped
12 [e30e2c0d|113a9421] (0+2/2) Accurately ripped
13 [a2a33074|ef80a2b8] (0+2/2) Accurately ripped

Track Peak [ CRC32 ] [W/O NULL] [ LOG ]
– 99,9 [5D69F3EA] [0A172F51]
01 98,2 [118D4C90] [2EA65594] CRC32
02 99,9 [5F8CE739] [2706C821] CRC32
03 80,8 [D59DF571] [ED8765C0] CRC32
04 98,4 [A3C6B553] [E407338E] CRC32
05 96,7 [CC3DBD72] [FB4BCB4B] CRC32
06 83,4 [8138C179] [F3374183] CRC32
07 75,6 [99960B27] [D932C05A] CRC32
08 90,6 [E793248B] [8F23D2F8] CRC32
09 70,2 [BDAF4172] [4F7AA095] CRC32
10 91,1 [529BF995] [C6C441D5] CRC32
11 98,7 [6D89BFF1] [3373AE27] CRC32
12 63,4 [315044C7] [C1D83C00] CRC32
13 49,0 [22626513] [CAB7586F] CRC32


The Beatles: Dr. Ebbett's MFSL Half-Speed Series (1963-1970) [2008, 14CD]

Tracklist CD12. 1969 - Abbey Road (2008 Dr. Ebbetts MFSL Japan MFSL-1-023):

1. Come Together (4:21)
2. Something (3:04)
3. Maxwell's Silver Hammer (3:29)
4. Oh! Darling (3:27)
5. Octopus's Garden (2:53)
6. I Want You (She's So Heavy) (7:46)
7. Here Comes The Sun (3:05)
8. Because (2:45)
9. You Never Give Me Your Money (4:02)
10. Sun King (2:26)
11. Mean Mr. Mustard (1:06)
12. Polythene Pam (1:13)
13. She Came In Through The Bathroom Window (1:59)
14. Golden Slumbers (1:31)
15. Carry That Weight (1:36)
16. The End (2:23)
17. Her Majesty (0:26)

EAC extraction logfile from 24. October 2008, 17:09 for CD
The Beatles / Abbey Road (MFSL)

Used drive : HL-DT-STDVD-RW GSA-H11N Adapter: 1 ID: 0
Read mode : Secure with NO C2, accurate stream, disable cache
Read offset correction : 667
Overread into Lead-In and Lead-Out : No

Used output format : Internal WAV Routines
44.100 Hz; 16 Bit; Stereo

Other options :
Fill up missing offset samples with silence : Yes
Delete leading and trailing silent blocks : No
Installed external ASPI interface


Track 1
Filename C:\Documents and Settings\Eric\My Documents\Downloads\The Beatles - Abbey Road (1969) [FLAC] {Doctor Ebbetts 2008 MFSL}\01 - Come Together.wav

Pre-gap length 0:00:02.00

Peak level 98.8 %
Track quality 100.0 %
Test CRC D540DB59
Copy CRC D540DB59
Copy OK

Track 2
Filename C:\Documents and Settings\Eric\My Documents\Downloads\The Beatles - Abbey Road (1969) [FLAC] {Doctor Ebbetts 2008 MFSL}\02 - Something.wav

Peak level 96.6 %
Track quality 100.0 %
Test CRC B7173FE4
Copy CRC B7173FE4
Copy OK

Track 3
Filename C:\Documents and Settings\Eric\My Documents\Downloads\The Beatles - Abbey Road (1969) [FLAC] {Doctor Ebbetts 2008 MFSL}\03 - Maxwell's Silver Hammer.wav

Peak level 96.2 %
Track quality 99.9 %
Test CRC E24E9AEA
Copy CRC E24E9AEA
Copy OK

Track 4
Filename C:\Documents and Settings\Eric\My Documents\Downloads\The Beatles - Abbey Road (1969) [FLAC] {Doctor Ebbetts 2008 MFSL}\04 - Oh! Darling.wav

Peak level 100.0 %
Track quality 100.0 %
Test CRC 1C2F3BD2
Copy CRC 1C2F3BD2
Copy OK

Track 5
Filename C:\Documents and Settings\Eric\My Documents\Downloads\The Beatles - Abbey Road (1969) [FLAC] {Doctor Ebbetts 2008 MFSL}\05 - Octopus's Garden.wav

Peak level 99.1 %
Track quality 100.0 %
Test CRC 21D30840
Copy CRC 21D30840
Copy OK

Track 6
Filename C:\Documents and Settings\Eric\My Documents\Downloads\The Beatles - Abbey Road (1969) [FLAC] {Doctor Ebbetts 2008 MFSL}\06 - I Want You (She's So Heavy).wav

Peak level 99.2 %
Track quality 100.0 %
Test CRC 6857F8E3
Copy CRC 6857F8E3
Copy OK

Track 7
Filename C:\Documents and Settings\Eric\My Documents\Downloads\The Beatles - Abbey Road (1969) [FLAC] {Doctor Ebbetts 2008 MFSL}\07 - Here Comes The Sun.wav

Peak level 99.9 %
Track quality 100.0 %
Test CRC 6992D51B
Copy CRC 6992D51B
Copy OK

Track 8
Filename C:\Documents and Settings\Eric\My Documents\Downloads\The Beatles - Abbey Road (1969) [FLAC] {Doctor Ebbetts 2008 MFSL}\08 - Because.wav

Peak level 64.0 %
Track quality 100.0 %
Test CRC 5D2DE380
Copy CRC 5D2DE380
Copy OK

Track 9
Filename C:\Documents and Settings\Eric\My Documents\Downloads\The Beatles - Abbey Road (1969) [FLAC] {Doctor Ebbetts 2008 MFSL}\09 - You Never Give Me Your Money.wav

Peak level 93.4 %
Track quality 100.0 %
Test CRC F372957F
Copy CRC F372957F
Copy OK

Track 10
Filename C:\Documents and Settings\Eric\My Documents\Downloads\The Beatles - Abbey Road (1969) [FLAC] {Doctor Ebbetts 2008 MFSL}\10 - Sun King.wav

Peak level 85.7 %
Track quality 100.0 %
Test CRC FFD68242
Copy CRC FFD68242
Copy OK

Track 11
Filename C:\Documents and Settings\Eric\My Documents\Downloads\The Beatles - Abbey Road (1969) [FLAC] {Doctor Ebbetts 2008 MFSL}\11 - Mean Mr. Mustard.wav

Peak level 97.5 %
Track quality 100.0 %
Test CRC 38432E7A
Copy CRC 38432E7A
Copy OK

Track 12
Filename C:\Documents and Settings\Eric\My Documents\Downloads\The Beatles - Abbey Road (1969) [FLAC] {Doctor Ebbetts 2008 MFSL}\12 - Polythene Pam.wav

Peak level 94.2 %
Track quality 100.0 %
Test CRC CA21C967
Copy CRC CA21C967
Copy OK

Track 13
Filename C:\Documents and Settings\Eric\My Documents\Downloads\The Beatles - Abbey Road (1969) [FLAC] {Doctor Ebbetts 2008 MFSL}\13 - She Came In Through The Bathroom Window.wav

Peak level 97.9 %
Track quality 100.0 %
Test CRC F65C52A6
Copy CRC F65C52A6
Copy OK

Track 14
Filename C:\Documents and Settings\Eric\My Documents\Downloads\The Beatles - Abbey Road (1969) [FLAC] {Doctor Ebbetts 2008 MFSL}\14 - Golden Slumbers.wav

Pre-gap length 0:00:00.01

Peak level 96.6 %
Track quality 100.0 %
Test CRC 076E3BE1
Copy CRC 076E3BE1
Copy OK

Track 15
Filename C:\Documents and Settings\Eric\My Documents\Downloads\The Beatles - Abbey Road (1969) [FLAC] {Doctor Ebbetts 2008 MFSL}\15 - Carry That Weight.wav

Peak level 98.1 %
Track quality 100.0 %
Test CRC DE49E7EA
Copy CRC DE49E7EA
Copy OK

Track 16
Filename C:\Documents and Settings\Eric\My Documents\Downloads\The Beatles - Abbey Road (1969) [FLAC] {Doctor Ebbetts 2008 MFSL}\16 - The End.wav

Peak level 98.2 %
Track quality 100.0 %
Test CRC A78948DF
Copy CRC A78948DF
Copy OK

Track 17
Filename C:\Documents and Settings\Eric\My Documents\Downloads\The Beatles - Abbey Road (1969) [FLAC] {Doctor Ebbetts 2008 MFSL}\17 - Her Majesty.wav

Peak level 73.9 %
Track quality 99.5 %
Test CRC 293899AA
Copy CRC 293899AA
Copy OK

No errors occured


End of status report


[CUETools log; Date: 12.01.2020 20:03:52; Version: 2.1.6]
[CTDB TOCID: OuZYqcgxHE57zdrJEi8l8jI6yjM-] found.
Track | CTDB Status
1 | (6/7) Accurately ripped
2 | (6/7) Accurately ripped
3 | (6/7) Accurately ripped
4 | (6/7) Accurately ripped
5 | (6/7) Accurately ripped
6 | (6/7) Accurately ripped
7 | (6/7) Accurately ripped
8 | (6/7) Accurately ripped
9 | (6/7) Accurately ripped
10 | (6/7) Accurately ripped
11 | (6/7) Accurately ripped
12 | (6/7) Accurately ripped
13 | (6/7) Accurately ripped
14 | (6/7) Accurately ripped
15 | (6/7) Accurately ripped
16 | (6/7) Accurately ripped
17 | (6/7) Accurately ripped
[AccurateRip ID: 00232f51-01ae11e2-fc0b2511] found.
Track [ CRC | V2 ] Status
01 [6d1680b5|6ce6221a] (0+2/2) Accurately ripped
02 [7850af24|bb3babb6] (0+2/4) Accurately ripped
03 [8194c321|3c60f11a] (0+2/4) Accurately ripped
04 [b58e9bd2|3adb4ce4] (0+2/4) Accurately ripped
05 [de1dd8b3|88fc61ce] (0+2/4) Accurately ripped
06 [b23959a0|9b5ff3a8] (0+2/4) Accurately ripped
07 [9660a243|4c020a2d] (0+2/4) Accurately ripped
08 [d9c67d73|b8c82605] (0+2/4) Accurately ripped
09 [79b11690|a451da84] (0+2/4) Accurately ripped
10 [a20b911d|28fd6760] (0+2/4) Accurately ripped
11 [20e8ad76|ff74fccb] (0+2/4) Accurately ripped
12 [0d084d82|13fbd899] (0+2/4) Accurately ripped
13 [d28bdf1a|8a813ff4] (0+2/4) Accurately ripped
14 [fadfe05b|f3b5ec01] (0+2/4) Accurately ripped
15 [6eb64861|36b79d26] (0+2/4) Accurately ripped
16 [83b51c51|f3bcde85] (0+2/4) Accurately ripped
17 [02478064|79b81444] (0+2/4) Accurately ripped
Offsetted by 6:
01 [aa3828e0] (0/2) No match
02 [e76ddcbc] (2/4) Accurately ripped
03 [49364e7f] (2/4) Accurately ripped
04 [3fc98e7b] (2/4) Accurately ripped
05 [062b073d] (2/4) Accurately ripped
06 [fff877d7] (2/4) Accurately ripped
07 [ed81b657] (2/4) Accurately ripped
08 [4b3ff480] (2/4) Accurately ripped
09 [e5e87994] (2/4) Accurately ripped
10 [3748a103] (2/4) Accurately ripped
11 [73e203cc] (2/4) Accurately ripped
12 [06e95588] (2/4) Accurately ripped
13 [1b4c6976] (2/4) Accurately ripped
14 [6827317f] (2/4) Accurately ripped
15 [6025f0c3] (2/4) Accurately ripped
16 [e4e10697] (2/4) Accurately ripped
17 [08e901dd] (2/4) Accurately ripped

Track Peak [ CRC32 ] [W/O NULL] [ LOG ]
– 100,0 [60D9CFF7] [7E1C7606]
01 98,8 [D540DB59] [66B88838] CRC32
02 96,6 [B7173FE4] [06C632AC] CRC32
03 96,2 [E24E9AEA] [1435352E] CRC32
04 100,0 [1C2F3BD2] [FEFEE015] CRC32
05 99,1 [21D30840] [7F293298] CRC32
06 99,2 [6857F8E3] [109B3D28] CRC32
07 99,9 [6992D51B] [A744FA39] CRC32
08 64,0 [5D2DE380] [BA68F2EA] CRC32
09 93,4 [F372957F] [733DD1BE] CRC32
10 85,7 [FFD68242] [CD7BFE9B] CRC32
11 97,5 [38432E7A] [11300767] CRC32
12 94,2 [CA21C967] [C7E9107E] CRC32
13 97,9 [F65C52A6] [83E63E5C] CRC32
14 96,6 [076E3BE1] [519ABEB6] CRC32
15 98,1 [DE49E7EA] [7ED1551F] CRC32
16 98,2 [A78948DF] [ED20065C] CRC32
17 73,9 [293899AA] [0AC41202] CRC32


The Beatles: Dr. Ebbett's MFSL Half-Speed Series (1963-1970) [2008, 14CD]

Tracklist CD13. 1969 - Yellow Submarine (2008 Dr. Ebbetts MFSL Japan MFSL-1-108):

01. Yellow Submarine (2:43)
02. Only A Northern Song (3:27)
03. All Together Now (2:14)
04. Hey Bulldog (3:14)
05. It's All Too Much (6:28)
06. All You Need Is Love (3:53)
07. Pepperland (2:22)
08. Sea Of Time (2:59)
09. Sea Of Holes (2:18)
10. Sea Of Monsters (3:39)
11. March Of The Meanies (2:21)
12. Pepperland Laid Waste (2:14)
13. Yellow Submarine In Pepperland (2:11)

EAC extraction logfile from 27. December 2008, 7:28 for CD
The Beatles / Yellow Submarine (1969) MFSL

Used drive : HL-DT-STDVD-RW GSA-H11N Adapter: 1 ID: 0
Read mode : Secure with NO C2, accurate stream, disable cache
Read offset correction : 667
Overread into Lead-In and Lead-Out : No

Used output format : Internal WAV Routines
44.100 Hz; 16 Bit; Stereo

Other options :
Fill up missing offset samples with silence : Yes
Delete leading and trailing silent blocks : No
Installed external ASPI interface


Track 1
Filename C:\Documents and Settings\Eric\My Documents\Downloads\The Beatles - Yellow Submarine (1969) [FLAC] {Doctor Ebbetts 2008 MFSL}\01 - Yellow Submarine.wav

Pre-gap length 0:00:02.00

Peak level 84.6 %
Track quality 99.9 %
Test CRC 2B19C3CF
Copy CRC 2B19C3CF
Copy OK

Track 2
Filename C:\Documents and Settings\Eric\My Documents\Downloads\The Beatles - Yellow Submarine (1969) [FLAC] {Doctor Ebbetts 2008 MFSL}\02 - Only A Northern Song.wav

Peak level 92.6 %
Track quality 100.0 %
Test CRC 46F0F616
Copy CRC 46F0F616
Copy OK

Track 3
Filename C:\Documents and Settings\Eric\My Documents\Downloads\The Beatles - Yellow Submarine (1969) [FLAC] {Doctor Ebbetts 2008 MFSL}\03 - All Together Now.wav

Peak level 95.7 %
Track quality 100.0 %
Test CRC EC00E132
Copy CRC EC00E132
Copy OK

Track 4
Filename C:\Documents and Settings\Eric\My Documents\Downloads\The Beatles - Yellow Submarine (1969) [FLAC] {Doctor Ebbetts 2008 MFSL}\04 - Hey Bulldog.wav

Peak level 99.3 %
Track quality 100.0 %
Test CRC 79699776
Copy CRC 79699776
Copy OK

Track 5
Filename C:\Documents and Settings\Eric\My Documents\Downloads\The Beatles - Yellow Submarine (1969) [FLAC] {Doctor Ebbetts 2008 MFSL}\05 - It's All Too Much.wav

Peak level 100.0 %
Track quality 99.9 %
Test CRC 4D016B66
Copy CRC 4D016B66
Copy OK

Track 6
Filename C:\Documents and Settings\Eric\My Documents\Downloads\The Beatles - Yellow Submarine (1969) [FLAC] {Doctor Ebbetts 2008 MFSL}\06 - All You Need Is Love.wav

Peak level 94.9 %
Track quality 100.0 %
Test CRC 7FFE271E
Copy CRC 7FFE271E
Copy OK

Track 7
Filename C:\Documents and Settings\Eric\My Documents\Downloads\The Beatles - Yellow Submarine (1969) [FLAC] {Doctor Ebbetts 2008 MFSL}\07 - Pepperland.wav

Peak level 85.0 %
Track quality 100.0 %
Test CRC 911F5D93
Copy CRC 911F5D93
Copy OK

Track 8
Filename C:\Documents and Settings\Eric\My Documents\Downloads\The Beatles - Yellow Submarine (1969) [FLAC] {Doctor Ebbetts 2008 MFSL}\08 - Sea Of Time.wav

Peak level 87.1 %
Track quality 100.0 %
Test CRC 04415488
Copy CRC 04415488
Copy OK

Track 9
Filename C:\Documents and Settings\Eric\My Documents\Downloads\The Beatles - Yellow Submarine (1969) [FLAC] {Doctor Ebbetts 2008 MFSL}\09 - Sea Of Holes.wav

Peak level 90.3 %
Track quality 100.0 %
Test CRC 3DE0AC59
Copy CRC 3DE0AC59
Copy OK

Track 10
Filename C:\Documents and Settings\Eric\My Documents\Downloads\The Beatles - Yellow Submarine (1969) [FLAC] {Doctor Ebbetts 2008 MFSL}\10 - Sea Of Monsters.wav

Peak level 96.6 %
Track quality 100.0 %
Test CRC 24CF5DDF
Copy CRC 24CF5DDF
Copy OK

Track 11
Filename C:\Documents and Settings\Eric\My Documents\Downloads\The Beatles - Yellow Submarine (1969) [FLAC] {Doctor Ebbetts 2008 MFSL}\11 - March Of The Meanies.wav

Peak level 94.2 %
Track quality 100.0 %
Test CRC E7E1E54E
Copy CRC E7E1E54E
Copy OK

Track 12
Filename C:\Documents and Settings\Eric\My Documents\Downloads\The Beatles - Yellow Submarine (1969) [FLAC] {Doctor Ebbetts 2008 MFSL}\12 - Pepperland Laid Waste.wav

Peak level 90.6 %
Track quality 100.0 %
Test CRC 2384945F
Copy CRC 2384945F
Copy OK

Track 13
Filename C:\Documents and Settings\Eric\My Documents\Downloads\The Beatles - Yellow Submarine (1969) [FLAC] {Doctor Ebbetts 2008 MFSL}\13 - Yellow Submarine In Pepperland.wav

Peak level 98.3 %
Track quality 100.0 %
Test CRC 0F54AB80
Copy CRC 0F54AB80
Copy OK

No errors occured


End of status report


[CUETools log; Date: 12.01.2020 20:06:17; Version: 2.1.6]
[CTDB TOCID: 5_ZOtydwzWK1Ie.ft_87ccLoqOw-] found.
Track | CTDB Status
1 | (3/3) Accurately ripped
2 | (3/3) Accurately ripped
3 | (3/3) Accurately ripped
4 | (3/3) Accurately ripped
5 | (3/3) Accurately ripped
6 | (3/3) Accurately ripped
7 | (3/3) Accurately ripped
8 | (3/3) Accurately ripped
9 | (3/3) Accurately ripped
10 | (3/3) Accurately ripped
11 | (3/3) Accurately ripped
12 | (3/3) Accurately ripped
13 | (3/3) Accurately ripped
[AccurateRip ID: 001463be-00cb4150-bd09610d] found.
Track [ CRC | V2 ] Status
01 [0bd52fcf|3f7af21b] (0+1/2) Accurately ripped
02 [d00d1ad4|ca3fc8ce] (0+1/2) Accurately ripped
03 [a490aaf9|15458479] (0+1/2) Accurately ripped
04 [bf26b3e0|7e0635b5] (0+1/2) Accurately ripped
05 [3840b862|4c2d5202] (0+1/2) Accurately ripped
06 [5a5bc749|646af695] (0+1/2) Accurately ripped
07 [8f8ea7e2|845c8d8a] (0+1/2) Accurately ripped
08 [db952cc8|8e9c6f94] (0+1/2) Accurately ripped
09 [8a7869a6|ffefef65] (0+1/2) Accurately ripped
10 [661bcfcb|b47914bb] (0+1/2) Accurately ripped
11 [a5dda35b|95e18ce6] (0+1/2) Accurately ripped
12 [748e57bf|a64d8682] (1+1/3) Accurately ripped
13 [68bd887f|e8ad9d56] (1+1/3) Accurately ripped
Offsetted by -18:
01 [522b2778] (1/2) Accurately ripped
02 [70daf628] (1/2) Accurately ripped
03 [0b8b5e58] (1/2) Accurately ripped
04 [a4726f58] (1/2) Accurately ripped
05 [72860c8e] (1/2) Accurately ripped
06 [fe17f548] (1/2) Accurately ripped
07 [5dbb67f4] (1/2) Accurately ripped
08 [b1b0c0f2] (1/2) Accurately ripped
09 [1bf62998] (1/2) Accurately ripped
10 [a697f1d7] (1/2) Accurately ripped
11 [9044d1f5] (1/2) Accurately ripped
12 [2c0ab75a] (1/3) Accurately ripped
13 [6378ef9d] (1/3) Accurately ripped

Track Peak [ CRC32 ] [W/O NULL] [ LOG ]
– 100,0 [C7921E1F] [77C46BCD]
01 84,6 [2B19C3CF] [C24790E1] CRC32
02 92,6 [46F0F616] [193DEA20] CRC32
03 95,7 [EC00E132] [B7304E13] CRC32
04 99,3 [79699776] [4E18E92C] CRC32
05 100,0 [4D016B66] [33581C83] CRC32
06 94,9 [7FFE271E] [E9F37534] CRC32
07 84,9 [911F5D93] [7A1E3205] CRC32
08 87,1 [04415488] [122DAAC9] CRC32
09 90,3 [3DE0AC59] [14F7CEE6] CRC32
10 96,6 [24CF5DDF] [C37F8A80] CRC32
11 94,2 [E7E1E54E] [E6C0631E] CRC32
12 90,6 [2384945F] [31AA836A] CRC32
13 98,3 [0F54AB80] [701A37DE] CRC32


The Beatles: Dr. Ebbett's MFSL Half-Speed Series (1963-1970) [2008, 14CD]

Tracklist CD14. 1970 - Let It Be (2008 Dr. Ebbetts MFSL Japan MFSL-1-109):

1. Two Of Us (3:38)
2. Dig A Pony (3:56)
3. Across The Universe (3:49)
4. I Me Mine (2:25)
5. Dig It (0:50)
6. Let It Be (4:02)
7. Maggie Mae (0:40)
8. I've Got A Feeling (3:39)
9. One After 909 (2:55)
10. The Long And Winding Road (3:38)
11. For You Blue (2:34)
12. Get Back (3:11)

EAC extraction logfile from 25. October 2008, 22:06 for CD
The Beatles / Let It Be (MFSL)

Used drive : HL-DT-STDVD-RW GSA-H11N Adapter: 1 ID: 0
Read mode : Secure with NO C2, accurate stream, disable cache
Read offset correction : 667
Overread into Lead-In and Lead-Out : No

Used output format : Internal WAV Routines
44.100 Hz; 16 Bit; Stereo

Other options :
Fill up missing offset samples with silence : Yes
Delete leading and trailing silent blocks : No
Installed external ASPI interface


Track 1
Filename C:\Documents and Settings\Eric\My Documents\Downloads\The Beatles - Let It Be (1970) [FLAC] {Doctor Ebbetts 2008 MFSL}\01 - Two Of Us.wav

Pre-gap length 0:00:02.00

Peak level 97.3 %
Track quality 100.0 %
Test CRC 1D41FCB1
Copy CRC 1D41FCB1
Copy OK

Track 2
Filename C:\Documents and Settings\Eric\My Documents\Downloads\The Beatles - Let It Be (1970) [FLAC] {Doctor Ebbetts 2008 MFSL}\02 - Dig A Pony.wav

Peak level 99.1 %
Track quality 100.0 %
Test CRC 05369CCA
Copy CRC 05369CCA
Copy OK

Track 3
Filename C:\Documents and Settings\Eric\My Documents\Downloads\The Beatles - Let It Be (1970) [FLAC] {Doctor Ebbetts 2008 MFSL}\03 - Across The Universe.wav

Peak level 85.7 %
Track quality 99.9 %
Test CRC A246E3AC
Copy CRC A246E3AC
Copy OK

Track 4
Filename C:\Documents and Settings\Eric\My Documents\Downloads\The Beatles - Let It Be (1970) [FLAC] {Doctor Ebbetts 2008 MFSL}\04 - I Me Mine.wav

Peak level 98.0 %
Track quality 100.0 %
Test CRC 84305BEC
Copy CRC 84305BEC
Copy OK

Track 5
Filename C:\Documents and Settings\Eric\My Documents\Downloads\The Beatles - Let It Be (1970) [FLAC] {Doctor Ebbetts 2008 MFSL}\05 - Dig It.wav

Peak level 95.6 %
Track quality 99.7 %
Test CRC 7EC65D39
Copy CRC 7EC65D39
Copy OK

Track 6
Filename C:\Documents and Settings\Eric\My Documents\Downloads\The Beatles - Let It Be (1970) [FLAC] {Doctor Ebbetts 2008 MFSL}\06 - Let It Be.wav

Peak level 100.0 %
Track quality 100.0 %
Test CRC D127A52D
Copy CRC D127A52D
Copy OK

Track 7
Filename C:\Documents and Settings\Eric\My Documents\Downloads\The Beatles - Let It Be (1970) [FLAC] {Doctor Ebbetts 2008 MFSL}\07 - Maggie Mae.wav

Peak level 95.3 %
Track quality 100.0 %
Test CRC DB944A22
Copy CRC DB944A22
Copy OK

Track 8
Filename C:\Documents and Settings\Eric\My Documents\Downloads\The Beatles - Let It Be (1970) [FLAC] {Doctor Ebbetts 2008 MFSL}\08 - I've Got A Feeling.wav

Peak level 84.7 %
Track quality 99.9 %
Test CRC B2E6C0D2
Copy CRC B2E6C0D2
Copy OK

Track 9
Filename C:\Documents and Settings\Eric\My Documents\Downloads\The Beatles - Let It Be (1970) [FLAC] {Doctor Ebbetts 2008 MFSL}\09 - One After 909.wav

Peak level 97.8 %
Track quality 99.9 %
Test CRC BFDC07DE
Copy CRC BFDC07DE
Copy OK

Track 10
Filename C:\Documents and Settings\Eric\My Documents\Downloads\The Beatles - Let It Be (1970) [FLAC] {Doctor Ebbetts 2008 MFSL}\10 - The Long And Winding Road.wav

Peak level 84.8 %
Track quality 100.0 %
Test CRC D6D778F7
Copy CRC D6D778F7
Copy OK

Track 11
Filename C:\Documents and Settings\Eric\My Documents\Downloads\The Beatles - Let It Be (1970) [FLAC] {Doctor Ebbetts 2008 MFSL}\11 - For You Blue.wav

Peak level 99.1 %
Track quality 100.0 %
Test CRC 23F730F0
Copy CRC 23F730F0
Copy OK

Track 12
Filename C:\Documents and Settings\Eric\My Documents\Downloads\The Beatles - Let It Be (1970) [FLAC] {Doctor Ebbetts 2008 MFSL}\12 - Get Back.wav

Peak level 96.2 %
Track quality 100.0 %
Test CRC 78233161
Copy CRC 78233161
Copy OK

No errors occured


End of status report


[CUETools log; Date: 12.01.2020 20:08:49; Version: 2.1.6]
[CTDB TOCID: nv0j8WmxHg2zZjswEUycpsV4cMQ-] found.
Track | CTDB Status
1 | (5/5) Accurately ripped
2 | (5/5) Accurately ripped
3 | (5/5) Accurately ripped
4 | (5/5) Accurately ripped
5 | (5/5) Accurately ripped
6 | (5/5) Accurately ripped
7 | (5/5) Accurately ripped
8 | (5/5) Accurately ripped
9 | (5/5) Accurately ripped
10 | (5/5) Accurately ripped
11 | (5/5) Accurately ripped
12 | (5/5) Accurately ripped
[AccurateRip ID: 00101e29-0093be14-a808440c] found.
Track [ CRC | V2 ] Status
01 [22044b4e|51060389] (0+1/3) Accurately ripped
02 [c90bacf5|d5be5bbd] (0+1/3) Accurately ripped
03 [01b45f1f|65bd52c2] (0+1/3) Accurately ripped
04 [37e4527f|08976be1] (0+1/3) Accurately ripped
05 [56f1f4cd|41f6874c] (0+1/3) Accurately ripped
06 [e77c03ce|e6e82086] (0+1/3) Accurately ripped
07 [39fbe652|34db409e] (0+1/3) Accurately ripped
08 [b1c2fd7b|aa603b21] (0+1/3) Accurately ripped
09 [518a1a25|68a035bd] (0+1/3) Accurately ripped
10 [afad02bb|6fad8fc1] (0+1/3) Accurately ripped
11 [e3b06c23|753a1f49] (0+1/3) Accurately ripped
12 [ea058bea|6b61067c] (0+1/3) Accurately ripped
Offsetted by -18:
01 [e5559ae2] (1/3) Accurately ripped
02 [962d74bb] (1/3) Accurately ripped
03 [60ed86c0] (1/3) Accurately ripped
04 [7d1b3a54] (1/3) Accurately ripped
05 [4b44b1ea] (1/3) Accurately ripped
06 [441f0ccc] (1/3) Accurately ripped
07 [f51b105b] (1/3) Accurately ripped
08 [1155150d] (1/3) Accurately ripped
09 [769086a5] (1/3) Accurately ripped
10 [536a9b3e] (1/3) Accurately ripped
11 [b076a0f0] (1/3) Accurately ripped
12 [326bb297] (1/3) Accurately ripped
Offsetted by 6:
01 [bea8ac0e] (1/3) Accurately ripped
02 [11d6f380] (1/3) Accurately ripped
03 [f7b6b0da] (1/3) Accurately ripped
04 [ad54ee6d] (1/3) Accurately ripped
05 [42db267f] (1/3) Accurately ripped
06 [9fe30389] (1/3) Accurately ripped
07 [39112e71] (1/3) Accurately ripped
08 [695c7e1a] (1/3) Accurately ripped
09 [2fd51402] (1/3) Accurately ripped
10 [085ba7c1] (1/3) Accurately ripped
11 [3da6a5ad] (1/3) Accurately ripped
12 [9ec1e556] (1/3) Accurately ripped

Track Peak [ CRC32 ] [W/O NULL] [ LOG ]
– 100,0 [155743D4] [48C4592E]
01 97,3 [1D41FCB1] [5642E63A] CRC32
02 99,1 [05369CCA] [F75C13A7] CRC32
03 85,7 [A246E3AC] [BB7157C1] CRC32
04 98,0 [84305BEC] [7EA694BA] CRC32
05 95,6 [7EC65D39] [71E93379] CRC32
06 100,0 [D127A52D] [E51621DE] CRC32
07 95,3 [DB944A22] [41CA0711] CRC32
08 84,7 [B2E6C0D2] [9593CB00] CRC32
09 97,8 [BFDC07DE] [B28042FD] CRC32
10 84,8 [D6D778F7] [D7B58AE8] CRC32
11 99,1 [23F730F0] [52C0CCB3] CRC32
12 96,2 [78233161] [C2BC1325] CRC32


All thanks go to the original releaser

Beatles in my Blog

Download The Beatles: Dr. Ebbett's MFSL Half-Speed Series (1963-1970):