Subcategories

The Beatles: Stereo Vinyl Box Set (2012) [Vinyl Rip 16/44 & mp3-320]

Posted By: v3122
The Beatles: Stereo Vinyl Box Set (2012) [Vinyl Rip 16/44 & mp3-320]

The Beatles: Stereo Vinyl Box Set (2012)
16 x Vinyl Rip 16/44 | Flac(Image + Cue) > 3568 Mb
MP3 CBR 320Kbps > 1256 Mb | Artwork(jpg) > 3923 Mb
Parlophone / Capitol / Apple | Remastered
Beat, Rock & Roll, Pop Rock, Psychedelic Rock

Albums included:
Please Please Me
With The Beatles
A Hard Day's Night
Beatles For Sale
Help!
Rubber Soul
Revolver
Sgt. Pepper's Lonely Hearts Club Band
Magical Mystery Tour
The Beatles (The White Album) (2LP)
Yellow Submarine
Let It Be
Abbey Road
Past Masters (2LP) The Beatles' acclaimed original studio album remasters, released on CD in 2009, make their long-awaited stereo vinyl debut.

Manufactured on 180-gram, audiophile quality vinyl with replicated artwork, the 14 albums return to their original glory with details including the poster in The Beatles (The White Album), the Sgt. Pepper's Lonely Heart Club Band's cut-outs, and special inner bags for some of the titles. The albums are accompanied by a stunning, elegantly designed 252-page hardbound book in a lavish boxed edition which is being in limited quantities worldwide.

The book, exclusive to the boxed edition, is authored by award-winning radio producer Kevin Howlett and features a dedicated chapter for each of the albums, as well as insight into the creation of the remasters and how the vinyl albums were prepared. The 12"x12" book showcases a wealth of photographs spanning The Beatles' recording career, including many images which were not included in the 2009 CD booklets.

The titles include The Beatles' 12 original UK albums, first released between 1963 and 1970, the US-originated Magical Mystery Tour, now part of the group's core catalogue, and Past Masters, Volumes One & Two, first released individually in 1988, featuring non-album A-sides and B-sides, EP tracks and rarities. With this release, The Beatles' first four albums make their North American stereo vinyl debuts.

There has always been demand for The Beatles' albums on vinyl. Indeed, 2011's best-selling vinyl LP in the United States was Abbey Road. Following the success of The Beatles' acclaimed, GRAMMY Award-winning 2009 CD remasters, it was decided that the sound experts at EMI's Abbey Road Studios should create new versions of The Beatles' vinyl LPs. The project demanded the same meticulous approach taken for the CD releases, and the brief was a simple one: cut the digital remasters to vinyl with an absolute minimum of compromise to the sound. However, the process involved to do that was far from simple.

The first stage in transferring the sound of a master recording to vinyl is the creation of a disc to be used during vinyl manufacture. There were two options to consider. A Direct Metal Master (DMM), developed in the late seventies, allows sound to be cut directly into a stainless steel disc coated with a hard copper alloy. The older, alternative method is to cut the sound into the soft lacquer coating on a nickel disc - the first of several steps leading to the production of a stamper to press the vinyl.

A 'blind' listening test was arranged to choose between a 'lacquer' or 'copper' cut. Using both methods, A Hard Day's Night was pressed with ten seconds of silence at the beginning and end of each side. This allowed not only the reproduction of the music to be assessed, but also the noise made by the vinyl itself. After much discussion, two factors swung the decision towards using the lacquer process. First, it was judged to create a warmer sound than a DMM. Secondly, there was a practical advantage of having 'blank' discs of a consistent quality when cutting lacquers.

The next step was to use the Neumann VMS80 cutting lathe at Abbey Road. Following thorough mechanical and electrical tests to ensure it was operating in peak condition, engineer Sean Magee cut the LPs in chronological release order. He used the original 24-bit remasters rather than the 16-bit versions that were required for CD production. It was also decided to use the remasters that had not undergone 'limiting' - a procedure to increase the sound level, which is deemed necessary for most current pop CDs.

Having made initial test cuts, Magee pinpointed any sound problems that can occur during playback of vinyl records. To rectify them, changes were made to the remasters with a Digital Audio Workstation. For example, each vinyl album was listened to for any 'sibilant episodes' - vocal distortion that can occur on consonant sounds such as S and T. These were corrected by reducing the level in the very small portion of sound causing the undesired effect. Similarly, any likelihood of 'inner-groove distortion' was addressed. As the stylus approaches the centre of the record, it is liable to track the groove less accurately. This can affect the high-middle frequencies, producing a 'mushy' sound particularly noticeable on vocals. Using what Magee has described as 'surgical EQ,' problem frequencies were identified and reduced in level to compensate for this.

The last phase of the vinyl mastering process began with the arrival of the first batches of test pressings made from master lacquers that had been sent to the two pressing plant factories. Stringent quality tests identified any noise or click appearing on more than one test pressing in the same place. If this happened, it was clear that the undesired sounds had been introduced either during the cutting or the pressing stage and so the test records were rejected. In the quest to achieve the highest quality possible, the Abbey Road team worked closely with the pressing factories and the manufacturers of the lacquer and cutting styli.

An additional and unusual challenge was to ensure the proper playback of the sounds embedded in the 'lock-groove' at the end of side two of Sgt. Pepper's Lonely Hearts Club Band. Requiring a combination of good timing and luck, it had always been a lengthy and costly process to make it work properly. In fact, it was so tricky, it had never been attempted for American pressings of the LP. Naturally, Sean Magee and the team perfected this and the garbled message is heard as originally intended on the remastered Sgt. Pepper LP.
The Beatles: Stereo Vinyl Box Set (2012) [Vinyl Rip 16/44 & mp3-320]

The Beatles: Stereo Vinyl Box Set (2012):

The Beatles: Stereo Vinyl Box Set (2012) [Vinyl Rip 16/44 & mp3-320]

Tracklist VNL01 - 1963 Please Please Me:

A1. I Saw Her Standing There
A2. Misery
A3. Anna (Go To Him)
A4. Chains
A5. Boys
A6. Ask Me Why
A7. Please Please Me
B1. Love Me Do
B2. P.S. I Love You
B3. Baby It's You
B4. Do You Want To Know A Secret
B5. A Taste Of Honey
B6. There's A Place
B7. Twist And Shout

foobar2000 1.2.9 / Dynamic Range Meter 1.1.1
log date: 2017-11-14 09:01:46

––––––––––––––––––––––––––––––––––––––––
Analyzed: The Beatles / Please Please Me
––––––––––––––––––––––––––––––––––––––––

DR Peak RMS Duration Track
––––––––––––––––––––––––––––––––––––––––
DR11 -3.39 dB -17.06 dB 2:52 01-I Saw Her Standing There
DR11 -3.28 dB -16.05 dB 1:47 02-Misery
DR12 -4.67 dB -18.27 dB 2:56 03-Anna (Go To Him)
DR11 -3.80 dB -17.45 dB 2:25 04-Chains
DR12 -3.30 dB -18.17 dB 2:25 05-Boys
DR12 -4.29 dB -18.49 dB 2:26 06-Ask Me Why
DR11 -1.61 dB -16.24 dB 1:59 07-Please Please Me
DR12 -2.01 dB -15.79 dB 2:23 08-Love Me Do
DR11 -3.74 dB -16.03 dB 2:04 09-P.S. I Love You
DR11 -3.82 dB -17.73 dB 2:38 10-Baby It's You
DR11 -4.87 dB -17.81 dB 1:57 11-Do You Want To Know A Secret
DR11 -4.36 dB -18.56 dB 2:03 12-A Taste Of Honey
DR13 -1.67 dB -17.12 dB 1:50 13-There's A Place
DR11 -3.90 dB -16.82 dB 2:35 14-Twist And Shout
––––––––––––––––––––––––––––––––––––––––

Number of tracks: 14
Official DR value: DR11

Samplerate: 44100 Hz
Channels: 2
Bits per sample: 16
Bitrate: 807 kbps
Codec: FLAC
================================================================================



The Beatles: Stereo Vinyl Box Set (2012) [Vinyl Rip 16/44 & mp3-320]

Tracklist VNL02 - 1963 With The Beatles:

Side 1
1. It Won't Be Long
2. All I've Got to Do
3. All My Loving
4. Don't Bother Me
5. Little Child
6. Till There Was You
7. Please Mister Postman

Side 2
1. Roll Over Beethoven
2. Hold Me Tight
3. You Really Got a Hold on Me
4. I Wanna Be Your Man
5. Devil in Her Heart
6. Not a Second Time
7. Money (That's What I Want)

foobar2000 1.2.9 / Dynamic Range Meter 1.1.1
log date: 2017-11-14 09:02:01

––––––––––––––––––––––––––––––––––––––––
Analyzed: The Beatles / With The Beatles
––––––––––––––––––––––––––––––––––––––––

DR Peak RMS Duration Track
––––––––––––––––––––––––––––––––––––––––
DR11 -1.56 dB -16.38 dB 2:11 01-It Won't Be Long
DR12 -1.74 dB -17.61 dB 2:01 02-All I've Got To Do
DR10 -2.52 dB -16.03 dB 2:06 03-All My Loving
DR11 -2.53 dB -16.88 dB 2:25 04-Don't Bother Me
DR11 -2.77 dB -17.03 dB 1:45 05-Little Child
DR12 -3.26 dB -18.74 dB 2:12 06-Till There Was You
DR11 -2.91 dB -16.88 dB 2:32 07-Please Mister Postman
DR11 -2.58 dB -17.32 dB 2:43 08-Roll Over Beethoven
DR11 -2.98 dB -16.32 dB 2:29 09-Hold Me Tight
DR11 -3.08 dB -17.74 dB 2:59 10-You Really Go A Hold On Me
DR11 -2.00 dB -16.37 dB 1:57 11-I Wanna Be Your Man
DR11 -3.34 dB -17.34 dB 2:23 12-Devil In Her Heart
DR11 -1.77 dB -17.21 dB 2:05 13-Not A Second Time
DR10 -2.73 dB -14.84 dB 2:46 14-Money
––––––––––––––––––––––––––––––––––––––––

Number of tracks: 14
Official DR value: DR11

Samplerate: 44100 Hz
Channels: 2
Bits per sample: 16
Bitrate: 871 kbps
Codec: FLAC
================================================================================



The Beatles: Stereo Vinyl Box Set (2012) [Vinyl Rip 16/44 & mp3-320]

Tracklist VNL03 - 1964 A Hard Day's Night:

Side 1
1. A Hard Day’s Night
2. I Should Have Known Better
3. If I Fell
4. I’m Happy Just To Dance With You
5. And I Love Her
6. Tell Me Why
7. Can’t Buy Me Love

Side 2
1. Any Time At All
2. I’ll Cry Instead
3. Things We Said Today
4. When I Get Home
5. You Can’t Do That
6. I’ll Be Back

foobar2000 1.2.9 / Dynamic Range Meter 1.1.1
log date: 2017-11-14 09:02:14

––––––––––––––––––––––––––––––––––––––––
Analyzed: The Beatles / A Hard Day's Night
––––––––––––––––––––––––––––––––––––––––

DR Peak RMS Duration Track
––––––––––––––––––––––––––––––––––––––––
DR11 -0.77 dB -15.37 dB 2:33 01-A Hard Day's Night
DR10 -3.56 dB -16.35 dB 2:41 02-I Should Have Known Better
DR10 -2.95 dB -16.35 dB 2:18 03-If I Fell
DR11 -1.09 dB -15.89 dB 1:55 04-I'm Happy Just To Dance With You
DR11 -4.39 dB -17.80 dB 2:28 05-And I Love Her
DR10 -1.76 dB -15.13 dB 2:07 06-Tell Me Why
DR10 -2.28 dB -15.48 dB 2:13 07-Can't Buy Me Love
DR12 -0.87 dB -16.15 dB 2:10 08-Any Time At All
DR11 -1.20 dB -15.29 dB 1:45 09-I'll Cry Instead
DR12 -0.16 dB -15.20 dB 2:33 10-Things We Said Today
DR11 -1.15 dB -15.35 dB 2:15 11-When I Get Home
DR10 -1.92 dB -15.33 dB 2:32 12-You Can't Do That
DR11 -1.27 dB -16.08 dB 2:20 13-I'll Be Back
––––––––––––––––––––––––––––––––––––––––

Number of tracks: 13
Official DR value: DR11

Samplerate: 44100 Hz
Channels: 2
Bits per sample: 16
Bitrate: 882 kbps
Codec: FLAC
================================================================================



The Beatles: Stereo Vinyl Box Set (2012) [Vinyl Rip 16/44 & mp3-320]

Tracklist VNL04 - 1964 Beatles for Sale:

Side 1
1. No Reply
2. I'm A Loser
3. Baby's In Black
4. Rock And Roll Music
5. I'll Follow The Sun
6. Mr. Moonlight
7. Kansas City

Side 2
1. Eight Days A Week
2. Words Of Love
3. Honey Don't
4. Every Little Thing
5. I Don't Want To Spoil The Party
6. What You're Doing
7. Everybody's Trying To Be My Baby

foobar2000 1.2.9 / Dynamic Range Meter 1.1.1
log date: 2017-11-14 09:02:34

––––––––––––––––––––––––––––––––––––––––
Analyzed: The Beatles / Beatles For Sale
––––––––––––––––––––––––––––––––––––––––

DR Peak RMS Duration Track
––––––––––––––––––––––––––––––––––––––––
DR12 -2.30 dB -17.01 dB 2:12 01-No Reply
DR11 -3.05 dB -16.33 dB 2:26 02-I'm A Loser
DR11 -1.87 dB -15.43 dB 2:04 03-Baby's In Black
DR11 -1.09 dB -14.55 dB 2:29 04-Rock And Roll Music
DR11 -4.42 dB -16.84 dB 1:47 05-I'll Follow The Sun
DR10 -4.97 dB -17.32 dB 2:35 06-Mr. Moonlight
DR11 -0.83 dB -14.86 dB 2:36 07-Kansas City
DR13 -0.31 dB -16.49 dB 2:40 08-Eight Days A Week
DR11 -3.11 dB -17.34 dB 2:01 09-Words Of Love
DR12 -4.44 dB -18.75 dB 2:56 10-Honey Don't
DR12 -2.83 dB -17.00 dB 2:01 11-Every Little Thing
DR11 -0.62 dB -15.14 dB 2:33 12-I Don't Want To Spoil The Party
DR12 -1.73 dB -16.12 dB 2:28 13-What You're Doing
DR11 -2.38 dB -15.62 dB 2:23 14-Everybody's Trying To Be My Baby
––––––––––––––––––––––––––––––––––––––––

Number of tracks: 14
Official DR value: DR11

Samplerate: 44100 Hz
Channels: 2
Bits per sample: 16
Bitrate: 837 kbps
Codec: FLAC
================================================================================



The Beatles: Stereo Vinyl Box Set (2012) [Vinyl Rip 16/44 & mp3-320]

Tracklist VNL05 - 1965 Help!:

Side 1
1. Help!
2. The Night Before
3. You've Got To Hide Your Love Away
4. I Need You
5. Another Girl
6. You're Going To Lose That Girl
7. Ticket To Ride

Side 2
1. Act Naturally
2. It's Only Love
3. You Like Me Too Much
4. Tell Me What You See
5. I've Just Seen A Face
6. Yesterday
7. Dizzy Miss Lizzy

foobar2000 1.2.9 / Dynamic Range Meter 1.1.1
log date: 2017-11-14 09:02:48

––––––––––––––––––––––––––––––––––––––––
Analyzed: The Beatles / Help!
––––––––––––––––––––––––––––––––––––––––

DR Peak RMS Duration Track
––––––––––––––––––––––––––––––––––––––––
DR12 -2.37 dB -15.73 dB 2:18 01-Help!
DR11 -0.69 dB -14.61 dB 2:33 02-The Night Before
DR11 -2.01 dB -15.90 dB 2:09 03-You've Got To Hide Your Love Away
DR12 -2.25 dB -15.80 dB 2:28 04-I Need You
DR11 -2.68 dB -15.47 dB 2:05 05-Another Girl
DR12 -1.10 dB -15.17 dB 2:18 06-You're Going To Lose That Girl
DR12 -1.24 dB -15.85 dB 3:06 07-Ticket To Ride
DR14 -1.23 dB -17.79 dB 2:30 08-Act Naturally
DR11 -1.84 dB -15.91 dB 1:56 09-It's Only Love
DR11 -0.07 dB -15.35 dB 2:36 10-You Like Me Too Much
DR12 -0.90 dB -16.01 dB 2:37 11-Tell Me What You See
DR11 -1.70 dB -15.47 dB 2:04 12-I've Just Seen A Face
DR10 -4.68 dB -17.52 dB 2:05 13-Yesterday
DR12 -2.53 dB -16.12 dB 2:55 14-Dizzy Miss Lizzie
––––––––––––––––––––––––––––––––––––––––

Number of tracks: 14
Official DR value: DR12

Samplerate: 44100 Hz
Channels: 2
Bits per sample: 16
Bitrate: 819 kbps
Codec: FLAC
================================================================================



The Beatles: Stereo Vinyl Box Set (2012) [Vinyl Rip 16/44 & mp3-320]

Tracklist VNL06 - 1965 Rubber Soul:

Side 1
1. Drive My Car
2. Norwegian Wood (This Bird Has Flown)
3. You Won't See Me
4. Nowhere Man
5. Think For Yourself
6. The Word
7. Michelle

Side 2
1. What Goes On
2. Girl
3. I'm Looking Through You
4. In My Life
5. Wait
6. If I Needed Someone
7. Run For Your Life

foobar2000 1.2.9 / Dynamic Range Meter 1.1.1
log date: 2017-11-14 09:03:01

––––––––––––––––––––––––––––––––––––––––
Analyzed: Beatles / Rubber Soul
––––––––––––––––––––––––––––––––––––––––

DR Peak RMS Duration Track
––––––––––––––––––––––––––––––––––––––––
DR12 -1.20 dB -15.85 dB 2:27 01-Drive My Car
DR12 -3.22 dB -17.88 dB 2:05 02-Norwegian Wood (This Bird Has Flown)
DR13 -0.42 dB -15.74 dB 3:18 03-You Won't See Me
DR12 -0.71 dB -16.05 dB 2:44 04-Nowhere Man
DR13 -1.48 dB -16.24 dB 2:17 05-Think For Yourself
DR12 -2.32 dB -16.95 dB 2:42 06-The Word
DR10 -5.09 dB -17.72 dB 2:40 07-Michelle
DR12 -1.22 dB -15.54 dB 2:47 08-What Goes On
DR14 0.00 dB -17.82 dB 2:29 09-Girl
DR14 0.00 dB -16.76 dB 2:26 10-I'm Looking Through You
DR14 -0.59 dB -16.54 dB 2:26 11-In My Life
DR13 -0.05 dB -16.02 dB 2:14 12-Wait
DR12 -1.19 dB -15.76 dB 2:20 13-If I Needed Someone
DR12 -0.45 dB -15.47 dB 2:18 14-Run For Your Life
––––––––––––––––––––––––––––––––––––––––

Number of tracks: 14
Official DR value: DR12

Samplerate: 44100 Hz
Channels: 2
Bits per sample: 16
Bitrate: 829 kbps
Codec: FLAC
================================================================================



The Beatles: Stereo Vinyl Box Set (2012) [Vinyl Rip 16/44 & mp3-320]

Tracklist VNL07 - 1966 Revolver:

Side 1
1.Taxman
2. Eleanor Rigby
3.I'm Only Sleeping
4. Love You To
5. Here, There And Everywhere
6. Yellow Submarine
7. She Said She Said

Side 2
1.Good Day Sunshine
2. And Your Bird Can Sing
3. For No One
4. Dr. Robert
5. I Want To Tell You
6. Got To Get You Into My Life
7. Tomorrow Never Knows

foobar2000 1.2.9 / Dynamic Range Meter 1.1.1
log date: 2017-11-14 09:03:15

––––––––––––––––––––––––––––––––––––––––
Analyzed: The Beatles / Revolver
––––––––––––––––––––––––––––––––––––––––

DR Peak RMS Duration Track
––––––––––––––––––––––––––––––––––––––––
DR11 -1.69 dB -15.64 dB 2:38 01-Taxman
DR10 -4.10 dB -16.38 dB 2:05 02-Eleanor Rigby
DR10 -3.66 dB -17.17 dB 2:59 03-I'm Only Sleeping
DR11 -3.05 dB -16.95 dB 2:59 04-Love You To
DR10 -3.10 dB -16.12 dB 2:24 05-Here, There And Everywhere
DR11 -1.62 dB -16.89 dB 2:38 06-Yellow Submarine
DR10 -3.05 dB -15.53 dB 2:34 07-She Said She Said
DR12 0.00 dB -14.71 dB 2:09 08-Good Day Sunshine
DR10 -0.94 dB -14.16 dB 2:00 09-And Your Bird Can Sing
DR10 -2.63 dB -16.25 dB 1:59 10-For No One
DR11 -2.82 dB -15.66 dB 2:15 11-Doctor Robert
DR10 -2.11 dB -15.97 dB 2:25 12-I Want To Tell You
DR10 -2.29 dB -14.27 dB 2:28 13-Got To Get You Into My Life
DR10 -2.51 dB -14.67 dB 2:56 14-Tomorrow Never Knows.
––––––––––––––––––––––––––––––––––––––––

Number of tracks: 14
Official DR value: DR11

Samplerate: 44100 Hz
Channels: 2
Bits per sample: 16
Bitrate: 794 kbps
Codec: FLAC
================================================================================



The Beatles: Stereo Vinyl Box Set (2012) [Vinyl Rip 16/44 & mp3-320]

Tracklist VNL08 - 1967 Sgt.Pepper's Lonely Hearts Club Band:

Side 1
1. Sgt. Pepper's Lonely Hearts Club Band
2. With A Little Help From My Friends
3. Lucy In The Sky With Diamonds
4. Getting Better
5. Fixing A Hole
6. She's Leaving Home
7. Being For The Benefit Of Mr. Kite

Side 2
1. Within You Without You
2. When I'm Sixty-Four
3. Lovely Rita
4. Good Morning Good Morning
5. Sgt. Pepper's Lonely Hearts Club Band (Reprise)
6. A Day In The Life

foobar2000 1.2.9 / Dynamic Range Meter 1.1.1
log date: 2017-11-14 09:03:30

––––––––––––––––––––––––––––––––––––––––
Analyzed: The Beatles / Sgt. Pepper's Lonely Hearts Club Band
––––––––––––––––––––––––––––––––––––––––

DR Peak RMS Duration Track
––––––––––––––––––––––––––––––––––––––––
DR11 -0.65 dB -15.07 dB 2:09 01-Sgt. Peppers Lonely Hearts Club Band
DR12 -2.47 dB -17.19 dB 2:36 02-A Little Help From My Friends
DR12 -1.63 dB -17.22 dB 3:27 03-Lucy In The Sky With Diamonds
DR12 -1.75 dB -15.35 dB 2:47 04-Getting Better
DR12 -0.35 dB -16.33 dB 2:35 05-Fixing A Hole
DR10 -4.93 dB -17.53 dB 3:34 06-She's Leaving Home
DR11 -1.90 dB -15.67 dB 2:37 07-Being For The Benefit Of Mr Kite
DR12 -0.11 dB -16.18 dB 5:02 08-Within You Without You
DR13 0.00 dB -15.26 dB 2:37 09-When I'm Sixty-Four
DR11 -1.49 dB -14.98 dB 2:41 10-Lovely Rita
DR11 -0.88 dB -14.54 dB 2:40 11-Good Morning, Good Morning
DR11 -2.00 dB -15.18 dB 1:21 12-Sgt Peppers Lonely Hearts Club Band (reprise)
DR12 -1.77 dB -17.47 dB 5:14 13-A Day In The Life
––––––––––––––––––––––––––––––––––––––––

Number of tracks: 13
Official DR value: DR12

Samplerate: 44100 Hz
Channels: 2
Bits per sample: 16
Bitrate: 786 kbps
Codec: FLAC
================================================================================



The Beatles: Stereo Vinyl Box Set (2012) [Vinyl Rip 16/44 & mp3-320]

Tracklist VNL09 - 1967 Magical Mystery Tour:

Side 1
1. Magical Mystery Tour
2. The Fool On The Hill
3. Flying
4. Blue Jay Way
5. Your Mother Should Know
6. I Am The Walrus

Side 2
1. Hello Goodbye
2. Strawberry Fields Forever
3. Penny Lane
4. Baby You're A Rich Man
5. All You Need Is Love

foobar2000 1.2.9 / Dynamic Range Meter 1.1.1
log date: 2017-11-14 09:03:42

––––––––––––––––––––––––––––––––––––––––
Analyzed: The Beatles / Magical Mystery Tour
––––––––––––––––––––––––––––––––––––––––

DR Peak RMS Duration Track
––––––––––––––––––––––––––––––––––––––––
DR12 -1.25 dB -15.87 dB 2:45 01-Magical Mystery Tour
DR9 -3.62 dB -16.91 dB 3:01 02-The Fool On The Hill
DR11 -4.58 dB -19.77 dB 2:15 03-Flying
DR12 -2.62 dB -18.35 dB 3:53 04-Blue Jay Way
DR10 -2.53 dB -16.46 dB 2:27 05-Your Mother Should Know
DR11 -2.54 dB -16.92 dB 4:34 06-I'm The Walrus
DR12 -1.77 dB -15.45 dB 3:27 07-Hello Goodbye
DR13 -2.08 dB -18.57 dB 4:06 08-Strawberry Fields Forever
DR11 -1.53 dB -14.73 dB 3:00 09-Penny Lane
DR14 0.00 dB -17.52 dB 3:00 10-Baby You're A Rich Man
DR12 -2.08 dB -16.99 dB 3:47 11-All You Need Is Love
––––––––––––––––––––––––––––––––––––––––

Number of tracks: 11
Official DR value: DR12

Samplerate: 44100 Hz
Channels: 2
Bits per sample: 16
Bitrate: 764 kbps
Codec: FLAC
================================================================================



The Beatles: Stereo Vinyl Box Set (2012) [Vinyl Rip 16/44 & mp3-320]

Tracklist VNL10 - 1968 The Beatles (White Album) LP1:

Side 1
1. Back In The U.S.S.R.
2. Dear Prudence
3. Glass Onion
4. Ob-La-Di, Ob-La-Da
5. Wild Honey Pie
6. The Continuing Story Of Bungalow Bill
7. White My Guitar Gently Weeps
8. Happiness Is A Warm Gun

Side 2
1. Martha My Dear
2. I'm So Tired
3. Blackbird
4. Piggies
5. Rocky Raccoon
6. Don't Pass Me By
7. Why Don't We Do It In The Road?
8. I Will
9. Julia

foobar2000 1.2.9 / Dynamic Range Meter 1.1.1
log date: 2017-11-14 09:03:56

––––––––––––––––––––––––––––––––––––––––
Analyzed: The Beatles / The Beatles: The White Album (Disc One)
––––––––––––––––––––––––––––––––––––––––

DR Peak RMS Duration Track
––––––––––––––––––––––––––––––––––––––––
DR11 -4.64 dB -18.21 dB 2:46 01-Back In The U.S.S.R.
DR12 -5.20 dB -20.15 dB 3:49 02-Dear Prudence
DR12 -4.09 dB -19.18 dB 2:18 03-Glass Onion
DR12 -4.93 dB -18.24 dB 3:07 04-Ob-La-Di, Ob-La-Da
DR12 -6.89 dB -22.76 dB 0:53 05-Wild Honey Pie
DR13 -5.02 dB -19.43 dB 3:12 06-The Continuing Story Of Bungalow Bill
DR11 -5.10 dB -18.79 dB 4:43 07-While My Guitar Gently Weeps
DR12 -5.13 dB -20.37 dB 2:42 08-Happiness Is A Warm Gun
DR12 -5.46 dB -20.56 dB 2:31 09-Martha My Dear
DR13 -2.96 dB -19.21 dB 2:03 10-I'm So Tired
DR13 -4.80 dB -22.61 dB 2:18 11-Blackbird
DR12 -3.19 dB -19.42 dB 2:03 12-Piggies
DR13 -4.99 dB -21.81 dB 3:31 13-Rocky Raccoon
DR12 -5.26 dB -20.15 dB 3:49 14-Don't Pass Me By
DR11 -6.02 dB -19.92 dB 1:41 15-Why Don't We Do It In The Road?
DR10 -6.50 dB -18.39 dB 1:45 16-I Will
DR11 -6.57 dB -20.64 dB 2:54 17-Julia
––––––––––––––––––––––––––––––––––––––––

Number of tracks: 17
Official DR value: DR12

Samplerate: 44100 Hz
Channels: 2
Bits per sample: 16
Bitrate: 711 kbps
Codec: FLAC
================================================================================



Tracklist VNL11 - 1968 The Beatles (White Album) LP2:

Side 1
1. Birthday
2. Yer Blues
3. Mother Nature's Son
4. Everybody's Got Something To Hide Except Me And My Monkey
5. Sexy Sadie
6. Helter Skelter
7. Long, Long, Long

Side 2
1. Revolution 1
2. Honey Pie
3. Savoy Truffle
4. Cry Baby Cry
5. Revolution 9
6. Good Night

foobar2000 1.2.9 / Dynamic Range Meter 1.1.1
log date: 2017-11-14 09:04:10

––––––––––––––––––––––––––––––––––––––––
Analyzed: The Beatles / The Beatles: The White Album (Disc Two)
––––––––––––––––––––––––––––––––––––––––

DR Peak RMS Duration Track
––––––––––––––––––––––––––––––––––––––––
DR13 -2.51 dB -16.94 dB 2:42 01-Birthday
DR13 -1.34 dB -20.05 dB 3:58 02-Yer Blues
DR12 -7.16 dB -23.66 dB 2:48 03-Mother Nature's Son
DR11 -3.96 dB -18.70 dB 2:24 04-Everybody's Got Something To Hide Except Me And My Monkey
DR12 -5.48 dB -19.90 dB 3:12 05-Sexy Sadie
DR12 -4.52 dB -18.08 dB 4:29 06-Helter Skelter
DR12 -4.48 dB -21.72 dB 3:06 07-Long, Long, Long
DR17 0.00 dB -19.19 dB 4:15 08-Revolution 1
DR13 -6.63 dB -23.10 dB 2:40 09-Honey Pie
DR13 -4.33 dB -19.67 dB 2:53 10-Savoy Truffle
DR15 -0.68 dB -20.71 dB 3:00 11-Cry Baby Cry
DR13 0.00 dB -23.99 dB 8:18 12-Revolution 9
DR10 -7.89 dB -21.51 dB 3:10 13-Good Night
––––––––––––––––––––––––––––––––––––––––

Number of tracks: 13
Official DR value: DR13

Samplerate: 44100 Hz
Channels: 2
Bits per sample: 16
Bitrate: 697 kbps
Codec: FLAC
================================================================================



The Beatles: Stereo Vinyl Box Set (2012) [Vinyl Rip 16/44 & mp3-320]

Tracklist VNL12 - 1969 Yellow Submarine:

Side 1
1. Yellow Submarine
2. Only a Northern Song
3. All Together Now
4. Hey Bulldog
5. It's All Too Much
6. All You Need Is Love

Side 2
1. Pepperland
2. Sea of Time
3. Sea of Holes
4. Sea of Monsters
5. March of the Meanies
6. Pepperland Laid Waste
7. Yellow Submarine in Pepperland

foobar2000 1.2.9 / Dynamic Range Meter 1.1.1
log date: 2017-11-14 09:04:25

––––––––––––––––––––––––––––––––––––––––
Analyzed: The Beatles / Yellow Submarine
––––––––––––––––––––––––––––––––––––––––

DR Peak RMS Duration Track
––––––––––––––––––––––––––––––––––––––––
DR11 -3.17 dB -18.28 dB 2:39 01-Yellow Submarine
DR11 -5.00 dB -18.21 dB 3:24 02-Only A Northern Song
DR11 -4.79 dB -18.39 dB 2:10 03-All Together Now
DR11 -3.39 dB -17.28 dB 3:10 04-Hey Bulldog
DR12 -4.21 dB -17.84 dB 6:22 05-It's All Too Much
DR12 -4.89 dB -19.51 dB 3:46 06-All You Need Is Love
DR12 -3.32 dB -19.20 dB 2:28 07-Pepperland
DR12 -5.02 dB -22.51 dB 2:54 08-Sea Of Time
DR13 -4.50 dB -22.63 dB 2:15 09-Sea Of Holes
DR13 -2.68 dB -20.80 dB 3:35 10-Sea Of Monsters
DR11 -3.96 dB -19.43 dB 2:18 11-March Of The Meanies
DR16 -3.27 dB -25.15 dB 2:13 12-Pepperland Laid Waste
DR12 -2.11 dB -20.19 dB 2:11 13-Yellow Submarine In Pepperland
––––––––––––––––––––––––––––––––––––––––

Number of tracks: 13
Official DR value: DR12

Samplerate: 44100 Hz
Channels: 2
Bits per sample: 16
Bitrate: 714 kbps
Codec: FLAC
================================================================================



The Beatles: Stereo Vinyl Box Set (2012) [Vinyl Rip 16/44 & mp3-320]

Tracklist VNL13 - 1969 Abbey Road:

Side 1
1. Come Together
2. Something
3. Maxwell's Silver Hammer
4. Oh! Darling
5. Octopus's Garden
6. I Want You (She's So Heavy)

Side 2
01. Here Comes the Sun
02. Because
03. You Never Give Me Your Money
04. Sun King
05. Mean Mr. Mustard
06. Polythene Pam
07. She Came In Through The Bathroom Window
08. Golden Slumbers
09. Carry That Weight
10. The End
11. Her Majesty

foobar2000 1.2.9 / Dynamic Range Meter 1.1.1
log date: 2017-11-14 09:04:44

––––––––––––––––––––––––––––––––––––––––
Analyzed: The Beatles / Abbey Road
––––––––––––––––––––––––––––––––––––––––

DR Peak RMS Duration Track
––––––––––––––––––––––––––––––––––––––––
DR12 -4.38 dB -19.58 dB 4:18 01-Come Together
DR12 -5.26 dB -20.99 dB 3:02 02-Something
DR13 -6.11 dB -21.99 dB 3:27 03-Maxwell's Silver Hammer
DR13 -5.00 dB -19.68 dB 3:26 04-Oh! Darling
DR15 -0.80 dB -21.07 dB 2:50 05-Octopus's Garden
DR13 -3.38 dB -19.53 dB 7:43 06-I Want You (She's So Heavy)
DR13 -1.86 dB -18.39 dB 3:05 07-Here Comes The Sun
DR11 -7.73 dB -21.38 dB 2:45 08-Because
DR12 -3.11 dB -20.42 dB 3:56 09-You Never Give Me Your Money
DR11 -8.09 dB -21.38 dB 2:33 10-Sun King
DR12 -5.35 dB -19.12 dB 1:06 11-Mean Mr Mustard
DR11 -4.61 dB -17.75 dB 3:10 12-Polythene Pam-She Came In Through The Bathroom Window
DR12 -4.75 dB -20.33 dB 1:31 13-Golden Slumbers
DR11 -4.65 dB -18.00 dB 1:36 14-Carry That Weight
DR11 -4.98 dB -19.31 dB 2:21 15-The End
DR11 -7.17 dB -26.70 dB 0:24 16-Her Majesty
––––––––––––––––––––––––––––––––––––––––

Number of tracks: 16
Official DR value: DR12

Samplerate: 44100 Hz
Channels: 2
Bits per sample: 16
Bitrate: 691 kbps
Codec: FLAC
================================================================================



The Beatles: Stereo Vinyl Box Set (2012) [Vinyl Rip 16/44 & mp3-320]

Tracklist VNL14 - 1970 Let it be:

Side 1
1. Two Of Us
2. Dig A Pony
3. Across The Universe
4. I Me Mine
5. Dig It
6. Let It Be
7. Maggie Mae

Side 2
1. I've Got A Feeling
2. One After 909
3. The Long And Winding Road
4. For You Blue
5. Get Back

foobar2000 1.2.9 / Dynamic Range Meter 1.1.1
log date: 2017-11-14 09:05:00

––––––––––––––––––––––––––––––––––––––––
Analyzed: The Beatles / Let It Be
––––––––––––––––––––––––––––––––––––––––

DR Peak RMS Duration Track
––––––––––––––––––––––––––––––––––––––––
DR12 -3.32 dB -18.38 dB 3:35 01-Two Of Us
DR11 -3.19 dB -16.21 dB 3:52 02-Dig a Pony
DR10 -6.03 dB -18.39 dB 3:48 03-Across The Universe
DR11 -2.48 dB -15.68 dB 2:26 04-I Me Mine
DR12 -5.21 dB -20.66 dB 0:50 05-Dig It
DR12 -1.85 dB -17.09 dB 4:01 06-Let It Be
DR11 -5.90 dB -20.02 dB 0:39 07-Maggie Mae
DR10 -2.56 dB -16.12 dB 3:38 08-I've Got a Feeling
DR11 -2.02 dB -14.80 dB 2:52 09-One After 909
DR10 -3.77 dB -16.86 dB 3:37 10-The Long And Winding Road
DR13 -1.44 dB -17.58 dB 2:31 11-For You Blue
DR13 -1.26 dB -16.69 dB 3:08 12-Get Back
––––––––––––––––––––––––––––––––––––––––

Number of tracks: 12
Official DR value: DR11

Samplerate: 44100 Hz
Channels: 2
Bits per sample: 16
Bitrate: 731 kbps
Codec: FLAC
================================================================================



The Beatles: Stereo Vinyl Box Set (2012) [Vinyl Rip 16/44 & mp3-320]

Tracklist VNL15 - 1988 Past Masters Volume 1:

Side 1
1. Love Me Do
2. From Me To You
3. Thank You Girl
4. She Loves You
5. I'll Get You 2:05
6. I Want To Hold Your Hand
7. This Boy
8. Komm, Gib Mir Deine Hand
9. Sie Liebt Dich

Side 2
1. Long Tall Sally
2. I Call Your Name
3. Slow Down
4. Matchbox
5. I Feel Fine
6. She's A Woman
7. Bad Boy
8. Yes It Is
9. I'm Down

foobar2000 1.2.9 / Dynamic Range Meter 1.1.1
log date: 2017-11-14 09:05:22

––––––––––––––––––––––––––––––––––––––––
Analyzed: The Beatles / Past Masters Volume 1
––––––––––––––––––––––––––––––––––––––––

DR Peak RMS Duration Track
––––––––––––––––––––––––––––––––––––––––
DR12 -2.07 dB -15.87 dB 2:22 01-Love Me Do
DR12 -2.85 dB -18.42 dB 1:58 02-From Me To You
DR13 -2.04 dB -18.73 dB 2:03 03-Thank You Girl
DR10 -3.64 dB -15.29 dB 2:21 04-She Loves You
DR11 -3.53 dB -15.58 dB 2:05 05-I'll Get You
DR9 -3.71 dB -15.64 dB 2:26 06-I Want To Hold Your Hand
DR11 -4.70 dB -18.26 dB 2:13 07-This Boy
DR11 -4.01 dB -17.92 dB 2:28 08-Komm, Gib Mir Deine Hand
DR11 -3.79 dB -18.01 dB 2:17 09-Sie Liebt Dich
DR11 -4.22 dB -17.13 dB 2:02 10-Long Tall Sally
DR11 0.00 dB -18.94 dB 2:07 11-I Call Your Name
DR12 -5.02 dB -18.78 dB 2:57 12-Slow Down
DR12 -4.66 dB -18.74 dB 1:58 13-MatchBox
DR11 -4.80 dB -18.15 dB 2:17 14-I Feel Fine
DR12 -2.94 dB -18.49 dB 3:02 15-She's A Woman
DR12 -4.79 dB -19.41 dB 2:21 16-Bad Boy
DR11 -5.59 dB -18.82 dB 2:42 17-Yes It Is
DR12 -2.56 dB -18.48 dB 2:32 18-I'm Down
––––––––––––––––––––––––––––––––––––––––

Number of tracks: 18
Official DR value: DR11

Samplerate: 44100 Hz
Channels: 2
Bits per sample: 16
Bitrate: 806 kbps
Codec: FLAC
================================================================================



Tracklist VNL16 - 1988 Past Masters Volume 2:

Side 1
1. Day Tripper
2. We Can Work It Out
3. Paperback Writer
4. Rain
5. Lady Madonna
6. The Inner Light
7. Hey Jude
8. Revolution

Side 2
1. Get Back
2. Don't Let Me Down
3. The Ballad Of John And Yoko
4. Old Brown Shoe
5. Across The Universe
6. Let It Be
7. You Know My Name (Look Up The Number)

foobar2000 1.2.9 / Dynamic Range Meter 1.1.1
log date: 2017-11-14 09:05:37

––––––––––––––––––––––––––––––––––––––––
Analyzed: The Beatles / Past Masters Volume 2
––––––––––––––––––––––––––––––––––––––––

DR Peak RMS Duration Track
––––––––––––––––––––––––––––––––––––––––
DR11 -5.11 dB -20.54 dB 2:46 01-Day Tripper
DR12 -5.96 dB -20.05 dB 2:16 02-We Can Work It Out
DR11 -4.90 dB -18.65 dB 2:15 03-Paperback Writer
DR11 -3.78 dB -18.52 dB 3:00 04-Rain
DR11 -5.99 dB -18.85 dB 2:19 05-Lady Madonna
DR12 -7.25 dB -22.55 dB 2:34 06-The Inner Light
DR14 -3.93 dB -21.22 dB 7:07 07-Hey Jude
DR12 -5.14 dB -20.21 dB 3:25 08-Revolution
DR11 -4.24 dB -17.79 dB 3:12 09-Get Back (with Billy Preston)
DR12 -3.98 dB -18.04 dB 3:35 10-Don't Let Me Down (With Billy Preston)
DR15 -0.60 dB -18.18 dB 2:58 11-The Ballad Of John And Yoko
DR12 -4.73 dB -19.15 dB 3:17 12-Old Brown Shoe
DR11 -5.83 dB -20.49 dB 3:48 13-Across The Universe
DR11 -5.06 dB -19.64 dB 3:50 14-Let It Be
DR13 -6.30 dB -21.13 dB 4:17 15-You Know My Name (Look Up The Number)
––––––––––––––––––––––––––––––––––––––––

Number of tracks: 15
Official DR value: DR12

Samplerate: 44100 Hz
Channels: 2
Bits per sample: 16
Bitrate: 741 kbps
Codec: FLAC
================================================================================




Original ripper: leokim
Original format: 24-192
Vinyl Condition: Mint
Cleaning:
Direct Drive Turntable: ProJect Debute
Cartridge: ProJect
Amplifier: Clearaudio Basic+
ADC: ASUS HDAV 1.3
Postprocessing:

Downsampled to 16/44


All thanks go to the original releaser

Joe Cocker: Collection (1969 - 1991) [Vinyl Rip 16/44 & mp3-320]
Dire Straits: Discography (1978 - 1991) [Vinyl Rip 16/44 & mp3-320]
Bonnie Tyler: Collection (1977 - 1986) [Vinyl Rip 16/44 & mp3-320]


Wolfgang Amadeus Mozart - Die Violin Konzerte (1968) [Vinyl Rip 16/44 & mp3-320]
Eagles - The Studio Albums 1972-1979 (2013) [Vinyl Rip 16/44 & mp3-320]
Pink Floyd: Discography (1967 - 2014) [Vinyl Rip 16/44 & mp3-320]
Led Zeppelin: Discography (1969 - 1982) [Vinyl Rip 16/44 & mp3-320]
Manowar: Collection (1982 - 2012) [Vinyl Rip 16/44 & mp3-320]
A-HA: Collection (1985-2015) [Vinyl Rip 16/44 & mp3-320]
Decca, Wiener Philharmoniker - 6 Classic Analogue LPs (2014) [Vinyl Rip 16/44]
Beethoven - Chicago Symphony Orchestra / Sir Georg Solti ‎– The Nine Symphonies (1975) [Vinyl Rip 16/44 & mp3-320]
Scorpions: Collection (1974 - 2015) [Vinyl Rip 16/44 & mp3-320]
Pink Floyd - Echoes: The Best Of Pink Floyd (2001) [Vinyl Rip 16/44]
Alice Cooper - Paranormal (2017) [Vinyl Rip 16/44 & mp3-320]
Manfred Mann's Earth Band: Collection (1967 - 2014) [Vinyl Rip 16/44 & mp3-320]
Rainbow: Discography (1975 - 1986) [Vinyl Rip 16/44 & mp3-320]
Amanda Lear: Collection (1978 - 1986) [Vinyl Rip 16/44 & mp3-320]
Space & Didier Marouani: Collection (1977 - 1987) [Vinyl Rip 16/44 & mp3-320]
Rod Stewart: Collection (1969 - 1988) [Vinyl Rip 16/44 & mp3-320]
Kraftwerk: Collection (1974 - 1991) [Vinyl Rip 16/44 & mp3-320]
Roger Waters: Vinyl Collection (1970 - 1992) [Vinyl Rip 16/44 & mp3-320] [Vinyl Rip 16/44 & MP3-320]
David Gilmour - Rattle That Lock (2015) [Vinyl Rip 16/44 & mp3-320]
Depeche Mode: Collection (1981 - 2013) [Vinyl Rip 16/44 & mp3-320]
Sade: Discography (1984 - 2010) [Vinyl Rip 16/44 & MP3-320]
Queen: Collection (1973 - 1995) [Vinyl Rip 16/44 & MP3-320]
Metallica: Discography (1983 - 2016) [Vinyl Rip 16/44 & mp3-320]
The Doors: Collection (1967 - 1971) [Vinyl Rip 16/44 & mp3-320]
The Beatles: Discography (1963 - 1988) [Vinyl Rip 16/44 & mp3-320]



The Beatles or The Beatles in my Blog

Download The Beatles: Stereo Vinyl Box Set (2012):