Tags
Language
Tags

The Hives - Tyrannosaurus Hives (2004) Japanese Edition [Re-Up]

Posted By: Designol
The Hives - Tyrannosaurus Hives (2004) Japanese Edition [Re-Up]

The Hives - Tyrannosaurus Hives (2004) Japanese Edition
EAC | FLAC | Image (Cue&Log) ~ 265 Mb | Mp3 (CBR320) ~ 79 Mb | Scans ~ 46 Mb
Garage Rock, Garage Punk | Label: Universal International | # UICP-1054 | 00:34:31

It's clear that a lot care goes into the Hives' seemingly immediate, fired-up sound: this is a band, after all, that has only released three full-length albums in its 11-year lifespan. While the 2002 collection Your New Favourite Band ended up winning the group many more fans thanks to its fortuitous timing with the garage rock revival craze (and also ended up being the band's most consistent release to date), it didn't do much to disguise the fact that the Hives hadn't released a new album since 2000's Veni Vidi Vicious. Two years later, Tyrannosaurus Hives arrives, and proves that the band isn't just a fossil from the days when everyone (or critics, at least) thought that the Hives and the other bands lumped in with the rock revival were going to change the face of pop music. It may have taken the Hives awhile to follow up Veni Vidi Vicious, but they didn't waste any time: Tyrannosaurus Hives is half an hour of highly compressed, high-contrast rock that is far and away the band's best album. As usual, the band's motto seems to be "get in, rock hard, get out," and the album's opening tracks, "Abra Cadaver" and "Two-Timing Touch and Broken Bones" – which boasts a chord sequence that sounds like a sped-up version of Paul Revere & the Raiders classic antidrug rant "Kicks" – cut right to the chase. But, as with the rest of Tyrannosaurus Hives, these songs are more focused explosions than the nonstop firepower of "Hate to Say I Told You So" and "Main Offender." While recording the album, the Hives mentioned that they were especially inspired by Kraftwerk. Even though nothing here sounds like "Pocket Calculator" and the band hasn't forsaken its black-and-white dress code for Teutonic black and red, that band's influence is indeed all over Tyrannosaurus Hives, most literally on the breakup lament "Love in Plaster," which borrows a motorik beat and squiggly keyboards. More importantly, though, it's noticeable in the band's precise playing throughout the album and particularly on the single "Walk Idiot Walk," which initially sounds downright subdued compared to the Hives' previous singles, but eventually reveals itself as just a more elongated and tense deployment of their forces. Fortunately, this tightly engineered sound doesn't get hamper the band's energy; if anything, it offers a better platform for Pelle Almqvist's howling, especially on "No Pun Intended" and "Dead Quote Olympics." The refinement of the Hives' sound shows up in other ways, such as the excellent new wave soul rave-up "A Little More for Little You" and "Diabolic Scheme"' string-laden wails. Tyrannosaurus Hives might be a little more complex and polished than the Hives' earlier work, but it's not overthought at all; even though they've evolved, they know how to keep it simple, stupid. Crucially, the band remembers that garage rock is supposed to be catchy as hell as well as cleverly dumb, and even their toughest songs have hooks aplenty: "B Is for Brutus" has wonderfully prickly, reverb-drenched guitars and impatient pianos egging it on, and "See Through Head"'s silly "uh-uh-uh-uh-oh!" refrain just adds to its caustic charm. Songs like these once again prove how neutered-sounding most mainstream punk-pop (and indeed, quite a bit of nu-garage rock) really is. But the Hives lead by example; they were going before garage rock became a fad, and Tyrannosaurus Hives shows that they'll be able to keep going long after the fad has faded.

Review by Heather Phares, Allmusic.com

The Hives - Tyrannosaurus Hives (2004) Japanese Edition [Re-Up]



Tracklist:

01. Abra Cadaver (01:33)
02. Two-Timing Touch And Broken Bones (02:00)
03. Walk Idiot Walk (03:31)
04. No Pun Intended (02:20)
05. A Little More For Little You (02:58)
06. B Is For Brutus (02:36)
07. See Through Head (02:21)
08. Diabolic Scheme (03:00)
09. Missing Link (01:56)
10. Love In Plaster (03:11)
11. Dead Quote Olympics (01:59)
12. Antidote (02:30)

Bonus tracks:
13. Uptight (02:25)
14. The Hives Meet The Norm (02:06)


Exact Audio Copy V0.99 prebeta 5 from 4. May 2009

Отчёт EAC об извлечении, выполненном 20. декабря 2011, 20:23

The Hives / Tyrannosaurus Hives

Дисковод: ASUS DRW-24B3LT Adapter: 3 ID: 0

Режим чтения : Достоверность
Использование точного потока : Да
Отключение кэша аудио : Да
Использование указателей C2 : Нет

Коррекция смещения при чтении : 6
Способность читать области Lead-in и Lead-out : Нет
Заполнение пропущенных сэмплов тишиной : Да
Удаление блоков с тишиной в начале и конце : Нет
При вычислениях CRC использовались нулевые сэмплы : Да
Интерфейс : Встроенный Win32-интерфейс для Win NT/2000

Выходной формат : Внутренние WAV-операции
Формат сэмплов : 44.100 Гц; 16 бит; стерео


TOC извлечённого CD

Трек | Старт | Длительность | Начальный сектор | Конечный сектор
––––––––––––––––––––––––––––––––––-
1 | 0:00.00 | 1:33.46 | 0 | 7020
2 | 1:33.46 | 2:00.38 | 7021 | 16058
3 | 3:34.09 | 3:31.61 | 16059 | 31944
4 | 7:05.70 | 2:20.40 | 31945 | 42484
5 | 9:26.35 | 2:58.48 | 42485 | 55882
6 | 12:25.08 | 2:36.26 | 55883 | 67608
7 | 15:01.34 | 2:21.50 | 67609 | 78233
8 | 17:23.09 | 3:00.08 | 78234 | 91741
9 | 20:23.17 | 1:56.01 | 91742 | 100442
10 | 22:19.18 | 3:11.30 | 100443 | 114797
11 | 25:30.48 | 1:59.11 | 114798 | 123733
12 | 27:29.59 | 2:30.08 | 123734 | 134991
13 | 29:59.67 | 2:25.00 | 134992 | 145866
14 | 32:24.67 | 2:06.61 | 145867 | 155377
15 | 37:03.53 | 10:27.41 | 166778 | 213843


Характеристики диапазона извлечения и сообщения об ошибках

Выбранный диапазон

Имя файла D:\Раздачи\The Hives-Tyrannosaurus Hives (Japan Version, Bonus Tracks)\The Hives - Tyrannosaurus Hives.wav

Пиковый уровень 100.0 %
Качество диапазона 100.0 %
CRC теста 18275BEB
CRC копии 18275BEB
Копирование… OK

Ошибок не произошло


AccurateRip: сводка

Трек 1 точное извлечение (доверие 1) [1B84C6A0]
Трек 2 точное извлечение (доверие 1) [42A98B28]
Трек 3 точное извлечение (доверие 1) [52B7A233]
Трек 4 точное извлечение (доверие 1) [95E0EA43]
Трек 5 точное извлечение (доверие 1) [F0931097]
Трек 6 точное извлечение (доверие 1) [2B6B0429]
Трек 7 точность не определена (достоверность 1) [FA4DF993], AccurateRip вернул [8C146719]
Трек 8 точное извлечение (доверие 1) [4C069718]
Трек 9 точное извлечение (доверие 1) [7AA1A41C]
Трек 10 точность не определена (достоверность 1) [A3F72251], AccurateRip вернул [BE41B8AD]
Трек 11 точность не определена (достоверность 1) [AB355CFE], AccurateRip вернул [D06B5971]
Трек 12 точное извлечение (доверие 1) [B15935EC]
Трек 13 точное извлечение (доверие 1) [324E53A0]
Трек 14 точное извлечение (доверие 1) [5B5AFF58]

11 трек(и) скопированы точно
3 трек(и) не удалось проверить на точность

Некоторые треки не прошли проверку на точность

Конец отчёта

[CUETools log; Date: 24.08.2013 23:32:33; Version: 2.1.4]
CD-Extra data track length 10:27:41.
[CTDB TOCID: LBeaTxZu7LDW5eqBu2Ma23qzgOg-] found.
Track | CTDB Status
1 | (19/19) Accurately ripped
2 | (19/19) Accurately ripped
3 | (19/19) Accurately ripped
4 | (19/19) Accurately ripped
5 | (19/19) Accurately ripped
6 | (19/19) Accurately ripped
7 | (19/19) Accurately ripped
8 | (19/19) Accurately ripped
9 | (19/19) Accurately ripped
10 | (19/19) Accurately ripped
11 | (19/19) Accurately ripped
12 | (19/19) Accurately ripped
13 | (19/19) Accurately ripped
14 | (19/19) Accurately ripped
[AccurateRip ID: 0012afd0-00ccc2ee-b50b230f] found.
Track [ CRC | V2 ] Status
01 [1b84c6a0|52828266] (2+0/2) Accurately ripped
02 [42a98b28|c0d7473e] (2+0/2) Accurately ripped
03 [52b7a233|6424330b] (2+0/2) Accurately ripped
04 [95e0ea43|d3cc5aca] (2+0/2) Accurately ripped
05 [f0931097|5f4974aa] (2+0/2) Accurately ripped
06 [2b6b0429|115994c8] (2+0/2) Accurately ripped
07 [fa4df993|e6e1c18d] (0+0/0) No match
08 [4c069718|d8fd3d28] (2+0/2) Accurately ripped
09 [7aa1a41c|a9181ecc] (2+0/2) Accurately ripped
10 [a3f72251|c9aaa58b] (0+0/0) No match
11 [ab355cfe|e5504c8a] (0+0/0) No match
12 [b15935ec|2f452ab0] (2+0/2) Accurately ripped
13 [324e53a0|9fced6eb] (2+0/2) Accurately ripped
14 [5b5aff58|c5d3e490] (2+0/2) Accurately ripped

Track Peak [ CRC32 ] [W/O NULL] [ LOG ]
– 100,0 [18275BEB] [D63F00D9] CRC32
01 100,0 [9EBC6398] [2AD731DE]
02 100,0 [901A83B8] [F8DE5F17]
03 100,0 [20683F04] [593F43A6]
04 100,0 [D2E7E5DC] [EA363F57]
05 100,0 [A3EDC459] [1251F022]
06 100,0 [8CE7D021] [9D1C9A91]
07 100,0 [FC6F7299] [3C39CAE2]
08 100,0 [2863F8C4] [039E8648]
09 100,0 [AB061E05] [E4ECB474]
10 100,0 [BB3833AB] [ADAB005E]
11 100,0 [A003281B] [D04CEAC9]
12 100,0 [4DCF9066] [07F6E9D1]
13 98,8 [EA63BBB3] [18E4F710]
14 98,8 [CCD00FFC] [844E315A]

foobar2000 1.2 / Dynamic Range Meter 1.1.1
log date: 2013-08-24 23:36:38

––––––––––––––––––––––––––––––––––––––––
Analyzed: The Hives / Tyrannosaurus Hives
––––––––––––––––––––––––––––––––––––––––

DR Peak RMS Duration Track
––––––––––––––––––––––––––––––––––––––––
DR7 0.00 dB -7.36 dB 1:34 01-Abra Cadaver
DR7 0.00 dB -8.24 dB 2:01 02-Two-Timing Touch And Broken Bones
DR7 0.00 dB -7.78 dB 3:32 03-Walk Idiot Walk
DR7 0.00 dB -7.96 dB 2:21 04-No Pun Intended
DR7 0.00 dB -7.66 dB 2:59 05-A Little More For Little You
DR7 0.00 dB -8.13 dB 2:36 06-B Is For Brutus
DR6 0.00 dB -7.34 dB 2:22 07-See Through Head
DR8 0.00 dB -9.30 dB 3:00 08-Diabolic Scheme
DR7 0.00 dB -7.90 dB 1:56 09-Missing Link
DR7 0.00 dB -8.46 dB 3:11 10-Love In Plaster
DR6 0.00 dB -8.13 dB 1:59 11-Dead Quote Olympics
DR7 0.00 dB -8.53 dB 2:30 12-Antidote
DR5 -0.10 dB -5.85 dB 2:25 13-Uptight
DR5 -0.10 dB -6.54 dB 2:07 14-The Hives Meet The Norm
––––––––––––––––––––––––––––––––––––––––

Number of tracks: 14
Official DR value: DR7

Samplerate: 44100 Hz
Channels: 2
Bits per sample: 16

The Hives - Tyrannosaurus Hives (2004) Japanese Edition [Re-Up]

The Hives - Tyrannosaurus Hives (2004) Japanese Edition [Re-Up]

All thanks to original releaser - Brudjik

More interesting music in My Blog