Tags
Language
Tags

The Jive Aces - Spread A Little Happiness (2015)

Posted By: popsakov
The Jive Aces - Spread A Little Happiness (2015)

The Jive Aces - Spread A Little Happiness (2015)
EAC Rip | FLAC (Img) + Cue + Log ~ 322 Mb | MP3 CBR320 ~ 169 Mb
Full Scans | 00:34:07 | RAR 5% Recovery
Jazz, Swing, Boogie-Woogie | Golden Age Recordings #GARCD003

Spread A Little Happiness, is the band's 8th studio album, was recorded at Chick Corea's state of the art former studio in Hollywood, the Mad Hatter Studios, and features original tunes such as their recent single, La Dolce Vita. The 12 track album is full of classic and original songs guaranteed to bring a smile to your face. The album also features Hollywood pin-up vocal & dance group The Satin Dollz on an up-beat version of In The Mood. Being inspired by thousands of their fans constant praise of your music just makes me feel happy, lead singer Ian Clarkson commented: We listen to our fans, and wanted to create an album which gave them the very reason why they love the band's music. We also wrote many of our own songs which are all uplifting and make you happy. The album was mixed by multi Grammy Award winning audio mixer Buck Snow and mastered by world renowned and Grammy Award winning audio engineer Bernie Grundman. The Jive Aces Have recently returned to the UK after yet another tour of the USA. They have recently appeared on the BBC's People's Strictly, featured in a six page article in Vintage Rock magazine and performed at some of the biggest UK festivals, such as Glastonbury and the Edinburgh Fringe, and were semi-finalists on Britain's Got Talent. It was their viral video for Bring Me Sunshine that created worldwide recognition and helped them successfully break into the US theatre circuit. Just some of the many great musicians the Jive Aces have worked with are Van Morrison, Chick Corea, Jamie Cullum, Keely Smith, Kenny Ball, John Travolta, Juliette Lewis and Priscilla Presley.

~ Amazon
The Jive Aces - Spread A Little Happiness (2015)


***************

The Jive Aces - Spread A Little Happiness (2015)

Track List:

01. Spread a Little Happiness [2:43]
02. Bare Necessities [2:09]
03. Dolce Vita [3:15]
04. L.O.V.E [2:49]
05. Lovin'life [3:13]
06. Smile [3:10]
07. Boogie Woogie Country Girl [2:51]
08. Get Me to the Church on Time [2:26]
09. I Like to Eat [3:26]
10. Simple Things [2:46]
11. In the Mood [3:02]
12. Answer Your Call [2:17]

Exact Audio Copy V1.0 beta 3 from 29. August 2011

EAC extraction logfile from 3. December 2016, 1:08

Spread A Little Happines / Jive Aces

Used drive : PIONEER BD-RW BDR-TD03 Adapter: 0 ID: 1

Read mode : Secure
Utilize accurate stream : Yes
Defeat audio cache : Yes
Make use of C2 pointers : No

Read offset correction : 667
Overread into Lead-In and Lead-Out : No
Fill up missing offset samples with silence : Yes
Delete leading and trailing silent blocks : No
Null samples used in CRC calculations : Yes
Used interface : Native Win32 interface for Win NT & 2000

Used output format : User Defined Encoder
Selected bitrate : 768 kBit/s
Quality : High
Add ID3 tag : No
Command line compressor : C:\Program Files (x86)\Exact Audio Copy\FLAC\FLAC.EXE
Additional command line options : -6 -V -T "ARTIST=%artist%" -T "TITLE=%title%" -T "ALBUM=%albumtitle%" -T "DATE=%year%" -T "TRACKNUMBER=%tracknr%" -T "GENRE=%genre%" -T "COMMENT=%comment%" -T "BAND=%albuminterpret%" -T "ALBUMARTIST=%albuminterpret%" -T "COMPOSER=%composer%" %haslyrics%–tag-from-file=LYRICS="%lyricsfile%"%haslyrics% -T "DISCNUMBER=%cdnumber%" -T "TOTALDISCS=%totalcds%" -T "TOTALTRACKS=%numtracks%" %hascover%–picture="%coverfile%"%hascover% %source% -o %dest%


TOC of the extracted CD

Track | Start | Length | Start sector | End sector
––––––––––––––––––––––––––––-
1 | 0:00.00 | 2:42.61 | 0 | 12210
2 | 2:42.61 | 2:08.69 | 12211 | 21879
3 | 4:51.55 | 3:15.11 | 21880 | 36515
4 | 8:06.66 | 2:48.48 | 36516 | 49163
5 | 10:55.39 | 3:12.48 | 49164 | 63611
6 | 14:08.12 | 3:10.13 | 63612 | 77874
7 | 17:18.25 | 2:51.28 | 77875 | 90727
8 | 20:09.53 | 2:25.70 | 90728 | 101672
9 | 22:35.48 | 3:25.63 | 101673 | 117110
10 | 26:01.36 | 2:46.00 | 117111 | 129560
11 | 28:47.36 | 3:02.13 | 129561 | 143223
12 | 31:49.49 | 2:16.65 | 143224 | 153488


Range status and errors

Selected range

Filename C:\Users\Deris\Desktop\Jiv1Ac5\Spread A Little Happines - Jive Aces.wav

Peak level 100.0 %
Extraction speed 4.3 X
Range quality 100.0 %
Test CRC 865AE1CE
Copy CRC 865AE1CE
Copy OK

No errors occurred


AccurateRip summary

Track 1 accurately ripped (confidence 1) [E803D481] (AR v1)
Track 2 accurately ripped (confidence 1) [309A7C46] (AR v1)
Track 3 accurately ripped (confidence 1) [F51D86D0] (AR v1)
Track 4 accurately ripped (confidence 1) [4F530E43] (AR v1)
Track 5 accurately ripped (confidence 1) [24CA4989] (AR v1)
Track 6 accurately ripped (confidence 1) [36960A5B] (AR v1)
Track 7 accurately ripped (confidence 1) [EEF3204D] (AR v1)
Track 8 accurately ripped (confidence 1) [0C8F812F] (AR v1)
Track 9 accurately ripped (confidence 1) [C612D3F4] (AR v1)
Track 10 accurately ripped (confidence 1) [9089AC53] (AR v1)
Track 11 accurately ripped (confidence 1) [A477ADFD] (AR v1)
Track 12 accurately ripped (confidence 1) [B48D365B] (AR v1)

All tracks accurately ripped

End of status report

–– CUETools DB Plugin V2.1.3

[CTDB TOCID: sf2LYlvdVPLSattyDGb37LwPDOY-] disk not present in database, Submit result: sf2LYlvdVPLSattyDGb37LwPDOY- has been uploaded


==== Log checksum 50CA6613DE9276E6418F6407E03877386AB660BAF103FAE86D11F6A345943825 ====

[CUETools log; Date: 06.12.2016 0:48:38; Version: 2.1.5]
[CTDB TOCID: sf2LYlvdVPLSattyDGb37LwPDOY-] found.
Track | CTDB Status
1 | (1/1) Accurately ripped
2 | (1/1) Accurately ripped
3 | (1/1) Accurately ripped
4 | (1/1) Accurately ripped
5 | (1/1) Accurately ripped
6 | (1/1) Accurately ripped
7 | (1/1) Accurately ripped
8 | (1/1) Accurately ripped
9 | (1/1) Accurately ripped
10 | (1/1) Accurately ripped
11 | (1/1) Accurately ripped
12 | (1/1) Accurately ripped
[AccurateRip ID: 000f36b4-008ed24f-9607fe0c] found.
Track [ CRC | V2 ] Status
01 [e803d481|b8967353] (1+1/2) Accurately ripped
02 [309a7c46|dfd3c2b0] (1+1/2) Accurately ripped
03 [f51d86d0|0bf7cebc] (1+1/2) Accurately ripped
04 [4f530e43|d498f8cb] (1+1/2) Accurately ripped
05 [24ca4989|9f2e509b] (1+1/2) Accurately ripped
06 [36960a5b|4b76abac] (1+1/2) Accurately ripped
07 [eef3204d|8dee9e66] (1+1/2) Accurately ripped
08 [0c8f812f|43b5e821] (1+1/2) Accurately ripped
09 [c612d3f4|6b641978] (1+1/2) Accurately ripped
10 [9089ac53|25ee2ead] (1+1/2) Accurately ripped
11 [a477adfd|197c1ccd] (1+1/2) Accurately ripped
12 [b48d365b|b1da1972] (1+1/2) Accurately ripped

Track Peak [ CRC32 ] [W/O NULL] [ LOG ]
– 100,0 [865AE1CE] [10785DC5] CRC32
01 100,0 [22F67038] [B893093A]
02 100,0 [5948A885] [83FCB845]
03 100,0 [AE484526] [FC254CC1]
04 100,0 [C57E7155] [7EA568A9]
05 100,0 [F15F45C9] [2F026561]
06 100,0 [DF4AD20B] [B00720B5]
07 99,8 [AB648062] [4CE8926A]
08 99,6 [B4DD3F3E] [844F48F0]
09 98,6 [2E4CF7AB] [167D0C07]
10 100,0 [E50ECA29] [76DB316B]
11 100,0 [056EA91A] [AD92575B]
12 100,0 [669E2446] [8B45E4A2]

The Jive Aces - Spread A Little Happiness (2015)


All thanks go to Boris1

>>> The Jive Aces in my Blog <<<

DOWNLOAD: