Tags
Language
Tags

The KLF - The White Room (1991) [Original UK-Release] Re-Up

Posted By: Designol
The KLF - The White Room (1991) [Original UK-Release] Re-Up

The KLF - The White Room (1991)
EAC | FLAC | Image (Cue&Log) ~ 288 Mb | Mp3 (CBR320) ~ 122 Mb | Scans included
Electronic, Acid House | Label: KLF Communications | # JAMS CD006 | Time: 00:43:54

After the incredible success of their "Doctorin' the Tardis" single in 1988 (better known as that theme from Dr. Who), Drummond and Cauty had plenty of money to hire talented musicians (instead of merely sampling them, as on their early recordings). The White Room is the result, an album bursting with hit singles that nevertheless flows as well as any concept album. Often overlooked as a classic from the acid house era (mostly because of the KLF's retirement one year later), The White Room represents the commercial and artistic peak of late-'80s acid-house.

Review by John Bush, Allmusic.com

The KLF - The White Room (1991) [Original UK-Release] Re-Up



Tracklist:

01. What time is love? (LP mix) (04:40)
02. Make it rain (04:03)
03. 3 A.M. eternal (live at the SSL) / Church of the KLF (05:27)
04. Last train to trancentral (LP mix) (05:36)
05. Build a fire (04:39)
06. The white room (05:14)
07. No more tears (09:23)
08. Justified and ancient (04:44)


Exact Audio Copy V1.0 beta 3 from 29. August 2011

EAC extraction logfile from 17. January 2013, 18:10

The KLF / The White Room

Used drive : TSSTcorpCDDVDW SH-224BB Adapter: 4 ID: 0

Read mode : Secure
Utilize accurate stream : Yes
Defeat audio cache : Yes
Make use of C2 pointers : No

Read offset correction : 6
Overread into Lead-In and Lead-Out : No
Fill up missing offset samples with silence : Yes
Delete leading and trailing silent blocks : No
Null samples used in CRC calculations : Yes
Used interface : Installed external ASPI interface

Used output format : User Defined Encoder
Selected bitrate : 128 kBit/s
Quality : High
Add ID3 tag : No
Command line compressor : C:\Program Files\FLAC\FLAC frontend.exe
Additional command line options : -V -8 -T "Genre=%genre%" -T "Artist=%artist%" -T "Title=%title%" -T "Album=%albumtitle%" -T "Date=%year%" -T "Tracknumber=%tracknr%" -T "Comment=%comment%" %source%


TOC of the extracted CD

Track | Start | Length | Start sector | End sector
––––––––––––––––––––––––––––-
1 | 0:00.00 | 4:40.37 | 0 | 21036
2 | 4:40.37 | 4:03.00 | 21037 | 39261
3 | 8:43.37 | 5:27.25 | 39262 | 63811
4 | 14:10.62 | 5:40.15 | 63812 | 89326
5 | 19:51.02 | 4:39.70 | 89327 | 110321
6 | 24:30.72 | 5:14.70 | 110322 | 133941
7 | 29:45.67 | 9:23.63 | 133942 | 176229
8 | 39:09.55 | 4:44.22 | 176230 | 197551


Range status and errors

Selected range

Filename D:\The White Room (JAMS CD006) (1991)\The KLF - The White Room.wav

Peak level 90.6 %
Extraction speed 2.8 X
Range quality 100.0 %
Test CRC A97A5C9D
Copy CRC A97A5C9D
Copy OK

No errors occurred


AccurateRip summary

Track 1 accurately ripped (confidence 12) [F71F2612] (AR v2)
Track 2 accurately ripped (confidence 12) [26B8379B] (AR v2)
Track 3 accurately ripped (confidence 12) [44D50C60] (AR v2)
Track 4 accurately ripped (confidence 13) [590FD243] (AR v2)
Track 5 accurately ripped (confidence 13) [D588C175] (AR v2)
Track 6 accurately ripped (confidence 14) [92BB78E4] (AR v2)
Track 7 accurately ripped (confidence 14) [9974E560] (AR v2)
Track 8 accurately ripped (confidence 14) [BF631B39] (AR v2)

All tracks accurately ripped

End of status report

==== Log checksum E536A61404FC2CA98A0D3BEDCE2A2011BE51BF4EF8EA5190C8559684F05A4BD1 ====

foobar2000 1.2 / Dynamic Range Meter 1.1.1
log date: 2013-05-11 15:28:38

––––––––––––––––––––––––––––––––––––––––
Analyzed: The KLF / The White Room
––––––––––––––––––––––––––––––––––––––––

DR Peak RMS Duration Track
––––––––––––––––––––––––––––––––––––––––
DR10 -1.56 dB -15.10 dB 4:40 01-What time is love? (LP mix)
DR12 -1.46 dB -15.53 dB 4:03 02-Make it rain
DR12 -1.12 dB -16.57 dB 5:27 03-3 A.M. eternal (live at the SSL) / Church of the KLF
DR13 -0.85 dB -16.32 dB 5:40 04-Last train to trancentral (LP mix)
DR15 -2.57 dB -19.97 dB 4:40 05-Build a fire
DR13 -2.04 dB -17.79 dB 5:15 06-The white room
DR10 -2.33 dB -14.81 dB 9:24 07-No more tears
DR12 -3.61 dB -19.19 dB 4:44 08-Justified and ancient
––––––––––––––––––––––––––––––––––––––––

Number of tracks: 8
Official DR value: DR12

Samplerate: 44100 Hz
Channels: 2
Bits per sample: 16
Bitrate: 849 kbps
Codec: FLAC
================================================================================

The KLF - The White Room (1991) [Original UK-Release] Re-Up

The KLF - The White Room (1991) [Original UK-Release] Re-Up

All thanks to original releaser - S.B.WILD

More interesting music in My Blog