Tags
Language
Tags
November 2022
Su Mo Tu We Th Fr Sa
30 31 1 2 3 4 5
6 7 8 9 10 11 12
13 14 15 16 17 18 19
20 21 22 23 24 25 26
27 28 29 30 1 2 3

The Larry Coryell Organ Trio - Impressions: The New York Sessions (2008)

Posted By: Designol
The Larry Coryell Organ Trio - Impressions: The New York Sessions (2008)

The Larry Coryell Organ Trio - Impressions: The New York Sessions (2008)
EAC | FLAC | Image (Cue&Log) ~ 297 Mb | Mp3 (CBR320) ~ 128 Mb | Scans ~ 147 Mb | 00:55:53
Post-Bop, Contemporary Jazz, Guitar Jazz, Hammond B3 | Label: Chesky | # SACD337

This smoking organ trio recording is a first for guitarist Larry Coryell and a return to his roots. With the innovative young Hammond B-3 organist Sam Yahel and the versatile, reliably swinging drummer Paul Wertico, the guitar great breathes new life into six familiar jazz pieces, such as "Impressions", "Come Rain or Come Shine" and "Embraceable You" while also showcasing his inimitable fleet-fingered facility on three original compositions.

Larry Coryell's name isn't bandied around much now, but in the 1970s he was almost as big a guitar star as John McLaughlin, and an equivalent influence on the development of early electric jazz-rock fusion. But this is not just another cosy retro exercise. Coryell's crackling uptempo bursts and engagingly rough-hewn energy give this familiar music a vividness and infectious enthusiasm, and the powerful presence of sometime Bill Frisell and Norah Jones sideman Sam Yahel on Hammond organ and former Pat Metheny drummer Paul Wertico adds a lot more of that. The early tracks are mostly classics, but Coryell's original Szabador and Wertico's Full Moon Over Istanbul are memorable and unusual enough to suggest that the group could have scattered its own music a little more confidently through the programme. Coryell's own stealthily bluesy groover Stowaway is full of Wes Montgomery flourishes, and Yahel builds his solos with a compelling deliberation tentatively introducing fresh phrases and then igniting them, segueing flying runs into murmurs, and generally avoiding familiar Hammond organ licks. Wertico's brutal, pummelling drum solo in Coryell's fizzing Szabodar (a tribute to the late Hungarian guitarist Gábor Szabó) would also never have been heard the same way on a 1960s bop set. It's good to hear Coryell on top of his game.

Review by John Fordham, The Guardian

One of Jazz's all-time great guitarists pays his respects to Wes Montgomery and the organ trio tradition in this recent of Coryell's musical treats. While this isn't a Montgomery imitation (no need for LC to imitate anyone) there are enough signs here to cause interest in some of Wes's work with organists (and other stuff). Larry himself shows enough of his own originality, as does organist Sam Yahel (is he playing bass with his left hand exclusively?), and the drumming of Paul Wertico is a wonderful contribution. This is really worth having, for both their fine work on originals and the trio's treatment of standards.

Review by G. Hancock

The Larry Coryell Organ Trio - Impressions: The New York Sessions (2008)




Larry Coryell, electric guitar
Sam Yahel, organ [Hammond B3]
Paul Wertico, drums

Tracklist:

01. Very Early (7:08)
02. Stowaway (6:15)
03. Come Rain or Come Shine (6:55)
04. Embraceable You (7:32)
05. Caribe (6:05)
06. Impressions (5:58)
07. Szabado (5:19)
08. Full Moon over Istanbul (3:16)
09. Centerpiece (7:25)


Exact Audio Copy V1.0 beta 6 from 9. April 2015

EAC extraction logfile from 24. August 2017, 2:57

Larry Coryell Trio / Impressions

Used drive : PLEXTOR DVDR PX-891SA Adapter: 0 ID: 2

Read mode : Secure
Utilize accurate stream : Yes
Defeat audio cache : Yes
Make use of C2 pointers : No

Read offset correction : 6
Overread into Lead-In and Lead-Out : No
Fill up missing offset samples with silence : Yes
Delete leading and trailing silent blocks : No
Null samples used in CRC calculations : Yes
Used interface : Installed external ASPI interface

Used output format : User Defined Encoder
Selected bitrate : 320 kBit/s
Quality : High
Add ID3 tag : No
Command line compressor : C:\Program Files\Exact Audio Copy 1.b6\Exact Audio Copy\Flac\flac.exe
Additional command line options : -V -8 -T "Genre=%genre%" -T "Artist=%artist%" -T "Title=%title%" -T "Album=%albumtitle%" -T "Date=%year%" -T "Tracknumber=%tracknr%" -T "Comment=%comment%" %source%


TOC of the extracted CD

Track | Start | Length | Start sector | End sector
––––––––––––––––––––––––––––-
1 | 0:00.00 | 7:08.10 | 0 | 32109
2 | 7:08.10 | 6:15.00 | 32110 | 60234
3 | 13:23.10 | 6:55.00 | 60235 | 91359
4 | 20:18.10 | 7:32.00 | 91360 | 125259
5 | 27:50.10 | 6:05.00 | 125260 | 152634
6 | 33:55.10 | 5:58.00 | 152635 | 179484
7 | 39:53.10 | 5:19.00 | 179485 | 203409
8 | 45:12.10 | 3:16.00 | 203410 | 218109
9 | 48:28.10 | 7:25.20 | 218110 | 251504


Range status and errors

Selected range

Filename L:\Audio\SWF\Larry Coryell\2008. Larry Coryell Organ Trio - Impressions (2008 Chesky Records, SACD 337, USA)\Larry Coryell Trio - Impressions.wav

Peak level 100.0 %
Extraction speed 8.7 X
Range quality 100.0 %
Test CRC 50DB036D
Copy CRC 50DB036D
Copy OK

No errors occurred


AccurateRip summary

Track 1 accurately ripped (confidence 11) [21D7CDFF] (AR v2)
Track 2 accurately ripped (confidence 11) [E5C3009C] (AR v2)
Track 3 accurately ripped (confidence 11) [2ABF6FFA] (AR v2)
Track 4 accurately ripped (confidence 11) [E1C1C3AB] (AR v2)
Track 5 accurately ripped (confidence 12) [FD1E47F5] (AR v2)
Track 6 accurately ripped (confidence 11) [FB6D09C2] (AR v2)
Track 7 accurately ripped (confidence 11) [C434543A] (AR v2)
Track 8 accurately ripped (confidence 11) [97313065] (AR v2)
Track 9 accurately ripped (confidence 11) [DBB6D352] (AR v2)

All tracks accurately ripped

End of status report

–– CUETools DB Plugin V2.1.6

[CTDB TOCID: Augz.HW84LD93XXnGPs0dF0GY_c-] found
Submit result: Augz.HW84LD93XXnGPs0dF0GY_c- has been confirmed
Track | CTDB Status
1 | (12/12) Accurately ripped
2 | (12/12) Accurately ripped
3 | (12/12) Accurately ripped
4 | (12/12) Accurately ripped
5 | (12/12) Accurately ripped
6 | (12/12) Accurately ripped
7 | (12/12) Accurately ripped
8 | (12/12) Accurately ripped
9 | (12/12) Accurately ripped


==== Log checksum 54770912B784C1CF350B98DB6700A08FDB22EC736C2DA4D69A6DA94A57061049 ====

[CUETools log; Date: 28.08.2017 17:49:25; Version: 2.1.4]
[CTDB TOCID: Augz.HW84LD93XXnGPs0dF0GY_c-] found.
Track | CTDB Status
1 | (13/13) Accurately ripped
2 | (13/13) Accurately ripped
3 | (13/13) Accurately ripped
4 | (13/13) Accurately ripped
5 | (13/13) Accurately ripped
6 | (13/13) Accurately ripped
7 | (13/13) Accurately ripped
8 | (13/13) Accurately ripped
9 | (13/13) Accurately ripped
[AccurateRip ID: 00140d3e-00912ccf-640d1909] found.
Track [ CRC | V2 ] Status
01 [45757e95|21d7cdff] (09+11/20) Accurately ripped
02 [a8ed6f06|e5c3009c] (10+11/21) Accurately ripped
03 [4cf09bfa|2abf6ffa] (10+11/21) Accurately ripped
04 [b5d0bcc3|e1c1c3ab] (10+11/21) Accurately ripped
05 [0e0031a0|fd1e47f5] (11+12/23) Accurately ripped
06 [38160fe6|fb6d09c2] (10+11/21) Accurately ripped
07 [15e25c08|c434543a] (10+11/21) Accurately ripped
08 [b6fa0aa1|97313065] (10+11/21) Accurately ripped
09 [3b645367|dbb6d352] (10+11/21) Accurately ripped

Track Peak [ CRC32 ] [W/O NULL] [ LOG ]
– 100,0 [50DB036D] [944FA991] CRC32
01 99,9 [8FCE4A7C] [0074B653]
02 100,0 [FD494034] [455EA26E]
03 95,5 [79A30204] [91EDC0D2]
04 75,0 [030A74A9] [9FB7E69C]
05 99,9 [F021C4A9] [AA9734C7]
06 100,0 [8793C784] [F44DF10E]
07 100,0 [C05FE39F] [72F511F0]
08 63,8 [8AD1C0B4] [0BCEF326]
09 86,5 [F9247BB0] [ED38C237]

foobar2000 1.2 / Dynamic Range Meter 1.1.1
log date: 2017-08-28 17:12:59

––––––––––––––––––––––––––––––––––––––––
Analyzed: Larry Coryell Trio / Impressions
––––––––––––––––––––––––––––––––––––––––

DR Peak RMS Duration Track
––––––––––––––––––––––––––––––––––––––––
DR14 0.00 dB -18.12 dB 7:08 01-Very Early
DR15 0.00 dB -19.19 dB 6:15 02-Stowaway
DR16 -0.40 dB -20.65 dB 6:55 03-Come Rain or Come Shine
DR15 -2.49 dB -23.13 dB 7:32 04-Embraceable You
DR15 0.00 dB -17.78 dB 6:05 05-Caribe
DR15 0.00 dB -18.15 dB 5:58 06-Impressions
DR14 0.00 dB -17.18 dB 5:19 07-Szabado
DR12 -3.90 dB -22.01 dB 3:16 08-Full Moon over Istanbul
DR15 -1.26 dB -20.14 dB 7:25 09-Centerpiece
––––––––––––––––––––––––––––––––––––––––

Number of tracks: 9
Official DR value: DR14

Samplerate: 44100 Hz
Channels: 2
Bits per sample: 16
Bitrate: 742 kbps
Codec: FLAC
================================================================================

The Larry Coryell Organ Trio - Impressions: The New York Sessions (2008)

The Larry Coryell Organ Trio - Impressions: The New York Sessions (2008)