Tags
Language
Tags
June 2024
Su Mo Tu We Th Fr Sa
26 27 28 29 30 31 1
2 3 4 5 6 7 8
9 10 11 12 13 14 15
16 17 18 19 20 21 22
23 24 25 26 27 28 29
30 1 2 3 4 5 6

The Love Unlimited Orchestra - White Gold (Remastered) (1974/1999)

Posted By: Rtax
The Love Unlimited Orchestra - White Gold (Remastered) (1974/1999)

The Love Unlimited Orchestra - White Gold (Remastered) (1974/1999)
EAC Rip | FLAC (tracks, cue, log) - 259 MB | MP3 CBR 320 kbps - 102 MB
44:57 | Soul, Disco | Label: Mercury

Barry White's second Love Unlimited Orchestra album drives more carefully down the middle of the road than did its predecessor, Rhapsody in White. Save for the extremely polite "Satin Soul," most of White Gold is disco background instrumental with barely a pulse; the big man also refrains from butting in with the purring pronouncements of love (or horniness) that helped make Rhapsody such a kick. Still, you have to kind of admire an album whose cover carries a credit for the jewelers who loaned most of the photo props. –Rickey Wright

Tracklist
1. Barry's Love (Part I) (04:59)
2. Satin Soul (04:15)
3. Always Thinking Of You (03:11)
4. Power Of Love (03:56)
5. Spanish Lei (04:52)
6. You Make Me Feel Like This (When You Touch Me) (04:26)
7. Only You Can Make Me Blue (03:19)
8. Dreaming (04:35)
9. Just Living It Up (03:37)
10. Just Like A Baby (03:02)
11. Barry's Love (Part II) (04:42)
Exact Audio Copy V0.99 prebeta 5 from 4. May 2009

EAC extraction logfile from 18. June 2010, 19:06

Love Unlimited Orchestra / White Gold

Used drive : HP DVD Writer 1270d Adapter: 5 ID: 0

Read mode : Secure
Utilize accurate stream : Yes
Defeat audio cache : Yes
Make use of C2 pointers : No

Read offset correction : 6
Overread into Lead-In and Lead-Out : No
Fill up missing offset samples with silence : Yes
Delete leading and trailing silent blocks : No
Null samples used in CRC calculations : Yes
Used interface : Installed external ASPI interface
Gap handling : Appended to previous track

Used output format : User Defined Encoder
Selected bitrate : 128 kBit/s
Quality : High
Add ID3 tag : No
Command line compressor : C:\Program Files\Exact Audio Copy\Flac\flac.exe
Additional command line options : -8 -A tukey(0.25) -A gauss(0.1875) -b 4096 -V -T "artist=%a" -T "title=%t" -T "album=%g" -T "date=%y" -T "tracknumber=%n" -T "genre=%m" %s


TOC of the extracted CD

Track | Start | Length | Start sector | End sector
––––––––––––––––––––––––––––-
1 | 0:00.00 | 4:55.50 | 0 | 22174
2 | 4:55.50 | 4:14.72 | 22175 | 41296
3 | 9:10.47 | 3:13.45 | 41297 | 55816
4 | 12:24.17 | 3:58.20 | 55817 | 73686
5 | 16:22.37 | 4:53.05 | 73687 | 95666
6 | 21:15.42 | 4:24.30 | 95667 | 115496
7 | 25:39.72 | 3:17.55 | 115497 | 130326
8 | 28:57.52 | 4:37.43 | 130327 | 151144
9 | 33:35.20 | 3:37.55 | 151145 | 167474
10 | 37:13.00 | 3:05.35 | 167475 | 181384
11 | 40:18.35 | 4:38.22 | 181385 | 202256


Track 1

Filename F:\Music Place\FLAC & WAV\BARRY WHITE\Love Unlimited Orchestra - White Gold (1974)\01. Love Unlimited Orchestra - Barry's Love (Part 1).wav

Pre-gap length 0:00:02.00

Peak level 100.0 %
Track quality 100.0 %
Test CRC 16D23581
Copy CRC 16D23581
Accurately ripped (confidence 3) [610AAF52]
Copy OK

Track 2

Filename F:\Music Place\FLAC & WAV\BARRY WHITE\Love Unlimited Orchestra - White Gold (1974)\02. Love Unlimited Orchestra - Satin Soul.wav

Pre-gap length 0:00:02.77

Peak level 100.0 %
Track quality 100.0 %
Test CRC F487F492
Copy CRC F487F492
Accurately ripped (confidence 2) [4C292133]
Copy OK

Track 3

Filename F:\Music Place\FLAC & WAV\BARRY WHITE\Love Unlimited Orchestra - White Gold (1974)\03. Love Unlimited Orchestra - Always Thinking Of You.wav

Pre-gap length 0:00:02.76

Peak level 100.0 %
Track quality 99.9 %
Test CRC AC899687
Copy CRC AC899687
Accurately ripped (confidence 2) [0076DA91]
Copy OK

Track 4

Filename F:\Music Place\FLAC & WAV\BARRY WHITE\Love Unlimited Orchestra - White Gold (1974)\04. Love Unlimited Orchestra - Power Of Love.wav

Pre-gap length 0:00:02.76

Peak level 94.1 %
Track quality 100.0 %
Test CRC 5DBF7A33
Copy CRC 5DBF7A33
Accurately ripped (confidence 2) [2C211B95]
Copy OK

Track 5

Filename F:\Music Place\FLAC & WAV\BARRY WHITE\Love Unlimited Orchestra - White Gold (1974)\05. Love Unlimited Orchestra - Spanish Lei.wav

Pre-gap length 0:00:02.82

Peak level 91.5 %
Track quality 100.0 %
Test CRC 56349E97
Copy CRC 56349E97
Accurately ripped (confidence 2) [BD01EB26]
Copy OK

Track 6

Filename F:\Music Place\FLAC & WAV\BARRY WHITE\Love Unlimited Orchestra - White Gold (1974)\06. Love Unlimited Orchestra - You Make Me Feel Like This (When You Touch Me).wav

Pre-gap length 0:00:02.80

Peak level 79.4 %
Track quality 100.0 %
Test CRC 3C2A1C82
Copy CRC 3C2A1C82
Accurately ripped (confidence 2) [BD9ADB49]
Copy OK

Track 7

Filename F:\Music Place\FLAC & WAV\BARRY WHITE\Love Unlimited Orchestra - White Gold (1974)\07. Love Unlimited Orchestra - Only You Can Make Me Blue.wav

Pre-gap length 0:00:02.66

Peak level 77.6 %
Track quality 100.0 %
Test CRC 04414C1C
Copy CRC 04414C1C
Accurately ripped (confidence 2) [7F6FDBE5]
Copy OK

Track 8

Filename F:\Music Place\FLAC & WAV\BARRY WHITE\Love Unlimited Orchestra - White Gold (1974)\08. Love Unlimited Orchestra - Dreaming.wav

Pre-gap length 0:00:02.80

Peak level 94.4 %
Track quality 100.0 %
Test CRC CD3E7DB3
Copy CRC CD3E7DB3
Accurately ripped (confidence 2) [8FE57945]
Copy OK

Track 9

Filename F:\Music Place\FLAC & WAV\BARRY WHITE\Love Unlimited Orchestra - White Gold (1974)\09. Love Unlimited Orchestra - Just Living It Up.wav

Pre-gap length 0:00:02.77

Peak level 97.7 %
Track quality 100.0 %
Test CRC 1EA87CEE
Copy CRC 1EA87CEE
Accurately ripped (confidence 2) [AFEC7323]
Copy OK

Track 10

Filename F:\Music Place\FLAC & WAV\BARRY WHITE\Love Unlimited Orchestra - White Gold (1974)\10. Love Unlimited Orchestra - Just Like A Baby.wav

Pre-gap length 0:00:02.77

Peak level 89.1 %
Track quality 100.0 %
Test CRC E6E5A287
Copy CRC E6E5A287
Accurately ripped (confidence 2) [95F2E3E1]
Copy OK

Track 11

Filename F:\Music Place\FLAC & WAV\BARRY WHITE\Love Unlimited Orchestra - White Gold (1974)\11. Love Unlimited Orchestra - Barry's Love (Part 2).wav

Pre-gap length 0:00:01.77

Peak level 100.0 %
Track quality 99.9 %
Test CRC 3E162A88
Copy CRC 3E162A88
Accurately ripped (confidence 2) [CA2BB3DD]
Copy OK


All tracks accurately ripped

No errors occurred

End of status report