Tags
Language
Tags
June 2024
Su Mo Tu We Th Fr Sa
26 27 28 29 30 31 1
2 3 4 5 6 7 8
9 10 11 12 13 14 15
16 17 18 19 20 21 22
23 24 25 26 27 28 29
30 1 2 3 4 5 6

The Marvelettes - Forever More: The Complete Motown Albums Vol. 2 (Remastered) (2011)

Posted By: Rtax
The Marvelettes - Forever More: The Complete Motown Albums Vol. 2 (Remastered) (2011)

The Marvelettes - Forever More: The Complete Motown Albums Vol. 2 (Remastered) (2011)
XLD Rip | FLAC (tracks, log) - 1.7 GB | MP3 CBR 320 kbps - 756 MB
5:11:35 | Scans Included | Rhythm & Blues, Soul | Label: Hip-O Select

The Marvelettes Forever More: The Complete Motown Albums Vol. 2 The final albums in a storied career, plus 25 unreleased tracks! When, in 1961, the Marvelettes climbed to the top of the national pop charts with their first single, "Please Mr. Postman," they brought Motown with them, helping to establish the little label from Detroit. That first phase of the group's career was thoroughly chronicled in Forever: The Complete Motown Albums Vol. 1, a 3-CD limited edition set that brought together the group's first six albums and every stray single, B-side and rarity from the early era. Now, on the 50th anniversary of "Please Mr. Postman" becoming Motown's first No. 1 hit, comes Forever More: The Complete Motown Albums Vol. 2. The 4-CD set, with 108 songs, collects the group's highly sought-after, final four albums, originally released 1967-1970.

The Marvelettes (a/k/a "The Pink Album"), Sophisticated Soul, In Full Bloom and The Return Of The Marvelettes?and more of the non-LP singles, B-sides and rarities issued on various compilations. Featured in the set are the group's best-known songs from the era, including the chart hits "The Hunter Gets Captured By The Game," "When You're Young And In Love," "My Baby Must Be A Magician," "Here I Am Baby" and "That's How Heartaches Are Made," as well as fans' favorite album tracks. But that's not all: the set also includes a disc of 24 "Lost & Found" Marvelettes tracks from the Motown vaults, featuring never-before-heard songs written and produced by Smokey Robinson, Norman Whitfield, Mickey Stevenson, Johnny Bristol and more. These "vault gems" are from the group's entire career, 1961-70, and each one begs the question: "How come this didn't come out?" Other rarities: an unreleased, extended mix of "When You're Young And In Love," with a spoken intro; the long Anthology LP version of "The Hunter Gets Captured By The Game;" a U.K.-only version of the LP track "I'm Gonna Hold On Long As I Can," with an extended intro; and various vault tracks, like "Love Is Good" and "Poor Little Rich Girl," found on U.K. CD releases in recent years. And, for serious fans, included are the extremely rare mono versions of the albums The Marvelettes and Sophisticated Soul; the latter was never issued commercially. All of this fabulous music featured in the 4-CD Forever More: The Complete Motown Albums Vol. 2 is housed in a beautifully designed digi-pak in keeping with the look and size of Vol. 1, with a 40-page booklet stuffed with gorgeous, rare (and classic) photos, reproductions of the original LP artwork, detailed track annotations, and an essay by Motown chronicler Stu Hackel.

Tracklist
CD1
The Marvelettes
1-1 Barefootin'
1-2 Message To Michael
1-3 The Hunter Gets Captured By The Game
1-4 When You're Young And In Love
1-5 I Know Better
1-6 I Can't Turn Around
1-7 He Was Really Sayin' Somethin'
1-8 The Day You Take One (You Have To Take The Other)
1-9 When I Need You
1-10 Keep Off, No Trespassing
1-11 Tonight Was Made For Love
1-12 I Need Someone
Sophisticated Soul
1-13 My Baby Must Be A Magician
1-14 Destination: Anywhere
1-15 I'm Gonna Hold On Long As I Can
1-16 Here I Am Baby
1-17 You're The One For Me Bobby
1-18 Reachin' For Somethin' I Can't Have
1-19 Your Love Can Save Me
1-20 You're The One
1-21 Don't Make Hurting Me A Habit
1-22 What's Easy For Two Is Hard For One
1-23 The Stranger
1-24 Someway, Somehow
Bonus Tracks
1-25 The Hunter Gets Captured By The Game (Extended Anthology Version)
1-26 When You're Young And In Love (Alternate Mix With Spoken Intro)
1-27 I'm Gonna Hold On Long As I Can (U.K. Album Version)

CD2
In Full Bloom
2-1 Seeing Is Believing
2-2 Sunshine Days
2-3 That's How Heartaches Are Made
2-4 The Truth's Outside My Door
2-5 I Have Someone (Who Loves Me Too)
2-6 Uptown
2-7 At Last I See Love As It Really Is
2-8 Now Is The Time For Love
2-9 Too Many Tears, Too Many Times
2-10 Rainy Mourning
2-11 Everybody Knows (But You)
2-12 Love Silent, Love Deep
The Return Of The Marvelettes
2-13 So I Can Love You
2-14 Marionette
2-15 That's How Hearaches Are Made
2-16 A Breath Taking Guy
2-17 No More Tearstained Make Up
2-18 Uptown
2-19 Someday We'll Be Together
2-20 After All
2-21 Our Lips Just Seem To Rhyme Every Time
2-22 Fading Away
2-23 Take Me Where You Go
2-24 I'll Be In Trouble
Bonus Tracks
2-25 Love Is Good
2-26 Caught You Putting The Game On Love

CD3
The Marvelettes - The Rare Mono LP
3-1 Barefootin'
3-2 Message To Michael
3-3 The Hunter Gets Captured By The Game
3-4 When You're Young And In Love
3-5 I Know Better
3-6 I Can't Turn Around
3-7 He Was Really Sayin' Somethin'
3-8 The Day You Take One (You Have To Take The Other)
3-9 When I Need You
3-10 Keep Off, No Trespassing
3-11 Tonight Was Made For Love
3-12 I Need Someone
Sophisticated Soul - The Rare Mono LP
3-13 My Baby Must Be A Magician
3-14 Destination: Anywhere
3-15 I'm Gonna Hold On Long As I Can
3-16 Here I Am Baby
3-17 You're The One For Me Bobby
3-18 Reachin' For Somethin' I Can't Have
3-19 Your Love Can Save Me
3-20 You're The One
3-21 Don't Make Hurting Me A Habit
3-22 What's Easy For Two Is Hard For One
3-23 The Stranger
3-24 Someway, Somehow
Bonus Tracks
3-25 Paper Boy
3-26 Poor Little Rich Girl
3-27 I Hope You Have Better Luck Than I Did
3-28 Sugar's Never Been As Sweet As You
3-29 You Ain't Livin' Till You're Lovin'

CD4
Motown Lost & Found: Vault Gems 1961-1970
4-1 Three Months
4-2 My Baby Won't Come Back
4-3 I Can't Help It
4-4 From Now On
4-5 Don't Fence Me In
4-6 One Kiss Led To Another
4-7 You Better Behave
4-8 Queen Of The Fools
4-9 Johnny Do Right
4-10 Dance A While, Cry A While
4-11 You Better Cool It
4-12 You Can Bet Your Bottom Dollar
4-13 The Train That's Bringing My Baby
4-14 Learning To Forget You
4-15 You Lost The Sweetest Boy
4-16 Just One More Kiss (Before You Leave Me)
4-17 So Glad It's Summertime
4-18 There Is No Tomorrow (Only Tears And Sorrow)
4-19 Don't Make Hurting Me A Habit (Version 1)
4-20 I Can't Wait Till Summer Comes
4-21 Breakthru (I've Got My Freedom)
4-22 When My Love Was Born
4-23 Why'd You Do It
4-24 Change Of Heart
Bonus Tracks
4-25 That's The Way I See Him
4-26 The Boy From Crosstown (Version 1)
4-27 The Boy From Crosstown (Version 2)
X Lossless Decoder version 20120226 (139.1)

XLD extraction logfile from 2012-03-19 21:52:39 +0000

The Marvelettes / Forever More: The Complete Motown Albums Vol. 2

Used drive : HL-DT-ST DVDRW GS31N (revision TA17)

Ripper mode : XLD Secure Ripper
Disable audio cache : OK for the drive with a cache less than 1375KiB
Make use of C2 pointers : NO
Read offset correction : 667
Max retry count : 20
Gap status : Analyzed, Appended (except HTOA)

TOC of the extracted CD
Track | Start | Length | Start sector | End sector
––––––––––––––––––––––––––––-
1 | 00:00:00 | 02:18:68 | 0 | 10417
2 | 02:18:68 | 03:08:64 | 10418 | 24581
3 | 05:27:57 | 02:50:71 | 24582 | 37402
4 | 08:18:53 | 02:39:40 | 37403 | 49367
5 | 10:58:18 | 02:33:17 | 49368 | 60859
6 | 13:31:35 | 03:04:05 | 60860 | 74664
7 | 16:35:40 | 02:33:62 | 74665 | 86201
8 | 19:09:27 | 02:48:44 | 86202 | 98845
9 | 21:57:71 | 03:11:63 | 98846 | 113233
10 | 25:09:59 | 02:38:28 | 113234 | 125111
11 | 27:48:12 | 02:53:26 | 125112 | 138112
12 | 30:41:38 | 02:43:67 | 138113 | 150404
13 | 33:25:30 | 02:35:67 | 150405 | 162096
14 | 36:01:22 | 02:38:51 | 162097 | 173997
15 | 38:39:73 | 02:28:05 | 173998 | 185102
16 | 41:08:03 | 02:49:10 | 185103 | 197787
17 | 43:57:13 | 02:33:09 | 197788 | 209271
18 | 46:30:22 | 02:48:53 | 209272 | 221924
19 | 49:19:00 | 02:37:42 | 221925 | 233741
20 | 51:56:42 | 02:47:24 | 233742 | 246290
21 | 54:43:66 | 02:57:60 | 246291 | 259625
22 | 57:41:51 | 02:44:23 | 259626 | 271948
23 | 60:25:74 | 02:59:65 | 271949 | 285438
24 | 63:25:64 | 02:33:24 | 285439 | 296937
25 | 65:59:13 | 03:12:50 | 296938 | 311387
26 | 69:11:63 | 02:54:09 | 311388 | 324446
27 | 72:05:72 | 02:46:66 | 324447 | 336962

AccurateRip Summary
Track 01 : OK (AR2, confidence 1)
Track 02 : OK (AR2, confidence 1)
Track 03 : OK (AR2, confidence 1)
Track 04 : OK (AR2, confidence 1)
Track 05 : OK (AR2, confidence 1)
Track 06 : OK (AR2, confidence 1)
Track 07 : OK (AR2, confidence 1)
Track 08 : OK (AR2, confidence 1)
Track 09 : OK (AR2, confidence 1)
Track 10 : OK (AR2, confidence 1)
Track 11 : OK (AR2, confidence 1)
Track 12 : OK (AR2, confidence 1)
Track 13 : OK (AR2, confidence 1)
Track 14 : OK (AR2, confidence 1)
Track 15 : OK (AR2, confidence 1)
Track 16 : OK (AR2, confidence 1)
Track 17 : OK (AR2, confidence 1)
Track 18 : OK (AR2, confidence 1)
Track 19 : OK (AR2, confidence 1)
Track 20 : OK (AR2, confidence 1)
Track 21 : OK (AR2, confidence 1)
Track 22 : OK (AR2, confidence 1)
Track 23 : OK (AR2, confidence 1)
Track 24 : OK (AR2, confidence 1)
Track 25 : OK (AR2, confidence 1)
Track 26 : OK (AR2, confidence 1)
Track 27 : OK (AR2, confidence 1)
->All tracks accurately ripped.

All Tracks
Album gain : -7.20 dB
Peak : 0.999878
Statistics
Read error : 0
Jitter error (maybe fixed) : 0
Retry sector count : 0
Damaged sector count : 0

Track 01
Filename : /Users/ballpark/Documents/0-CD Rip/The Marvelettes - Forever More Vol. 2 - FLAC/01 Barefootin'.flac
Pre-gap length : 00:02:00

Track gain : -7.44 dB
Peak : 0.973755
CRC32 hash (test run) : 2E3CBE23
CRC32 hash : 2E3CBE23
CRC32 hash (skip zero) : B7936565
AccurateRip signature : 730C21D0
->Accurately ripped! (AR2, confidence 1)
Statistics
Read error : 0
Jitter error (maybe fixed) : 0
Retry sector count : 0
Damaged sector count : 0

Track 02
Filename : /Users/ballpark/Documents/0-CD Rip/The Marvelettes - Forever More Vol. 2 - FLAC/02 Message To Michael.flac

Track gain : -4.41 dB
Peak : 0.973907
CRC32 hash (test run) : 7D72260F
CRC32 hash : 7D72260F
CRC32 hash (skip zero) : 7DA5DECD
AccurateRip signature : 7434CF4D
->Accurately ripped! (AR2, confidence 1)
Statistics
Read error : 0
Jitter error (maybe fixed) : 0
Retry sector count : 0
Damaged sector count : 0

Track 03
Filename : /Users/ballpark/Documents/0-CD Rip/The Marvelettes - Forever More Vol. 2 - FLAC/03 The Hunter Gets Captured By The Game.flac

Track gain : -5.53 dB
Peak : 0.999878
CRC32 hash (test run) : 8E571008
CRC32 hash : 8E571008
CRC32 hash (skip zero) : FB72B7DD
AccurateRip signature : CB06D9B1
->Accurately ripped! (AR2, confidence 1)
Statistics
Read error : 0
Jitter error (maybe fixed) : 0
Retry sector count : 0
Damaged sector count : 0

Track 04
Filename : /Users/ballpark/Documents/0-CD Rip/The Marvelettes - Forever More Vol. 2 - FLAC/04 When You're Young And In Love.flac

Track gain : -6.92 dB
Peak : 0.999878
CRC32 hash (test run) : 463352D8
CRC32 hash : 463352D8
CRC32 hash (skip zero) : DB3A3FB6
AccurateRip signature : AB0AE12B
->Accurately ripped! (AR2, confidence 1)
Statistics
Read error : 0
Jitter error (maybe fixed) : 0
Retry sector count : 0
Damaged sector count : 0

Track 05
Filename : /Users/ballpark/Documents/0-CD Rip/The Marvelettes - Forever More Vol. 2 - FLAC/05 I Know Better.flac

Track gain : -7.77 dB
Peak : 0.981720
CRC32 hash (test run) : E18BCC15
CRC32 hash : E18BCC15
CRC32 hash (skip zero) : 37BED5E4
AccurateRip signature : 212881AE
->Accurately ripped! (AR2, confidence 1)
Statistics
Read error : 0
Jitter error (maybe fixed) : 0
Retry sector count : 0
Damaged sector count : 0

Track 06
Filename : /Users/ballpark/Documents/0-CD Rip/The Marvelettes - Forever More Vol. 2 - FLAC/06 I Can't Turn Around.flac

Track gain : -5.38 dB
Peak : 0.999878
CRC32 hash (test run) : 52120977
CRC32 hash : 52120977
CRC32 hash (skip zero) : C0D57A75
AccurateRip signature : A7FC41FF
->Accurately ripped! (AR2, confidence 1)
Statistics
Read error : 0
Jitter error (maybe fixed) : 0
Retry sector count : 0
Damaged sector count : 0

Track 07
Filename : /Users/ballpark/Documents/0-CD Rip/The Marvelettes - Forever More Vol. 2 - FLAC/07 He Was Really Sayin' Somethin'.flac

Track gain : -6.91 dB
Peak : 0.999878
CRC32 hash (test run) : 6368703C
CRC32 hash : 6368703C
CRC32 hash (skip zero) : A0A71068
AccurateRip signature : EF2D3CC7
->Accurately ripped! (AR2, confidence 1)
Statistics
Read error : 0
Jitter error (maybe fixed) : 0
Retry sector count : 0
Damaged sector count : 0

Track 08
Filename : /Users/ballpark/Documents/0-CD Rip/The Marvelettes - Forever More Vol. 2 - FLAC/08 The Day You Take One (You Have To Take The Other).flac

Track gain : -6.21 dB
Peak : 0.999847
CRC32 hash (test run) : 3FA824F2
CRC32 hash : 3FA824F2
CRC32 hash (skip zero) : A1D82B63
AccurateRip signature : 79FF5D5F
->Accurately ripped! (AR2, confidence 1)
Statistics
Read error : 0
Jitter error (maybe fixed) : 0
Retry sector count : 0
Damaged sector count : 0

Track 09
Filename : /Users/ballpark/Documents/0-CD Rip/The Marvelettes - Forever More Vol. 2 - FLAC/09 When I Need You.flac

Track gain : -5.51 dB
Peak : 0.990631
CRC32 hash (test run) : F49B47D1
CRC32 hash : F49B47D1
CRC32 hash (skip zero) : 49484449
AccurateRip signature : 84669FEB
->Accurately ripped! (AR2, confidence 1)
Statistics
Read error : 0
Jitter error (maybe fixed) : 0
Retry sector count : 0
Damaged sector count : 0

Track 10
Filename : /Users/ballpark/Documents/0-CD Rip/The Marvelettes - Forever More Vol. 2 - FLAC/10 Keep Off, No Trespassing.flac

Track gain : -6.99 dB
Peak : 0.996094
CRC32 hash (test run) : 3934589C
CRC32 hash : 3934589C
CRC32 hash (skip zero) : 887B71D5
AccurateRip signature : 757190D4
->Accurately ripped! (AR2, confidence 1)
Statistics
Read error : 0
Jitter error (maybe fixed) : 0
Retry sector count : 0
Damaged sector count : 0

Track 11
Filename : /Users/ballpark/Documents/0-CD Rip/The Marvelettes - Forever More Vol. 2 - FLAC/11 Tonight Was Made For Love.flac

Track gain : -7.73 dB
Peak : 0.999268
CRC32 hash (test run) : E9636467
CRC32 hash : E9636467
CRC32 hash (skip zero) : 3B3C315F
AccurateRip signature : 288EC0F2
->Accurately ripped! (AR2, confidence 1)
Statistics
Read error : 0
Jitter error (maybe fixed) : 0
Retry sector count : 0
Damaged sector count : 0

Track 12
Filename : /Users/ballpark/Documents/0-CD Rip/The Marvelettes - Forever More Vol. 2 - FLAC/12 I Need Someone.flac

Track gain : -7.16 dB
Peak : 0.998474
CRC32 hash (test run) : 48B741E8
CRC32 hash : 48B741E8
CRC32 hash (skip zero) : 30303A6B
AccurateRip signature : 99EDC81D
->Accurately ripped! (AR2, confidence 1)
Statistics
Read error : 0
Jitter error (maybe fixed) : 0
Retry sector count : 0
Damaged sector count : 0

Track 13
Filename : /Users/ballpark/Documents/0-CD Rip/The Marvelettes - Forever More Vol. 2 - FLAC/13 My Baby Must Be A Magician.flac
Pre-gap length : 00:04:50

Track gain : -7.15 dB
Peak : 0.999878
CRC32 hash (test run) : 088F629B
CRC32 hash : 088F629B
CRC32 hash (skip zero) : AE6BF6D1
AccurateRip signature : C703C3FA
->Accurately ripped! (AR2, confidence 1)
Statistics
Read error : 0
Jitter error (maybe fixed) : 0
Retry sector count : 0
Damaged sector count : 0

Track 14
Filename : /Users/ballpark/Documents/0-CD Rip/The Marvelettes - Forever More Vol. 2 - FLAC/14 Destination: Anywhere.flac

Track gain : -7.34 dB
Peak : 0.999878
CRC32 hash (test run) : B7226A35
CRC32 hash : B7226A35
CRC32 hash (skip zero) : 22DFC2D3
AccurateRip signature : C8946714
->Accurately ripped! (AR2, confidence 1)
Statistics
Read error : 0
Jitter error (maybe fixed) : 0
Retry sector count : 0
Damaged sector count : 0

Track 15
Filename : /Users/ballpark/Documents/0-CD Rip/The Marvelettes - Forever More Vol. 2 - FLAC/15 I'm Gonna Hold On As Long As I Can.flac

Track gain : -7.63 dB
Peak : 0.999878
CRC32 hash (test run) : 590B24FD
CRC32 hash : 590B24FD
CRC32 hash (skip zero) : 14B19476
AccurateRip signature : CB443BC8
->Accurately ripped! (AR2, confidence 1)
Statistics
Read error : 0
Jitter error (maybe fixed) : 0
Retry sector count : 0
Damaged sector count : 0

Track 16
Filename : /Users/ballpark/Documents/0-CD Rip/The Marvelettes - Forever More Vol. 2 - FLAC/16 Here I Am Baby.flac

Track gain : -8.15 dB
Peak : 0.999878
CRC32 hash (test run) : 366677DE
CRC32 hash : 366677DE
CRC32 hash (skip zero) : 0296A121
AccurateRip signature : 39216A51
->Accurately ripped! (AR2, confidence 1)
Statistics
Read error : 0
Jitter error (maybe fixed) : 0
Retry sector count : 0
Damaged sector count : 0

Track 17
Filename : /Users/ballpark/Documents/0-CD Rip/The Marvelettes - Forever More Vol. 2 - FLAC/17 You're The One For Me Bobby.flac

Track gain : -7.05 dB
Peak : 0.999878
CRC32 hash (test run) : 643AD740
CRC32 hash : 643AD740
CRC32 hash (skip zero) : 4D6159CD
AccurateRip signature : AF98C657
->Accurately ripped! (AR2, confidence 1)
Statistics
Read error : 0
Jitter error (maybe fixed) : 0
Retry sector count : 0
Damaged sector count : 0

Track 18
Filename : /Users/ballpark/Documents/0-CD Rip/The Marvelettes - Forever More Vol. 2 - FLAC/18 Reachin' For Something I Can't Have.flac

Track gain : -9.53 dB
Peak : 0.999878
CRC32 hash (test run) : C7F94A73
CRC32 hash : C7F94A73
CRC32 hash (skip zero) : 5C0A13C1
AccurateRip signature : 28276ECD
->Accurately ripped! (AR2, confidence 1)
Statistics
Read error : 0
Jitter error (maybe fixed) : 0
Retry sector count : 0
Damaged sector count : 0

Track 19
Filename : /Users/ballpark/Documents/0-CD Rip/The Marvelettes - Forever More Vol. 2 - FLAC/19 Your Love Can Save Me.flac

Track gain : -8.39 dB
Peak : 0.999878
CRC32 hash (test run) : 2E6CE1F1
CRC32 hash : 2E6CE1F1
CRC32 hash (skip zero) : 65A71411
AccurateRip signature : D6F259EF
->Accurately ripped! (AR2, confidence 1)
Statistics
Read error : 0
Jitter error (maybe fixed) : 0
Retry sector count : 0
Damaged sector count : 0

Track 20
Filename : /Users/ballpark/Documents/0-CD Rip/The Marvelettes - Forever More Vol. 2 - FLAC/20 You're The One.flac

Track gain : -7.03 dB
Peak : 0.999878
CRC32 hash (test run) : 3E9BF3CE
CRC32 hash : 3E9BF3CE
CRC32 hash (skip zero) : 8F441852
AccurateRip signature : 230EB3FC
->Accurately ripped! (AR2, confidence 1)
Statistics
Read error : 0
Jitter error (maybe fixed) : 0
Retry sector count : 0
Damaged sector count : 0

Track 21
Filename : /Users/ballpark/Documents/0-CD Rip/The Marvelettes - Forever More Vol. 2 - FLAC/21 Don't Make Hurting Me A Habit.flac

Track gain : -7.48 dB
Peak : 0.999878
CRC32 hash (test run) : D68F48F9
CRC32 hash : D68F48F9
CRC32 hash (skip zero) : 86168A9D
AccurateRip signature : 797903C2
->Accurately ripped! (AR2, confidence 1)
Statistics
Read error : 0
Jitter error (maybe fixed) : 0
Retry sector count : 0
Damaged sector count : 0

Track 22
Filename : /Users/ballpark/Documents/0-CD Rip/The Marvelettes - Forever More Vol. 2 - FLAC/22 What's Easy For Two Is Hard For One.flac

Track gain : -7.28 dB
Peak : 0.999878
CRC32 hash (test run) : F1F54436
CRC32 hash : F1F54436
CRC32 hash (skip zero) : E6FCAEB3
AccurateRip signature : EB15463B
->Accurately ripped! (AR2, confidence 1)
Statistics
Read error : 0
Jitter error (maybe fixed) : 0
Retry sector count : 0
Damaged sector count : 0

Track 23
Filename : /Users/ballpark/Documents/0-CD Rip/The Marvelettes - Forever More Vol. 2 - FLAC/23 The Stranger.flac

Track gain : -6.56 dB
Peak : 0.999878
CRC32 hash (test run) : 2D248917
CRC32 hash : 2D248917
CRC32 hash (skip zero) : 2C4D95D1
AccurateRip signature : D2DABE54
->Accurately ripped! (AR2, confidence 1)
Statistics
Read error : 0
Jitter error (maybe fixed) : 0
Retry sector count : 0
Damaged sector count : 0

Track 24
Filename : /Users/ballpark/Documents/0-CD Rip/The Marvelettes - Forever More Vol. 2 - FLAC/24 Someway, Somehow.flac

Track gain : -7.13 dB
Peak : 0.999878
CRC32 hash (test run) : 019380CE
CRC32 hash : 019380CE
CRC32 hash (skip zero) : 61A2D6F8
AccurateRip signature : 5B8E3F83
->Accurately ripped! (AR2, confidence 1)
Statistics
Read error : 0
Jitter error (maybe fixed) : 0
Retry sector count : 0
Damaged sector count : 0

Track 25
Filename : /Users/ballpark/Documents/0-CD Rip/The Marvelettes - Forever More Vol. 2 - FLAC/25 The Hunter Gets Captured By The Game.flac
Pre-gap length : 00:04:00

Track gain : -5.56 dB
Peak : 0.990265
CRC32 hash (test run) : 39CA93C6
CRC32 hash : 39CA93C6
CRC32 hash (skip zero) : 2CF9C56D
AccurateRip signature : 239D6D96
->Accurately ripped! (AR2, confidence 1)
Statistics
Read error : 0
Jitter error (maybe fixed) : 0
Retry sector count : 0
Damaged sector count : 0

Track 26
Filename : /Users/ballpark/Documents/0-CD Rip/The Marvelettes - Forever More Vol. 2 - FLAC/26 When You're Young And In Love.flac

Track gain : -6.71 dB
Peak : 0.996277
CRC32 hash (test run) : D2CE92A7
CRC32 hash : D2CE92A7
CRC32 hash (skip zero) : A2D4A5A5
AccurateRip signature : 3E357DA7
->Accurately ripped! (AR2, confidence 1)
Statistics
Read error : 0
Jitter error (maybe fixed) : 0
Retry sector count : 0
Damaged sector count : 0

Track 27
Filename : /Users/ballpark/Documents/0-CD Rip/The Marvelettes - Forever More Vol. 2 - FLAC/27 I'm Gonna Hold On As Long As I Can.flac

Track gain : -5.67 dB
Peak : 0.999878
CRC32 hash (test run) : 6A2DCEE9
CRC32 hash : 6A2DCEE9
CRC32 hash (skip zero) : 61F2230E
AccurateRip signature : D5A11D8B
->Accurately ripped! (AR2, confidence 1)
Statistics
Read error : 0
Jitter error (maybe fixed) : 0
Retry sector count : 0
Damaged sector count : 0

No errors occurred

End of status report

X Lossless Decoder version 20120226 (139.1)

XLD extraction logfile from 2012-03-19 22:38:23 +0000

The Marvelettes / Forever More: The Complete Motown Albums Vol. 2

Used drive : HL-DT-ST DVDRW GS31N (revision TA17)

Ripper mode : XLD Secure Ripper
Disable audio cache : OK for the drive with a cache less than 1375KiB
Make use of C2 pointers : NO
Read offset correction : 667
Max retry count : 20
Gap status : Analyzed, Appended (except HTOA)

TOC of the extracted CD
Track | Start | Length | Start sector | End sector
––––––––––––––––––––––––––––-
1 | 00:00:00 | 03:08:47 | 0 | 14146
2 | 03:08:47 | 03:20:48 | 14147 | 29194
3 | 06:29:20 | 02:58:61 | 29195 | 42605
4 | 09:28:06 | 02:46:07 | 42606 | 55062
5 | 12:14:13 | 02:58:54 | 55063 | 68466
6 | 15:12:67 | 02:31:11 | 68467 | 79802
7 | 17:44:03 | 02:54:70 | 79803 | 92922
8 | 20:38:73 | 02:52:30 | 92923 | 105852
9 | 23:31:28 | 03:22:22 | 105853 | 121024
10 | 26:53:50 | 02:54:50 | 121025 | 134124
11 | 29:48:25 | 02:53:34 | 134125 | 147133
12 | 32:41:59 | 03:05:35 | 147134 | 161043
13 | 35:47:19 | 02:51:45 | 161044 | 173913
14 | 38:38:64 | 03:39:39 | 173914 | 190377
15 | 42:18:28 | 03:02:29 | 190378 | 204056
16 | 45:20:57 | 03:33:61 | 204057 | 220092
17 | 48:54:43 | 03:27:47 | 220093 | 235664
18 | 52:22:15 | 02:30:73 | 235665 | 246987
19 | 54:53:13 | 03:18:13 | 246988 | 261850
20 | 58:11:26 | 03:21:35 | 261851 | 276960
21 | 61:32:61 | 03:13:05 | 276961 | 291440
22 | 64:45:66 | 02:50:42 | 291441 | 304232
23 | 67:36:33 | 03:42:02 | 304233 | 320884
24 | 71:18:35 | 02:50:03 | 320885 | 333637
25 | 74:08:38 | 02:45:67 | 333638 | 346079
26 | 76:54:30 | 02:39:30 | 346080 | 358034

AccurateRip Summary
Track 01 : OK (AR2, confidence 1)
Track 02 : OK (AR2, confidence 1)
Track 03 : OK (AR2, confidence 1)
Track 04 : OK (AR2, confidence 1)
Track 05 : OK (AR2, confidence 1)
Track 06 : OK (AR2, confidence 1)
Track 07 : OK (AR2, confidence 1)
Track 08 : OK (AR2, confidence 1)
Track 09 : OK (AR2, confidence 1)
Track 10 : OK (AR2, confidence 1)
Track 11 : OK (AR2, confidence 1)
Track 12 : OK (AR2, confidence 1)
Track 13 : OK (AR2, confidence 1)
Track 14 : OK (AR2, confidence 1)
Track 15 : OK (AR2, confidence 1)
Track 16 : OK (AR2, confidence 1)
Track 17 : OK (AR2, confidence 1)
Track 18 : OK (AR2, confidence 1)
Track 19 : OK (AR2, confidence 1)
Track 20 : OK (AR2, confidence 1)
Track 21 : OK (AR2, confidence 1)
Track 22 : OK (AR2, confidence 1)
Track 23 : OK (AR2, confidence 1)
Track 24 : OK (AR2, confidence 1)
Track 25 : OK (AR2, confidence 1)
Track 26 : OK (AR2, confidence 1)
->All tracks accurately ripped.

All Tracks
Album gain : -6.90 dB
Peak : 0.999878
Statistics
Read error : 0
Jitter error (maybe fixed) : 0
Retry sector count : 0
Damaged sector count : 0

Track 01
Filename : /Users/ballpark/Documents/0-CD Rip/The Marvelettes - Forever More Vol. 2 - FLAC/01 Seeing Is Believing.flac
Pre-gap length : 00:02:00

Track gain : -6.54 dB
Peak : 0.999878
CRC32 hash (test run) : 1771575C
CRC32 hash : 1771575C
CRC32 hash (skip zero) : 3FA8C5EF
AccurateRip signature : 5B328917
->Accurately ripped! (AR2, confidence 1)
Statistics
Read error : 0
Jitter error (maybe fixed) : 0
Retry sector count : 0
Damaged sector count : 0

Track 02
Filename : /Users/ballpark/Documents/0-CD Rip/The Marvelettes - Forever More Vol. 2 - FLAC/02 Sunshine Days.flac

Track gain : -6.69 dB
Peak : 0.999878
CRC32 hash (test run) : 415CAB8C
CRC32 hash : 415CAB8C
CRC32 hash (skip zero) : D71E05FA
AccurateRip signature : EFC3A378
->Accurately ripped! (AR2, confidence 1)
Statistics
Read error : 0
Jitter error (maybe fixed) : 0
Retry sector count : 0
Damaged sector count : 0

Track 03
Filename : /Users/ballpark/Documents/0-CD Rip/The Marvelettes - Forever More Vol. 2 - FLAC/03 That's How Heartaches Are Made.flac

Track gain : -4.51 dB
Peak : 0.999878
CRC32 hash (test run) : 7282CE35
CRC32 hash : 7282CE35
CRC32 hash (skip zero) : 98D0E9DE
AccurateRip signature : 71030F7B
->Accurately ripped! (AR2, confidence 1)
Statistics
Read error : 0
Jitter error (maybe fixed) : 0
Retry sector count : 0
Damaged sector count : 0

Track 04
Filename : /Users/ballpark/Documents/0-CD Rip/The Marvelettes - Forever More Vol. 2 - FLAC/04 The Truth's Outside My Door.flac

Track gain : -5.62 dB
Peak : 0.999878
CRC32 hash (test run) : D4B606EB
CRC32 hash : D4B606EB
CRC32 hash (skip zero) : EF678F8F
AccurateRip signature : 68D3A874
->Accurately ripped! (AR2, confidence 1)
Statistics
Read error : 0
Jitter error (maybe fixed) : 0
Retry sector count : 0
Damaged sector count : 0

Track 05
Filename : /Users/ballpark/Documents/0-CD Rip/The Marvelettes - Forever More Vol. 2 - FLAC/05 I Have Someone (Who Loves Me Too).flac

Track gain : -5.16 dB
Peak : 0.999878
CRC32 hash (test run) : 0E5A152F
CRC32 hash : 0E5A152F
CRC32 hash (skip zero) : B15AEBC2
AccurateRip signature : 0CD6B6BC
->Accurately ripped! (AR2, confidence 1)
Statistics
Read error : 0
Jitter error (maybe fixed) : 0
Retry sector count : 0
Damaged sector count : 0

Track 06
Filename : /Users/ballpark/Documents/0-CD Rip/The Marvelettes - Forever More Vol. 2 - FLAC/06 Uptown.flac

Track gain : -6.86 dB
Peak : 0.999512
CRC32 hash (test run) : 145353EB
CRC32 hash : 145353EB
CRC32 hash (skip zero) : 3C7AA9E0
AccurateRip signature : 5EDA5CCA
->Accurately ripped! (AR2, confidence 1)
Statistics
Read error : 0
Jitter error (maybe fixed) : 0
Retry sector count : 0
Damaged sector count : 0

Track 07
Filename : /Users/ballpark/Documents/0-CD Rip/The Marvelettes - Forever More Vol. 2 - FLAC/07 At Last I See Love As It Really Is.flac

Track gain : -8.01 dB
Peak : 0.999878
CRC32 hash (test run) : CDDE85ED
CRC32 hash : CDDE85ED
CRC32 hash (skip zero) : 850726ED
AccurateRip signature : 6E24FB67
->Accurately ripped! (AR2, confidence 1)
Statistics
Read error : 0
Jitter error (maybe fixed) : 0
Retry sector count : 0
Damaged sector count : 0

Track 08
Filename : /Users/ballpark/Documents/0-CD Rip/The Marvelettes - Forever More Vol. 2 - FLAC/08 Now Is The Time For Love.flac

Track gain : -8.53 dB
Peak : 0.999878
CRC32 hash (test run) : 153A7C84
CRC32 hash : 153A7C84
CRC32 hash (skip zero) : A09B301A
AccurateRip signature : 3D08CDD2
->Accurately ripped! (AR2, confidence 1)
Statistics
Read error : 0
Jitter error (maybe fixed) : 0
Retry sector count : 0
Damaged sector count : 0

Track 09
Filename : /Users/ballpark/Documents/0-CD Rip/The Marvelettes - Forever More Vol. 2 - FLAC/09 Too Many Tears, Too Many Times.flac

Track gain : -5.43 dB
Peak : 0.999847
CRC32 hash (test run) : A42FA1DB
CRC32 hash : A42FA1DB
CRC32 hash (skip zero) : E088BE62
AccurateRip signature : CA1B0486
->Accurately ripped! (AR2, confidence 1)
Statistics
Read error : 0
Jitter error (maybe fixed) : 0
Retry sector count : 0
Damaged sector count : 0

Track 10
Filename : /Users/ballpark/Documents/0-CD Rip/The Marvelettes - Forever More Vol. 2 - FLAC/10 Rainy Mourning.flac

Track gain : -8.25 dB
Peak : 0.999878
CRC32 hash (test run) : BBE82B0E
CRC32 hash : BBE82B0E
CRC32 hash (skip zero) : BE292C26
AccurateRip signature : 02A930F4
->Accurately ripped! (AR2, confidence 1)
Statistics
Read error : 0
Jitter error (maybe fixed) : 0
Retry sector count : 0
Damaged sector count : 0

Track 11
Filename : /Users/ballpark/Documents/0-CD Rip/The Marvelettes - Forever More Vol. 2 - FLAC/11 Everybody Knows (But You).flac

Track gain : -9.43 dB
Peak : 0.999878
CRC32 hash (test run) : 7A3651A5
CRC32 hash : 7A3651A5
CRC32 hash (skip zero) : 88D66A9F
AccurateRip signature : AEF3067D
->Accurately ripped! (AR2, confidence 1)
Statistics
Read error : 0
Jitter error (maybe fixed) : 0
Retry sector count : 0
Damaged sector count : 0

Track 12
Filename : /Users/ballpark/Documents/0-CD Rip/The Marvelettes - Forever More Vol. 2 - FLAC/12 Love Silent, Love Deep.flac

Track gain : -5.91 dB
Peak : 0.999878
CRC32 hash (test run) : 7C82C7C2
CRC32 hash : 7C82C7C2
CRC32 hash (skip zero) : 168BA3BA
AccurateRip signature : DFB3E300
->Accurately ripped! (AR2, confidence 1)
Statistics
Read error : 0
Jitter error (maybe fixed) : 0
Retry sector count : 0
Damaged sector count : 0

Track 13
Filename : /Users/ballpark/Documents/0-CD Rip/The Marvelettes - Forever More Vol. 2 - FLAC/13 So I Can Love You.flac

Track gain : -5.89 dB
Peak : 0.999878
CRC32 hash (test run) : 9BFDCC62
CRC32 hash : 9BFDCC62
CRC32 hash (skip zero) : 7ED84AE0
AccurateRip signature : F34B9944
->Accurately ripped! (AR2, confidence 1)
Statistics
Read error : 0
Jitter error (maybe fixed) : 0
Retry sector count : 0
Damaged sector count : 0

Track 14
Filename : /Users/ballpark/Documents/0-CD Rip/The Marvelettes - Forever More Vol. 2 - FLAC/14 Marionette.flac

Track gain : -6.84 dB
Peak : 0.999878
CRC32 hash (test run) : 744EE617
CRC32 hash : 744EE617
CRC32 hash (skip zero) : 38EC6461
AccurateRip signature : 1BFEB9E8
->Accurately ripped! (AR2, confidence 1)
Statistics
Read error : 0
Jitter error (maybe fixed) : 0
Retry sector count : 0
Damaged sector count : 0

Track 15
Filename : /Users/ballpark/Documents/0-CD Rip/The Marvelettes - Forever More Vol. 2 - FLAC/15 That's How Heartaches Are Made.flac

Track gain : -5.84 dB
Peak : 0.999878
CRC32 hash (test run) : 286B5A09
CRC32 hash : 286B5A09
CRC32 hash (skip zero) : 6B2DA0C6
AccurateRip signature : 767E8BEF
->Accurately ripped! (AR2, confidence 1)
Statistics
Read error : 0
Jitter error (maybe fixed) : 0
Retry sector count : 0
Damaged sector count : 0

Track 16
Filename : /Users/ballpark/Documents/0-CD Rip/The Marvelettes - Forever More Vol. 2 - FLAC/16 A Breath Taking Guy.flac

Track gain : -6.14 dB
Peak : 0.988495
CRC32 hash (test run) : B432A8B4
CRC32 hash : B432A8B4
CRC32 hash (skip zero) : 8DA0DBD8
AccurateRip signature : 2D82E0EC
->Accurately ripped! (AR2, confidence 1)
Statistics
Read error : 0
Jitter error (maybe fixed) : 0
Retry sector count : 0
Damaged sector count : 0

Track 17
Filename : /Users/ballpark/Documents/0-CD Rip/The Marvelettes - Forever More Vol. 2 - FLAC/17 No More Tearstained Make Up.flac

Track gain : -7.99 dB
Peak : 0.999878
CRC32 hash (test run) : 4258B23D
CRC32 hash : 4258B23D
CRC32 hash (skip zero) : FE703580
AccurateRip signature : C592C9A7
->Accurately ripped! (AR2, confidence 1)
Statistics
Read error : 0
Jitter error (maybe fixed) : 0
Retry sector count : 0
Damaged sector count : 0

Track 18
Filename : /Users/ballpark/Documents/0-CD Rip/The Marvelettes - Forever More Vol. 2 - FLAC/18 Uptown.flac

Track gain : -6.87 dB
Peak : 0.999878
CRC32 hash (test run) : D7961BBA
CRC32 hash : D7961BBA
CRC32 hash (skip zero) : 51871B1D
AccurateRip signature : 422085DB
->Accurately ripped! (AR2, confidence 1)
Statistics
Read error : 0
Jitter error (maybe fixed) : 0
Retry sector count : 0
Damaged sector count : 0

Track 19
Filename : /Users/ballpark/Documents/0-CD Rip/The Marvelettes - Forever More Vol. 2 - FLAC/19 Someday We'll Be Together.flac

Track gain : -6.96 dB
Peak : 0.999878
CRC32 hash (test run) : A3635203
CRC32 hash : A3635203
CRC32 hash (skip zero) : D00152AB
AccurateRip signature : C5F82660
->Accurately ripped! (AR2, confidence 1)
Statistics
Read error : 0
Jitter error (maybe fixed) : 0
Retry sector count : 0
Damaged sector count : 0

Track 20
Filename : /Users/ballpark/Documents/0-CD Rip/The Marvelettes - Forever More Vol. 2 - FLAC/20 After All.flac

Track gain : -6.04 dB
Peak : 0.999878
CRC32 hash (test run) : 130F3FFA
CRC32 hash : 130F3FFA
CRC32 hash (skip zero) : 26F1C8AF
AccurateRip signature : CF8DD6F5
->Accurately ripped! (AR2, confidence 1)
Statistics
Read error : 0
Jitter error (maybe fixed) : 0
Retry sector count : 0
Damaged sector count : 0

Track 21
Filename : /Users/ballpark/Documents/0-CD Rip/The Marvelettes - Forever More Vol. 2 - FLAC/21 Our Lips Just Seem To Rhyme Every Time.flac

Track gain : -6.38 dB
Peak : 0.999847
CRC32 hash (test run) : 0C0AD3B8
CRC32 hash : 0C0AD3B8
CRC32 hash (skip zero) : A94BABA2
AccurateRip signature : 27DD95F6
->Accurately ripped! (AR2, confidence 1)
Statistics
Read error : 0
Jitter error (maybe fixed) : 0
Retry sector count : 0
Damaged sector count : 0

Track 22
Filename : /Users/ballpark/Documents/0-CD Rip/The Marvelettes - Forever More Vol. 2 - FLAC/22 Fading Away.flac

Track gain : -6.82 dB
Peak : 0.999878
CRC32 hash (test run) : 532360E2
CRC32 hash : 532360E2
CRC32 hash (skip zero) : 378B4D4B
AccurateRip signature : 70A07AED
->Accurately ripped! (AR2, confidence 1)
Statistics
Read error : 0
Jitter error (maybe fixed) : 0
Retry sector count : 0
Damaged sector count : 0

Track 23
Filename : /Users/ballpark/Documents/0-CD Rip/The Marvelettes - Forever More Vol. 2 - FLAC/23 Take Me Where You Go.flac

Track gain : -4.89 dB
Peak : 0.990570
CRC32 hash (test run) : FDE721B9
CRC32 hash : FDE721B9
CRC32 hash (skip zero) : 594D030B
AccurateRip signature : C41A1DCC
->Accurately ripped! (AR2, confidence 1)
Statistics
Read error : 0
Jitter error (maybe fixed) : 0
Retry sector count : 0
Damaged sector count : 0

Track 24
Filename : /Users/ballpark/Documents/0-CD Rip/The Marvelettes - Forever More Vol. 2 - FLAC/24 I'll Be In Trouble.flac

Track gain : -5.35 dB
Peak : 0.999420
CRC32 hash (test run) : CE72A01F
CRC32 hash : CE72A01F
CRC32 hash (skip zero) : 3D456225
AccurateRip signature : E0343EBF
->Accurately ripped! (AR2, confidence 1)
Statistics
Read error : 0
Jitter error (maybe fixed) : 0
Retry sector count : 0
Damaged sector count : 0

Track 25
Filename : /Users/ballpark/Documents/0-CD Rip/The Marvelettes - Forever More Vol. 2 - FLAC/25 Love Is Good.flac
Pre-gap length : 00:03:25

Track gain : -7.21 dB
Peak : 0.842407
CRC32 hash (test run) : FF419380
CRC32 hash : FF419380
CRC32 hash (skip zero) : 9AF479D4
AccurateRip signature : 4972E25B
->Accurately ripped! (AR2, confidence 1)
Statistics
Read error : 0
Jitter error (maybe fixed) : 0
Retry sector count : 0
Damaged sector count : 0

Track 26
Filename : /Users/ballpark/Documents/0-CD Rip/The Marvelettes - Forever More Vol. 2 - FLAC/26 Caught You Puttin' The Game On Love.flac
Pre-gap length : 00:03:32

Track gain : -7.72 dB
Peak : 0.999878
CRC32 hash (test run) : C12ED1DC
CRC32 hash : C12ED1DC
CRC32 hash (skip zero) : 2E917B33
AccurateRip signature : 69BEEC62
->Accurately ripped! (AR2, confidence 1)
Statistics
Read error : 0
Jitter error (maybe fixed) : 0
Retry sector count : 0
Damaged sector count : 0

No errors occurred

End of status report