Subcategories

The Offspring - Complete Music Video Collection (2005) Re-Up

Posted By: popsakov
The Offspring - Complete Music Video Collection (2005) Re-Up

The Offspring - Complete Music Video Collection (2005)
DVD5 | MPEG-2, PAL 4:3 (720x576), 25.000 fps, VBR ~ 7000 Kbps
DD 2.0, 48.0 Khz, 256 Kbps | DD 5.1, 48.0 Khz, 448 Kbps | DD 2.0, 48.0 Khz, 192 Kbps
Cover Included | ~ 4,58 Gb | RAR 5% Recovery
Punk Rock, Pop Punk | Columbia Music Video

Complete Music Video Collection is an extensive video album (released in DVD and UMD formats) by the American punk rock band The Offspring. It was released to accompany the Greatest Hits CD, which arrived a month earlier, and shows all of the band's videos between 1994 and 2005 (except for "Million Miles Away"). It also contains 11 live performances, two extra videos, an interview, and commentary by the band.
………………………………….
General
Complete name : E:\DVD\Offspring\VIDEO_TS\VTS_01_1.VOB
Format : MPEG-PS
File size : 1 024 MiB
Duration : 25mn 9s
Overall bit rate : 5 691 Kbps

Video
ID : 224 (0xE0)
Format : MPEG Video
Format version : Version 2
Format profile : Main@Main
Format settings, BVOP : Yes
Format settings, Matrix : Default
Duration : 25mn 9s
Bit rate mode : Variable
Bit rate : 4 682 Kbps
Nominal bit rate : 7 000 Kbps
Width : 720 pixels
Height : 576 pixels
Display aspect ratio : 4:3
Frame rate : 25.000 fps
Standard : PAL
Color space : YUV
Chroma subsampling : 4:2:0
Bit depth : 8 bits
Scan type : Interlaced
Scan order : Top Field First
Bits/(Pixel*Frame) : 0.452
Stream size : 842 MiB (82%)

Audio #1
ID : 128 (0x80)
Format : AC-3
Format/Info : Audio Coding 3
Mode extension : CM (complete main)
Duration : 25mn 9s
Bit rate mode : Constant
Bit rate : 256 Kbps
Channel(s) : 2 channels
Channel positions : Front: L R
Sampling rate : 48.0 KHz
Stream size : 46.1 MiB (4%)

Audio #2
ID : 129 (0x81)
Format : AC-3
Format/Info : Audio Coding 3
Mode extension : CM (complete main)
Duration : 25mn 9s
Bit rate mode : Constant
Bit rate : 448 Kbps
Channel(s) : 6 channels
Channel positions : Front: L C R, Side: L R, LFE
Sampling rate : 48.0 KHz
Stream size : 80.6 MiB (8%)

Audio #3
ID : 130 (0x82)
Format : AC-3
Format/Info : Audio Coding 3
Mode extension : CM (complete main)
Duration : 25mn 9s
Bit rate mode : Constant
Bit rate : 192 Kbps
Channel(s) : 2 channels
Channel positions : Front: L R
Sampling rate : 48.0 KHz
Stream size : 34.5 MiB (3%)

Menu

General
Complete name : E:\DVD\Offspring\VIDEO_TS\VTS_01_2.VOB
Format : MPEG-PS
File size : 1 024 MiB
Duration : 26mn 6s
Overall bit rate : 5 482 Kbps

Video
ID : 224 (0xE0)
Format : MPEG Video
Format version : Version 2
Format profile : Main@Main
Format settings, BVOP : Yes
Format settings, Matrix : Default
Format settings, GOP : M=3, N=12
Duration : 26mn 6s
Bit rate mode : Variable
Bit rate : 4 477 Kbps
Nominal bit rate : 7 000 Kbps
Width : 720 pixels
Height : 576 pixels
Display aspect ratio : 4:3
Frame rate : 25.000 fps
Standard : PAL
Color space : YUV
Chroma subsampling : 4:2:0
Bit depth : 8 bits
Scan type : Interlaced
Scan order : Top Field First
Bits/(Pixel*Frame) : 0.432
Stream size : 836 MiB (82%)

Audio #1
ID : 128 (0x80)
Format : AC-3
Format/Info : Audio Coding 3
Mode extension : CM (complete main)
Duration : 26mn 6s
Bit rate mode : Constant
Bit rate : 256 Kbps
Channel(s) : 2 channels
Channel positions : Front: L R
Sampling rate : 48.0 KHz
Video delay : -360ms
Stream size : 47.8 MiB (5%)

Audio #2
ID : 129 (0x81)
Format : AC-3
Format/Info : Audio Coding 3
Mode extension : CM (complete main)
Duration : 26mn 6s
Bit rate mode : Constant
Bit rate : 448 Kbps
Channel(s) : 6 channels
Channel positions : Front: L C R, Side: L R, LFE
Sampling rate : 48.0 KHz
Video delay : -392ms
Stream size : 83.7 MiB (8%)

Audio #3
ID : 130 (0x82)
Format : AC-3
Format/Info : Audio Coding 3
Mode extension : CM (complete main)
Duration : 26mn 6s
Bit rate mode : Constant
Bit rate : 192 Kbps
Channel(s) : 2 channels
Channel positions : Front: L R
Sampling rate : 48.0 KHz
Video delay : -328ms
Stream size : 35.9 MiB (4%)

Menu

General
Complete name : E:\DVD\Offspring\VIDEO_TS\VTS_01_3.VOB
Format : MPEG-PS
File size : 248 MiB
Duration : 6mn 56s
Overall bit rate : 4 999 Kbps

Video
ID : 224 (0xE0)
Format : MPEG Video
Format version : Version 2
Format profile : Main@Main
Format settings, BVOP : Yes
Format settings, Matrix : Default
Format settings, GOP : M=3, N=12
Duration : 6mn 56s
Bit rate mode : Variable
Bit rate : 4 004 Kbps
Nominal bit rate : 7 000 Kbps
Width : 720 pixels
Height : 576 pixels
Display aspect ratio : 4:3
Frame rate : 25.000 fps
Standard : PAL
Color space : YUV
Chroma subsampling : 4:2:0
Bit depth : 8 bits
Scan type : Interlaced
Scan order : Top Field First
Bits/(Pixel*Frame) : 0.386
Stream size : 199 MiB (80%)

Audio #1
ID : 128 (0x80)
Format : AC-3
Format/Info : Audio Coding 3
Mode extension : CM (complete main)
Duration : 6mn 56s
Bit rate mode : Constant
Bit rate : 256 Kbps
Channel(s) : 2 channels
Channel positions : Front: L R
Sampling rate : 48.0 KHz
Video delay : -600ms
Stream size : 12.7 MiB (5%)

Audio #2
ID : 129 (0x81)
Format : AC-3
Format/Info : Audio Coding 3
Mode extension : CM (complete main)
Duration : 6mn 55s
Bit rate mode : Constant
Bit rate : 448 Kbps
Channel(s) : 6 channels
Channel positions : Front: L C R, Side: L R, LFE
Sampling rate : 48.0 KHz
Video delay : -632ms
Stream size : 22.2 MiB (9%)

Audio #3
ID : 130 (0x82)
Format : AC-3
Format/Info : Audio Coding 3
Mode extension : CM (complete main)
Duration : 6mn 55s
Bit rate mode : Constant
Bit rate : 192 Kbps
Channel(s) : 2 channels
Channel positions : Front: L R
Sampling rate : 48.0 KHz
Video delay : -600ms
Stream size : 9.52 MiB (4%)

Menu
………………………………………..


Complete name : E:\DVD\Offspring\VIDEO_TS\VTS_02_1.VOB
Format : MPEG-PS
File size : 88.4 MiB
Duration : 2mn 50s
Overall bit rate : 4 338 Kbps

Video
ID : 224 (0xE0)
Format : MPEG Video
Format version : Version 2
Format profile : Main@Main
Format settings, BVOP : Yes
Format settings, Matrix : Default
Format settings, GOP : M=3, N=12
Duration : 2mn 50s
Bit rate mode : Variable
Bit rate : 3 995 Kbps
Nominal bit rate : 7 000 Kbps
Width : 720 pixels
Height : 576 pixels
Display aspect ratio : 4:3
Frame rate : 25.000 fps
Standard : PAL
Color space : YUV
Chroma subsampling : 4:2:0
Bit depth : 8 bits
Scan type : Interlaced
Scan order : Top Field First
Bits/(Pixel*Frame) : 0.385
Stream size : 81.4 MiB (92%)

Audio
ID : 128 (0x80)
Format : AC-3
Format/Info : Audio Coding 3
Mode extension : CM (complete main)
Duration : 2mn 49s
Bit rate mode : Constant
Bit rate : 256 Kbps
Channel(s) : 2 channels
Channel positions : Front: L R
Sampling rate : 48.0 KHz
Stream size : 5.18 MiB (6%)


General
Complete name : E:\DVD\Offspring\VIDEO_TS\VTS_03_1.VOB
Format : MPEG-PS
File size : 93.0 MiB
Duration : 3mn 0s
Overall bit rate : 4 328 Kbps

Video
ID : 224 (0xE0)
Format : MPEG Video
Format version : Version 2
Format profile : Main@Main
Format settings, BVOP : Yes
Format settings, Matrix : Default
Format settings, GOP : M=3, N=12
Duration : 3mn 0s
Bit rate mode : Variable
Bit rate : 3 986 Kbps
Nominal bit rate : 7 000 Kbps
Width : 720 pixels
Height : 576 pixels
Display aspect ratio : 4:3
Frame rate : 25.000 fps
Standard : PAL
Color space : YUV
Chroma subsampling : 4:2:0
Bit depth : 8 bits
Scan type : Interlaced
Scan order : Top Field First
Bits/(Pixel*Frame) : 0.384
Stream size : 85.6 MiB (92%)

Audio
ID : 128 (0x80)
Format : AC-3
Format/Info : Audio Coding 3
Mode extension : CM (complete main)
Duration : 2mn 58s
Bit rate mode : Constant
Bit rate : 256 Kbps
Channel(s) : 2 channels
Channel positions : Front: L R
Sampling rate : 48.0 KHz
Stream size : 5.46 MiB (6%)

Menu

General
Complete name : E:\DVD\Offspring\VIDEO_TS\VTS_04_1.VOB
Format : MPEG-PS
File size : 310 MiB
Duration : 9mn 57s
Overall bit rate : 4 348 Kbps

Video
ID : 224 (0xE0)
Format : MPEG Video
Format version : Version 2
Format profile : Main@Main
Format settings, BVOP : Yes
Format settings, Matrix : Default
Format settings, GOP : M=3, N=12
Duration : 9mn 57s
Bit rate mode : Variable
Bit rate : 4 006 Kbps
Nominal bit rate : 7 000 Kbps
Width : 720 pixels
Height : 576 pixels
Display aspect ratio : 4:3
Frame rate : 25.000 fps
Standard : PAL
Color space : YUV
Chroma subsampling : 4:2:0
Bit depth : 8 bits
Scan type : Interlaced
Scan order : Top Field First
Bits/(Pixel*Frame) : 0.386
Stream size : 285 MiB (92%)

Audio
ID : 128 (0x80)
Format : AC-3
Format/Info : Audio Coding 3
Mode extension : CM (complete main)
Duration : 9mn 55s
Bit rate mode : Constant
Bit rate : 256 Kbps
Channel(s) : 2 channels
Channel positions : Front: L R
Sampling rate : 48.0 KHz
Stream size : 18.2 MiB (6%)


General
Complete name : E:\DVD\Offspring\VIDEO_TS\VTS_05_1.VOB
Format : MPEG-PS
File size : 211 MiB
Duration : 5mn 40s
Overall bit rate : 5 202 Kbps

Video
ID : 224 (0xE0)
Format : MPEG Video
Format version : Version 2
Format profile : Main@Main
Format settings, BVOP : Yes
Format settings, Matrix : Default
Format settings, GOP : M=3, N=15
Duration : 5mn 40s
Bit rate mode : Variable
Bit rate : 4 842 Kbps
Nominal bit rate : 6 500 Kbps
Width : 720 pixels
Height : 576 pixels
Display aspect ratio : 4:3
Frame rate : 25.000 fps
Standard : PAL
Color space : YUV
Chroma subsampling : 4:2:0
Bit depth : 8 bits
Scan type : Interlaced
Scan order : Top Field First
Bits/(Pixel*Frame) : 0.467
Stream size : 197 MiB (93%)

Audio
ID : 128 (0x80)
Format : AC-3
Format/Info : Audio Coding 3
Mode extension : CM (complete main)
Duration : 5mn 39s
Bit rate mode : Constant
Bit rate : 256 Kbps
Channel(s) : 2 channels
Channel positions : Front: L R
Sampling rate : 48.0 KHz
Video delay : -80ms
Stream size : 10.4 MiB (5%)

Menu

Complete name : E:\DVD\Offspring\VIDEO_TS\VTS_07_1.VOB
Format : MPEG-PS
File size : 103 MiB
Duration : 2mn 38s
Overall bit rate : 5 463 Kbps

Video
ID : 224 (0xE0)
Format : MPEG Video
Format version : Version 2
Format profile : Main@Main
Format settings, BVOP : Yes
Format settings, Matrix : Default
Format settings, GOP : M=3, N=15
Duration : 2mn 38s
Bit rate mode : Variable
Bit rate : 5 098 Kbps
Nominal bit rate : 6 000 Kbps
Width : 720 pixels
Height : 576 pixels
Display aspect ratio : 4:3
Frame rate : 25.000 fps
Standard : PAL
Color space : YUV
Chroma subsampling : 4:2:0
Bit depth : 8 bits
Scan type : Interlaced
Scan order : Top Field First
Bits/(Pixel*Frame) : 0.492
Stream size : 96.1 MiB (93%)

Audio
ID : 128 (0x80)
Format : AC-3
Format/Info : Audio Coding 3
Mode extension : CM (complete main)
Duration : 2mn 38s
Bit rate mode : Constant
Bit rate : 256 Kbps
Channel(s) : 2 channels
Channel positions : Front: L R
Sampling rate : 48.0 KHz
Video delay : -80ms
Stream size : 4.82 MiB (5%)

General
Complete name : E:\DVD\Offspring\VIDEO_TS\VTS_09_1.VOB
Format : MPEG-PS
File size : 1 024 MiB
Duration : 32mn 50s
Overall bit rate : 4 360 Kbps

Video
ID : 224 (0xE0)
Format : MPEG Video
Format version : Version 2
Format profile : Main@Main
Format settings, BVOP : Yes
Format settings, Matrix : Default
Format settings, GOP : M=3, N=12
Duration : 32mn 50s
Bit rate mode : Variable
Bit rate : 4 018 Kbps
Nominal bit rate : 7 000 Kbps
Width : 720 pixels
Height : 576 pixels
Display aspect ratio : 4:3
Frame rate : 25.000 fps
Standard : PAL
Color space : YUV
Chroma subsampling : 4:2:0
Bit depth : 8 bits
Scan type : Interlaced
Scan order : Top Field First
Bits/(Pixel*Frame) : 0.387
Stream size : 943 MiB (92%)

Audio
ID : 128 (0x80)
Format : AC-3
Format/Info : Audio Coding 3
Mode extension : CM (complete main)
Duration : 32mn 49s
Bit rate mode : Constant
Bit rate : 256 Kbps
Channel(s) : 2 channels
Channel positions : Front: L R
Sampling rate : 48.0 KHz
Stream size : 60.1 MiB (6%)

Menu

General
Complete name : E:\DVD\Offspring\VIDEO_TS\VTS_11_1.VOB
Format : MPEG-PS
File size : 85.9 MiB
Duration : 2mn 45s
Overall bit rate : 4 348 Kbps

Video
ID : 224 (0xE0)
Format : MPEG Video
Format version : Version 2
Format profile : Main@Main
Format settings, BVOP : Yes
Format settings, Matrix : Default
Format settings, GOP : M=3, N=12
Duration : 2mn 45s
Bit rate mode : Variable
Bit rate : 4 005 Kbps
Nominal bit rate : 7 000 Kbps
Width : 720 pixels
Height : 576 pixels
Display aspect ratio : 4:3
Frame rate : 25.000 fps
Standard : PAL
Color space : YUV
Chroma subsampling : 4:2:0
Bit depth : 8 bits
Scan type : Interlaced
Scan order : Top Field First
Bits/(Pixel*Frame) : 0.386
Stream size : 79.1 MiB (92%)

Audio
ID : 128 (0x80)
Format : AC-3
Format/Info : Audio Coding 3
Mode extension : CM (complete main)
Duration : 2mn 45s
Bit rate mode : Constant
Bit rate : 256 Kbps
Channel(s) : 2 channels
Channel positions : Front: L R
Sampling rate : 48.0 KHz
Stream size : 5.04 MiB (6%)

Menu

General
Complete name : E:\DVD\Offspring\VIDEO_TS\VTS_12_1.VOB
Format : MPEG-PS
File size : 106 MiB
Duration : 2mn 28s
Overall bit rate : 5 978 Kbps

Video
ID : 224 (0xE0)
Format : MPEG Video
Format version : Version 2
Format profile : Main@Main
Format settings, BVOP : Yes
Format settings, Matrix : Default
Duration : 2mn 28s
Bit rate mode : Variable
Bit rate : 5 603 Kbps
Nominal bit rate : 6 500 Kbps
Width : 720 pixels
Height : 576 pixels
Display aspect ratio : 4:3
Frame rate : 25.000 fps
Standard : PAL
Color space : YUV
Chroma subsampling : 4:2:0
Bit depth : 8 bits
Scan type : Interlaced
Scan order : Top Field First
Bits/(Pixel*Frame) : 0.540
Stream size : 99.4 MiB (94%)

Audio
ID : 128 (0x80)
Format : AC-3
Format/Info : Audio Coding 3
Mode extension : CM (complete main)
Duration : 2mn 28s
Bit rate mode : Constant
Bit rate : 256 Kbps
Channel(s) : 2 channels
Channel positions : Front: L R
Sampling rate : 48.0 KHz
Video delay : -80ms
Stream size : 4.54 MiB (4%)

Menu

Tracklist:

01. Come Out And Play (Keep 'em Separated) [03:15]
02. Self Esteem [04:26]
03. Gotta Get Away [04:12]
04. All I Want [01:57]
05. Gone Away [04:31]
06. The Meaning Of Life [02:57]
07. I Choose [04:02]
08. Pretty Fly (For A White Guy) [03:13]
09. Why Don't You Get A Job? [03:13]
10. The Kids Aren't Alright [03:00]
11. She's Got Issues [03:49]
12. Original Prankster [03:41]
13. Want You Bad [03:24]
14. Defy You [03:47]
15. Hit That [03:00]
16. (Can't Get My) Head Around You [02:13]
17. Can't Repeat [03:25]

Bonus Features:

Extra videos:
Da Hui
Cool to Hate

Live performances:

Performance at the House of Blues 1998
01. Self Esteem [03:58]
02. All I Want [01:53]
03. Pretty Fly (For A White Guy) [03:00]
04. Why Don't You Get A Job? [02:56]

MTV's Smash to Splinter
01. Long Way Home [02:24]
02. Hit That [02:52]
03. Gotta Get Away [03:34]
04. The Worst Hangover Ever [03:13]
05. Come Out And Play (Keep 'em Separated) [03:50]
06. (Can't Get My) Head Around You
07. The Kids Aren't Alright [02:03]

Cool Stuff:
The Making Of Da Hui
Storyboard Gallery
Commentary By The Band
And More…

The Offspring - Complete Music Video Collection (2005) Re-Up

The Offspring - Complete Music Video Collection (2005) Re-Up

The Offspring - Complete Music Video Collection (2005) Re-Up

The Offspring - Complete Music Video Collection (2005) Re-Up

The Offspring - Complete Music Video Collection (2005) Re-Up

The Offspring - Complete Music Video Collection (2005) Re-Up

The Offspring - Complete Music Video Collection (2005) Re-Up

The Offspring - Complete Music Video Collection (2005) Re-Up

All thanks go to the original ripper(s) …

>>> My Blog <<<

Download from icerbox.com: