Tags
Language
Tags

The Police - Around The World (2022) (Blu-Ray)

Posted By: Rtax
The Police - Around The World (2022) (Blu-Ray)

The Police - Around The World (2022) (Blu-Ray)
Blu-Ray BDMV | MPEG-4 AVC Video / 21942 kbps / 1080i / 29.970 fps / 16:9 / High Profile 4.1
1:15:20 + 00:31:37 | Audio #1: LPCM Audio / English / 2.0 / 48 kHz / 2304 kbps / 24-bit
Audio #2: DTS-HD Master Audio / English / 5.1 / 48 kHz / 4726 kbps / 24-bit (DTS Core: 5.1 / 48 kHz / 1509 kbps / 24-bit)
Subtitles: English, French, German, Spanish, Portuguese | Rock, Pop | Label: Mercury

The format details for the previously advised The Police Around The World documentary reissue can now be confirmed. The film, previously only available on VHS and Laserdisc, follows the band on their first world tour in 1979 & 1980 offers a jovial glimpse of the band as they travel around the world and spotlights their visits to local sights between performances.
The format details for the previously advised The Police Around The World documentary reissue can now be confirmed. The film, previously only available on VHS and Laserdisc, follows the band on their first world tour in 1979 & 1980 offers a jovial glimpse of the band as they travel around the world and spotlights their visits to local sights between performances.

The format details for the previously advised The Police Around The World documentary reissue can now be confirmed. The film, previously only available on VHS and Laserdisc, follows the band on their first world tour in 1979 & 1980 offers a jovial glimpse of the band as they travel around the world and spotlights their visits to local sights between performances.
The format details for the previously advised The Police Around The World documentary reissue can now be confirmed. The film, previously only available on VHS and Laserdisc, follows the band on their first world tour in 1979 & 1980 offers a jovial glimpse of the band as they travel around the world and spotlights their visits to local sights between performances.

The reissue presents Around The World with restored picture and remastered audio and is available on three physical formats. The Blu-ray+CD edition offers the best picture quality (full HD) and the documentary offers complete performances of four songs as bonus features. There is also a DVD+CD edition with the same content for those that don’t want the visuals to look quite a good. Audio on the video formats is confirmed as stereo, 5.1 surround and DTS.

The blu-ray+CD combo of Around The World is likely to prove the most popular format.
There is a vinyl version which is actually paired with the DVD, rather than the blu-ray, and is this DVD+LP set with the vinyl record pressed on silver vinyl for North American, and blue for the rest of the world.

The audio on the CD and vinyl are live tracks recorded in Japan, Hong Kong & England during this world tour. There are nine on the vinyl record and 12 on the CD.

Tracklist
BD-1 Intro Credits (Don't Stand So Close To Me live drone)
BD-2 Next To You (live in Kyoto '80)
BD-3 Bewitched (Summers/Fripp)
BD-4 Bring On The Night (rehearsal jam)
BD-5 Walking On The Moon (live in Kyoto '80)
BD-6 Guitar Man (rehearsal jam)
BD-7 Canary In A Coalmine (rehearsal jam)
BD-8 Born In The 50's (live in Hong Kong '80)
BD-9 So Lonely (videoclip)
BD-10 Man In A Suitcase (live in Los Angeles '81)
BD-11 Can't Stand Losing You/Reggatta De Blanc (live in Bombay '80)
BD-12 piano jam
BD-13 Bring On The Night (videoclip)
BD-14 Canary In A Coalmine (videoclip)
BD-15 Voices Inside My Head (videoclip)
BD-16 When The World Is Running Down, You Make The Best Of What's Still Around (excerpts live in Los Angeles '81)
BD-17 Shadows In The Rain (live in Los Angeles '81)
BD-18 De Do Do Do, De Da Da Da (live in Frėjus '80)
BD-19 Don't Stand So Close To Me (live in Frėjus '80)
BD-20 Truth Hits Everybody (live in Frėjus '80)
BD-21 Roxanne (live in Los Angeles '81)
BD-22 end credits (Message In A Bottle studio version)
CD-1 Walking On The Moon
CD-2 Next To You
CD-3 Deathwish
CD-4 So Lonely
CD-5 Can't Stand Losing You
CD-6 Truth Hits Everybody
CD-7 Visions Of The Night
CD-8 Roxanne
CD-9 Intro
CD-10 Born In The 50's
CD-11 Message In A Bottle
CD-12 Bring On The Night
Disc Title: The Police - Around The World
Disc Size: 19 553 985 656 bytes
Protection: AACS
BD-Java: No
BDInfo: 0.5.8

Notes:

BDINFO HOME:
Cinema Squid
http://www.cinemasquid.com/blu-ray/tools/bdinfo

INCLUDES FORUMS REPORT FOR:
AVS Forum Blu-ray Audio and Video Specifications Thread
http://www.avsforum.com/avs-vb/showthread.php?t=1155731

********************
PLAYLIST: 00000.MPLS
********************

<–- BEGIN FORUMS PASTE –->
Code:

Total Video
Title Codec Length Movie Size Disc Size Bitrate Bitrate Main Audio Track Secondary Audio Track
––- ––– –––- ––––––– ––––––– –––- –––- ––––––––– ––––––––––-
00000.MPLS AVC 1:05:20 15 028 242 432 19 553 985 656 30,66 21,94 LPCM 2.0 2304Kbps (48kHz/24-bit) DTS-HD Master 5.1 4726Kbps (48kHz/24-bit)
Code:

DISC INFO:

Disc Title: The Police - Around The World
Disc Size: 19 553 985 656 bytes
Protection: AACS
BD-Java: No
BDInfo: 0.5.8

PLAYLIST REPORT:

Name: 00000.MPLS
Length: 1:05:20.750 (h:m:s.ms)
Size: 15 028 242 432 bytes
Total Bitrate: 30,66 Mbps

VIDEO:

Codec Bitrate Description
––- –––- –––––-
MPEG-4 AVC Video 21942 kbps 1080i / 29,970 fps / 16:9 / High Profile 4.1

AUDIO:

Codec Language Bitrate Description
––- –––– –––- –––––-
LPCM Audio English 2304 kbps 2.0 / 48 kHz / 2304 kbps / 24-bit
DTS-HD Master Audio English 4726 kbps 5.1 / 48 kHz / 4726 kbps / 24-bit (DTS Core: 5.1 / 48 kHz / 1509 kbps / 24-bit)

SUBTITLES:

Codec Language Bitrate Description
––- –––– –––- –––––-
Presentation Graphics English 11,241 kbps
Presentation Graphics French 11,430 kbps
Presentation Graphics German 11,880 kbps
Presentation Graphics Spanish 10,798 kbps
Presentation Graphics Portuguese 9,953 kbps

FILES:

Name Time In Length Size Total Bitrate
–– –––- ––– –– ––––––-
00000.M2TS 0:00:00.000 1:05:20.750 15 028 242 432 30 664

CHAPTERS:

Number Time In Length Avg Video Rate Max 1-Sec Rate Max 1-Sec Time Max 5-Sec Rate Max 5-Sec Time Max 10Sec Rate Max 10Sec Time Avg Frame Size Max Frame Size Max Frame Time
––– –––- ––– ––––––– ––––––– ––––––– ––––––– ––––––– ––––––– ––––––– ––––––– ––––––– –––––––
1 0:00:00.000 0:01:03.830 15 784 kbps 35 518 kbps 00:00:53.353 31 103 kbps 00:00:51.551 28 234 kbps 00:00:51.151 65 797 bytes 317 142 bytes 00:00:37.937
2 0:01:03.830 0:09:59.465 21 894 kbps 36 967 kbps 00:09:55.127 32 271 kbps 00:04:44.717 28 593 kbps 00:04:39.746 91 316 bytes 321 834 bytes 00:06:54.547
3 0:11:03.295 0:10:12.144 22 393 kbps 40 513 kbps 00:13:13.392 38 127 kbps 00:13:10.189 36 580 kbps 00:13:07.586 93 399 bytes 315 903 bytes 00:20:45.677
4 0:21:15.440 0:02:46.566 21 589 kbps 38 827 kbps 00:21:43.268 29 609 kbps 00:23:55.901 27 957 kbps 00:21:34.426 90 043 bytes 330 713 bytes 00:22:28.346
5 0:24:02.007 0:09:32.505 26 726 kbps 42 720 kbps 00:29:41.913 38 014 kbps 00:29:41.546 35 134 kbps 00:24:10.549 111 468 bytes 328 731 bytes 00:25:41.506
6 0:33:34.512 0:04:41.881 26 541 kbps 41 821 kbps 00:37:24.308 38 815 kbps 00:37:22.139 32 203 kbps 00:37:49.066 110 698 bytes 339 720 bytes 00:36:44.101
7 0:38:16.394 0:04:32.171 27 747 kbps 43 675 kbps 00:38:24.635 38 516 kbps 00:38:24.035 35 494 kbps 00:38:24.035 115 728 bytes 399 064 bytes 00:42:46.030
8 0:42:48.565 0:08:24.670 23 043 kbps 38 891 kbps 00:49:09.980 36 396 kbps 00:49:35.906 34 202 kbps 00:43:40.618 96 109 bytes 391 768 bytes 00:42:49.366
9 0:51:13.236 0:03:11.124 16 663 kbps 34 574 kbps 00:51:17.941 30 135 kbps 00:51:16.373 27 924 kbps 00:51:13.437 69 497 bytes 293 417 bytes 00:52:25.642
10 0:54:24.361 0:08:35.948 15 120 kbps 34 419 kbps 00:58:47.790 27 690 kbps 00:58:46.189 25 735 kbps 01:02:28.144 63 065 bytes 389 656 bytes 00:57:20.570
11 1:03:00.309 0:02:20.440 11 705 kbps 42 427 kbps 01:03:27.236 40 140 kbps 01:04:09.745 26 380 kbps 01:03:19.695 48 832 bytes 426 143 bytes 01:04:02.939

STREAM DIAGNOSTICS:

File PID Type Codec Language Seconds Bitrate Bytes Packets
–– –- –– ––- –––– ––––––– ––––––– ––––––- ––-
00000.M2TS 4113 (0x1011) 0x1B AVC 3920,683 21 942 10 753 649 227 58 512 376
00000.M2TS 4352 (0x1100) 0x80 LPCM eng (English) 3920,683 2 310 1 132 312 600 6 273 200
00000.M2TS 4353 (0x1101) 0x86 DTS-HD MA eng (English) 3920,683 4 726 2 316 266 672 13 199 709
00000.M2TS 4608 (0x1200) 0x90 PGS eng (English) 3920,683 11 5 509 355 31 630
00000.M2TS 4609 (0x1201) 0x90 PGS fra (French) 3920,683 11 5 601 831 32 063
00000.M2TS 4610 (0x1202) 0x90 PGS deu (German) 3920,683 12 5 822 182 33 264
00000.M2TS 4611 (0x1203) 0x90 PGS spa (Spanish) 3920,683 11 5 292 103 30 354
00000.M2TS 4612 (0x1204) 0x90 PGS por (Portuguese) 3920,683 10 4 878 009 28 103

<–– END FORUMS PASTE ––>

QUICK SUMMARY:

Disc Title: The Police - Around The World
Disc Size: 19 553 985 656 bytes
Protection: AACS
BD-Java: No
Playlist: 00000.MPLS
Size: 15 028 242 432 bytes
Length: 1:05:20.750
Total Bitrate: 30,66 Mbps
Video: MPEG-4 AVC Video / 21942 kbps / 1080i / 29,970 fps / 16:9 / High Profile 4.1
Audio: English / LPCM Audio / 2.0 / 48 kHz / 2304 kbps / 24-bit
Audio: English / DTS-HD Master Audio / 5.1 / 48 kHz / 4726 kbps / 24-bit (DTS Core: 5.1 / 48 kHz / 1509 kbps / 24-bit)
Subtitle: English / 11,241 kbps
Subtitle: French / 11,430 kbps
Subtitle: German / 11,880 kbps
Subtitle: Spanish / 10,798 kbps
Subtitle: Portuguese / 9,953 kbps

********************
PLAYLIST: 00001.MPLS
********************

<–- BEGIN FORUMS PASTE –->
Code:

Total Video
Title Codec Length Movie Size Disc Size Bitrate Bitrate Main Audio Track Secondary Audio Track
––- ––– –––- ––––––– ––––––– –––- –––- ––––––––– ––––––––––-
00001.MPLS AVC 0:17:12 4 045 461 504 19 553 985 656 31,35 22,00 LPCM 2.0 2304Kbps (48kHz/24-bit) DTS-HD Master 5.1 5385Kbps (48kHz/24-bit)
Code:

DISC INFO:

Disc Title: The Police - Around The World
Disc Size: 19 553 985 656 bytes
Protection: AACS
BD-Java: No
BDInfo: 0.5.8

PLAYLIST REPORT:

Name: 00001.MPLS
Length: 0:17:12.297 (h:m:s.ms)
Size: 4 045 461 504 bytes
Total Bitrate: 31,35 Mbps

VIDEO:

Codec Bitrate Description
––- –––- –––––-
MPEG-4 AVC Video 22000 kbps 1080i / 29,970 fps / 16:9 / High Profile 4.1

AUDIO:

Codec Language Bitrate Description
––- –––– –––- –––––-
LPCM Audio English 2304 kbps 2.0 / 48 kHz / 2304 kbps / 24-bit
DTS-HD Master Audio English 5385 kbps 5.1 / 48 kHz / 5385 kbps / 24-bit (DTS Core: 5.1 / 48 kHz / 1509 kbps / 24-bit)

SUBTITLES:

Codec Language Bitrate Description
––- –––– –––- –––––-
Presentation Graphics English 0,052 kbps
Presentation Graphics English 0,052 kbps
Presentation Graphics English 0,052 kbps
Presentation Graphics English 0,052 kbps
Presentation Graphics English 0,052 kbps

FILES:

Name Time In Length Size Total Bitrate
–– –––- ––– –– ––––––-
00001.M2TS 0:00:00.000 0:17:12.297 4 045 461 504 31 351

CHAPTERS:

Number Time In Length Avg Video Rate Max 1-Sec Rate Max 1-Sec Time Max 5-Sec Rate Max 5-Sec Time Max 10Sec Rate Max 10Sec Time Avg Frame Size Max Frame Size Max Frame Time
––– –––- ––– ––––––– ––––––– ––––––– ––––––– ––––––– ––––––– ––––––– ––––––– ––––––– –––––––
1 0:00:00.000 0:05:03.302 22 649 kbps 37 743 kbps 00:03:43.957 33 111 kbps 00:03:42.589 29 751 kbps 00:02:21.474 94 455 bytes 333 122 bytes 00:01:49.642
2 0:05:03.302 0:02:46.432 22 527 kbps 35 624 kbps 00:06:06.933 29 884 kbps 00:06:37.930 28 623 kbps 00:06:36.028 93 958 bytes 298 379 bytes 00:05:34.500
3 0:07:49.735 0:05:12.045 21 613 kbps 33 155 kbps 00:12:11.697 27 325 kbps 00:12:08.961 26 110 kbps 00:12:09.728 90 146 bytes 257 813 bytes 00:09:46.118
4 0:13:01.780 0:04:10.516 21 345 kbps 36 520 kbps 00:13:06.152 33 807 kbps 00:13:04.550 28 143 kbps 00:13:03.749 89 037 bytes 277 680 bytes 00:16:41.266

STREAM DIAGNOSTICS:

File PID Type Codec Language Seconds Bitrate Bytes Packets
–– –- –– ––- –––– ––––––– ––––––– ––––––- ––-
00001.M2TS 4113 (0x1011) 0x1B AVC 1032,231 22 001 2 838 795 619 15 446 361
00001.M2TS 4352 (0x1100) 0x80 LPCM eng (English) 1032,231 2 311 298 128 240 1 651 680
00001.M2TS 4353 (0x1101) 0x86 DTS-HD MA eng (English) 1032,231 5 385 694 832 592 3 937 237
00001.M2TS 4608 (0x1200) 0x90 PGS eng (English) 1032,231 0 6 762 44
00001.M2TS 4609 (0x1201) 0x90 PGS eng (English) 1032,231 0 6 762 44
00001.M2TS 4610 (0x1202) 0x90 PGS eng (English) 1032,231 0 6 762 44
00001.M2TS 4611 (0x1203) 0x90 PGS eng (English) 1032,231 0 6 762 44
00001.M2TS 4612 (0x1204) 0x90 PGS eng (English) 1032,231 0 6 762 44

<–– END FORUMS PASTE ––>

QUICK SUMMARY:

Disc Title: The Police - Around The World
Disc Size: 19 553 985 656 bytes
Protection: AACS
BD-Java: No
Playlist: 00001.MPLS
Size: 4 045 461 504 bytes
Length: 0:17:12.297
Total Bitrate: 31,35 Mbps
Video: MPEG-4 AVC Video / 22000 kbps / 1080i / 29,970 fps / 16:9 / High Profile 4.1
Audio: English / LPCM Audio / 2.0 / 48 kHz / 2304 kbps / 24-bit
Audio: English / DTS-HD Master Audio / 5.1 / 48 kHz / 5385 kbps / 24-bit (DTS Core: 5.1 / 48 kHz / 1509 kbps / 24-bit)
Subtitle: English / 0,052 kbps
Subtitle: English / 0,052 kbps
Subtitle: English / 0,052 kbps
Subtitle: English / 0,052 kbps
Subtitle: English / 0,052 kbps

********************
PLAYLIST: 00007.MPLS
********************

<–- BEGIN FORUMS PASTE –->
Code:

Total Video
Title Codec Length Movie Size Disc Size Bitrate Bitrate Main Audio Track Secondary Audio Track
––- ––– –––- ––––––– ––––––– –––- –––- ––––––––– ––––––––––-
00007.MPLS AVC 0:05:12 1 209 441 216 19 553 985 656 31,01 21,61 LPCM 2.0 2304Kbps (48kHz/24-bit) DTS-HD Master 5.1 5440Kbps (48kHz/24-bit)
Code:

DISC INFO:

Disc Title: The Police - Around The World
Disc Size: 19 553 985 656 bytes
Protection: AACS
BD-Java: No
BDInfo: 0.5.8

PLAYLIST REPORT:

Name: 00007.MPLS
Length: 0:05:12.045 (h:m:s.ms)
Size: 1 209 441 216 bytes
Total Bitrate: 31,01 Mbps

VIDEO:

Codec Bitrate Description
––- –––- –––––-
MPEG-4 AVC Video 21611 kbps 1080i / 29,970 fps / 16:9 / High Profile 4.1

AUDIO:

Codec Language Bitrate Description
––- –––– –––- –––––-
LPCM Audio English 2304 kbps 2.0 / 48 kHz / 2304 kbps / 24-bit
DTS-HD Master Audio English 5440 kbps 5.1 / 48 kHz / 5440 kbps / 24-bit (DTS Core: 5.1 / 48 kHz / 1509 kbps / 24-bit)

SUBTITLES:

Codec Language Bitrate Description
––- –––– –––- –––––-
Presentation Graphics English 0,000 kbps
Presentation Graphics English 0,000 kbps
Presentation Graphics English 0,000 kbps
Presentation Graphics English 0,000 kbps
Presentation Graphics English 0,000 kbps

FILES:

Name Time In Length Size Total Bitrate
–– –––- ––– –– ––––––-
00001.M2TS 0:00:00.000 0:05:12.045 1 209 441 216 31 004

CHAPTERS:

Number Time In Length Avg Video Rate Max 1-Sec Rate Max 1-Sec Time Max 5-Sec Rate Max 5-Sec Time Max 10Sec Rate Max 10Sec Time Avg Frame Size Max Frame Size Max Frame Time
––– –––- ––– ––––––– ––––––– ––––––– ––––––– ––––––– ––––––– ––––––– ––––––– ––––––– –––––––
1 0:00:00.000 0:05:12.045 21 614 kbps 33 155 kbps 00:04:21.961 27 325 kbps 00:04:19.225 26 110 kbps 00:04:19.993 90 137 bytes 257 813 bytes 00:01:56.382

STREAM DIAGNOSTICS:

File PID Type Codec Language Seconds Bitrate Bytes Packets
–– –- –– ––- –––– ––––––– ––––––– ––––––- ––-
00001.M2TS 4113 (0x1011) 0x1B AVC 1032,231 22 001 2 838 795 619 15 446 361
00001.M2TS 4352 (0x1100) 0x80 LPCM eng (English) 1032,231 2 311 298 128 240 1 651 680
00001.M2TS 4353 (0x1101) 0x86 DTS-HD MA eng (English) 1032,231 5 385 694 832 592 3 937 237
00001.M2TS 4608 (0x1200) 0x90 PGS eng (English) 1032,231 0 6 762 44
00001.M2TS 4609 (0x1201) 0x90 PGS eng (English) 1032,231 0 6 762 44
00001.M2TS 4610 (0x1202) 0x90 PGS eng (English) 1032,231 0 6 762 44
00001.M2TS 4611 (0x1203) 0x90 PGS eng (English) 1032,231 0 6 762 44
00001.M2TS 4612 (0x1204) 0x90 PGS eng (English) 1032,231 0 6 762 44

<–– END FORUMS PASTE ––>

QUICK SUMMARY:

Disc Title: The Police - Around The World
Disc Size: 19 553 985 656 bytes
Protection: AACS
BD-Java: No
Playlist: 00007.MPLS
Size: 1 209 441 216 bytes
Length: 0:05:12.045
Total Bitrate: 31,01 Mbps
Video: MPEG-4 AVC Video / 21611 kbps / 1080i / 29,970 fps / 16:9 / High Profile 4.1
Audio: English / LPCM Audio / 2.0 / 48 kHz / 2304 kbps / 24-bit
Audio: English / DTS-HD Master Audio / 5.1 / 48 kHz / 5440 kbps / 24-bit (DTS Core: 5.1 / 48 kHz / 1509 kbps / 24-bit)
Subtitle: English / 0,000 kbps
Subtitle: English / 0,000 kbps
Subtitle: English / 0,000 kbps
Subtitle: English / 0,000 kbps
Subtitle: English / 0,000 kbps

********************
PLAYLIST: 00005.MPLS
********************

<–- BEGIN FORUMS PASTE –->
Code:

Total Video
Title Codec Length Movie Size Disc Size Bitrate Bitrate Main Audio Track Secondary Audio Track
––- ––– –––- ––––––– ––––––– –––- –––- ––––––––– ––––––––––-
00005.MPLS AVC 0:05:03 1 216 802 112 19 553 985 656 32,09 22,65 LPCM 2.0 2304Kbps (48kHz/24-bit) DTS-HD Master 5.1 5448Kbps (48kHz/24-bit)
Code:

DISC INFO:

Disc Title: The Police - Around The World
Disc Size: 19 553 985 656 bytes
Protection: AACS
BD-Java: No
BDInfo: 0.5.8

PLAYLIST REPORT:

Name: 00005.MPLS
Length: 0:05:03.302 (h:m:s.ms)
Size: 1 216 802 112 bytes
Total Bitrate: 32,09 Mbps

VIDEO:

Codec Bitrate Description
––- –––- –––––-
MPEG-4 AVC Video 22646 kbps 1080i / 29,970 fps / 16:9 / High Profile 4.1

AUDIO:

Codec Language Bitrate Description
––- –––– –––- –––––-
LPCM Audio English 2304 kbps 2.0 / 48 kHz / 2304 kbps / 24-bit
DTS-HD Master Audio English 5448 kbps 5.1 / 48 kHz / 5448 kbps / 24-bit (DTS Core: 5.1 / 48 kHz / 1509 kbps / 24-bit)

SUBTITLES:

Codec Language Bitrate Description
––- –––– –––- –––––-
Presentation Graphics English 0,178 kbps
Presentation Graphics English 0,178 kbps
Presentation Graphics English 0,178 kbps
Presentation Graphics English 0,178 kbps
Presentation Graphics English 0,178 kbps

FILES:

Name Time In Length Size Total Bitrate
–– –––- ––– –– ––––––-
00001.M2TS 0:00:00.000 0:05:03.302 1 216 802 112 32 091

CHAPTERS:

Number Time In Length Avg Video Rate Max 1-Sec Rate Max 1-Sec Time Max 5-Sec Rate Max 5-Sec Time Max 10Sec Rate Max 10Sec Time Avg Frame Size Max Frame Size Max Frame Time
––– –––- ––– ––––––– ––––––– ––––––– ––––––– ––––––– ––––––– ––––––– ––––––– ––––––– –––––––
1 0:00:00.000 0:05:03.302 22 649 kbps 37 743 kbps 00:03:43.957 33 111 kbps 00:03:42.589 29 751 kbps 00:02:21.474 94 455 bytes 333 122 bytes 00:01:49.642

STREAM DIAGNOSTICS:

File PID Type Codec Language Seconds Bitrate Bytes Packets
–– –- –– ––- –––– ––––––– ––––––– ––––––- ––-
00001.M2TS 4113 (0x1011) 0x1B AVC 1032,231 22 001 2 838 795 619 15 446 361
00001.M2TS 4352 (0x1100) 0x80 LPCM eng (English) 1032,231 2 311 298 128 240 1 651 680
00001.M2TS 4353 (0x1101) 0x86 DTS-HD MA eng (English) 1032,231 5 385 694 832 592 3 937 237
00001.M2TS 4608 (0x1200) 0x90 PGS eng (English) 1032,231 0 6 762 44
00001.M2TS 4609 (0x1201) 0x90 PGS eng (English) 1032,231 0 6 762 44
00001.M2TS 4610 (0x1202) 0x90 PGS eng (English) 1032,231 0 6 762 44
00001.M2TS 4611 (0x1203) 0x90 PGS eng (English) 1032,231 0 6 762 44
00001.M2TS 4612 (0x1204) 0x90 PGS eng (English) 1032,231 0 6 762 44

<–– END FORUMS PASTE ––>

QUICK SUMMARY:

Disc Title: The Police - Around The World
Disc Size: 19 553 985 656 bytes
Protection: AACS
BD-Java: No
Playlist: 00005.MPLS
Size: 1 216 802 112 bytes
Length: 0:05:03.302
Total Bitrate: 32,09 Mbps
Video: MPEG-4 AVC Video / 22646 kbps / 1080i / 29,970 fps / 16:9 / High Profile 4.1
Audio: English / LPCM Audio / 2.0 / 48 kHz / 2304 kbps / 24-bit
Audio: English / DTS-HD Master Audio / 5.1 / 48 kHz / 5448 kbps / 24-bit (DTS Core: 5.1 / 48 kHz / 1509 kbps / 24-bit)
Subtitle: English / 0,178 kbps
Subtitle: English / 0,178 kbps
Subtitle: English / 0,178 kbps
Subtitle: English / 0,178 kbps
Subtitle: English / 0,178 kbps

********************
PLAYLIST: 00008.MPLS
********************

<–- BEGIN FORUMS PASTE –->
Code:

Total Video
Title Codec Length Movie Size Disc Size Bitrate Bitrate Main Audio Track Secondary Audio Track
––- ––– –––- ––––––– ––––––– –––- –––- ––––––––– ––––––––––-
00008.MPLS AVC 0:04:10 956 631 744 19 553 985 656 30,55 21,34 LPCM 2.0 2304Kbps (48kHz/24-bit) DTS-HD Master 5.1 5270Kbps (48kHz/24-bit)
Code:

DISC INFO:

Disc Title: The Police - Around The World
Disc Size: 19 553 985 656 bytes
Protection: AACS
BD-Java: No
BDInfo: 0.5.8

PLAYLIST REPORT:

Name: 00008.MPLS
Length: 0:04:10.516 (h:m:s.ms)
Size: 956 631 744 bytes
Total Bitrate: 30,55 Mbps

VIDEO:

Codec Bitrate Description
––- –––- –––––-
MPEG-4 AVC Video 21345 kbps 1080i / 29,970 fps / 16:9 / High Profile 4.1

AUDIO:

Codec Language Bitrate Description
––- –––– –––- –––––-
LPCM Audio English 2304 kbps 2.0 / 48 kHz / 2304 kbps / 24-bit
DTS-HD Master Audio English 5270 kbps 5.1 / 48 kHz / 5270 kbps / 24-bit (DTS Core: 5.1 / 48 kHz / 1509 kbps / 24-bit)

SUBTITLES:

Codec Language Bitrate Description
––- –––– –––- –––––-
Presentation Graphics English 0,000 kbps
Presentation Graphics English 0,000 kbps
Presentation Graphics English 0,000 kbps
Presentation Graphics English 0,000 kbps
Presentation Graphics English 0,000 kbps

FILES:

Name Time In Length Size Total Bitrate
–– –––- ––– –– ––––––-
00001.M2TS 0:00:00.000 0:04:10.516 956 631 744 30 549

CHAPTERS:

Number Time In Length Avg Video Rate Max 1-Sec Rate Max 1-Sec Time Max 5-Sec Rate Max 5-Sec Time Max 10Sec Rate Max 10Sec Time Avg Frame Size Max Frame Size Max Frame Time
––– –––- ––– ––––––– ––––––– ––––––– ––––––– ––––––– ––––––– ––––––– ––––––– ––––––– –––––––
1 0:00:00.000 0:04:10.516 21 345 kbps 36 520 kbps 00:00:04.371 33 807 kbps 00:00:02.769 28 143 kbps 00:00:01.968 89 026 bytes 277 680 bytes 00:03:39.485

STREAM DIAGNOSTICS:

File PID Type Codec Language Seconds Bitrate Bytes Packets
–– –- –– ––- –––– ––––––– ––––––– ––––––- ––-
00001.M2TS 4113 (0x1011) 0x1B AVC 1032,231 22 001 2 838 795 619 15 446 361
00001.M2TS 4352 (0x1100) 0x80 LPCM eng (English) 1032,231 2 311 298 128 240 1 651 680
00001.M2TS 4353 (0x1101) 0x86 DTS-HD MA eng (English) 1032,231 5 385 694 832 592 3 937 237
00001.M2TS 4608 (0x1200) 0x90 PGS eng (English) 1032,231 0 6 762 44
00001.M2TS 4609 (0x1201) 0x90 PGS eng (English) 1032,231 0 6 762 44
00001.M2TS 4610 (0x1202) 0x90 PGS eng (English) 1032,231 0 6 762 44
00001.M2TS 4611 (0x1203) 0x90 PGS eng (English) 1032,231 0 6 762 44
00001.M2TS 4612 (0x1204) 0x90 PGS eng (English) 1032,231 0 6 762 44

<–– END FORUMS PASTE ––>

QUICK SUMMARY:

Disc Title: The Police - Around The World
Disc Size: 19 553 985 656 bytes
Protection: AACS
BD-Java: No
Playlist: 00008.MPLS
Size: 956 631 744 bytes
Length: 0:04:10.516
Total Bitrate: 30,55 Mbps
Video: MPEG-4 AVC Video / 21345 kbps / 1080i / 29,970 fps / 16:9 / High Profile 4.1
Audio: English / LPCM Audio / 2.0 / 48 kHz / 2304 kbps / 24-bit
Audio: English / DTS-HD Master Audio / 5.1 / 48 kHz / 5270 kbps / 24-bit (DTS Core: 5.1 / 48 kHz / 1509 kbps / 24-bit)
Subtitle: English / 0,000 kbps
Subtitle: English / 0,000 kbps
Subtitle: English / 0,000 kbps
Subtitle: English / 0,000 kbps
Subtitle: English / 0,000 kbps

********************
PLAYLIST: 00006.MPLS
********************

<–- BEGIN FORUMS PASTE –->
Code:

Total Video
Title Codec Length Movie Size Disc Size Bitrate Bitrate Main Audio Track Secondary Audio Track
––- ––– –––- ––––––– ––––––– –––- –––- ––––––––– ––––––––––-
00006.MPLS AVC 0:02:46 662 652 864 19 553 985 656 31,85 22,52 LPCM 2.0 2304Kbps (48kHz/24-bit) DTS-HD Master 5.1 5336Kbps (48kHz/24-bit)
Code:

DISC INFO:

Disc Title: The Police - Around The World
Disc Size: 19 553 985 656 bytes
Protection: AACS
BD-Java: No
BDInfo: 0.5.8

PLAYLIST REPORT:

Name: 00006.MPLS
Length: 0:02:46.432 (h:m:s.ms)
Size: 662 652 864 bytes
Total Bitrate: 31,85 Mbps

VIDEO:

Codec Bitrate Description
––- –––- –––––-
MPEG-4 AVC Video 22523 kbps 1080i / 29,970 fps / 16:9 / High Profile 4.1

AUDIO:

Codec Language Bitrate Description
––- –––– –––- –––––-
LPCM Audio English 2304 kbps 2.0 / 48 kHz / 2304 kbps / 24-bit
DTS-HD Master Audio English 5336 kbps 5.1 / 48 kHz / 5336 kbps / 24-bit (DTS Core: 5.1 / 48 kHz / 1509 kbps / 24-bit)

SUBTITLES:

Codec Language Bitrate Description
––- –––– –––- –––––-
Presentation Graphics English 0,000 kbps
Presentation Graphics English 0,000 kbps
Presentation Graphics English 0,000 kbps
Presentation Graphics English 0,000 kbps
Presentation Graphics English 0,000 kbps

FILES:

Name Time In Length Size Total Bitrate
–– –––- ––– –– ––––––-
00001.M2TS 0:00:00.000 0:02:46.432 662 652 864 31 846

CHAPTERS:

Number Time In Length Avg Video Rate Max 1-Sec Rate Max 1-Sec Time Max 5-Sec Rate Max 5-Sec Time Max 10Sec Rate Max 10Sec Time Avg Frame Size Max Frame Size Max Frame Time
––– –––- ––– ––––––– ––––––– ––––––– ––––––– ––––––– ––––––– ––––––– ––––––– ––––––– –––––––
1 0:00:00.000 0:02:44.797 22 750 kbps 35 624 kbps 00:01:03.630 29 884 kbps 00:01:34.627 28 623 kbps 00:01:32.725 94 865 bytes 298 379 bytes 00:00:31.197
2 0:02:44.797 0:00:01.634 143 kbps 164 kbps 00:02:45.431 0 kbps 00:00:00.000 0 kbps 00:00:00.000 597 bytes 3 205 bytes 00:02:46.432

STREAM DIAGNOSTICS:

File PID Type Codec Language Seconds Bitrate Bytes Packets
–– –- –– ––- –––– ––––––– ––––––– ––––––- ––-
00001.M2TS 4113 (0x1011) 0x1B AVC 1032,231 22 001 2 838 795 619 15 446 361
00001.M2TS 4352 (0x1100) 0x80 LPCM eng (English) 1032,231 2 311 298 128 240 1 651 680
00001.M2TS 4353 (0x1101) 0x86 DTS-HD MA eng (English) 1032,231 5 385 694 832 592 3 937 237
00001.M2TS 4608 (0x1200) 0x90 PGS eng (English) 1032,231 0 6 762 44
00001.M2TS 4609 (0x1201) 0x90 PGS eng (English) 1032,231 0 6 762 44
00001.M2TS 4610 (0x1202) 0x90 PGS eng (English) 1032,231 0 6 762 44
00001.M2TS 4611 (0x1203) 0x90 PGS eng (English) 1032,231 0 6 762 44
00001.M2TS 4612 (0x1204) 0x90 PGS eng (English) 1032,231 0 6 762 44

<–– END FORUMS PASTE ––>

QUICK SUMMARY:

Disc Title: The Police - Around The World
Disc Size: 19 553 985 656 bytes
Protection: AACS
BD-Java: No
Playlist: 00006.MPLS
Size: 662 652 864 bytes
Length: 0:02:46.432
Total Bitrate: 31,85 Mbps
Video: MPEG-4 AVC Video / 22523 kbps / 1080i / 29,970 fps / 16:9 / High Profile 4.1
Audio: English / LPCM Audio / 2.0 / 48 kHz / 2304 kbps / 24-bit
Audio: English / DTS-HD Master Audio / 5.1 / 48 kHz / 5336 kbps / 24-bit (DTS Core: 5.1 / 48 kHz / 1509 kbps / 24-bit)
Subtitle: English / 0,000 kbps
Subtitle: English / 0,000 kbps
Subtitle: English / 0,000 kbps
Subtitle: English / 0,000 kbps
Subtitle: English / 0,000 kbps

********************
PLAYLIST: 00003.MPLS
********************

<–- BEGIN FORUMS PASTE –->
Code:

Total Video
Title Codec Length Movie Size Disc Size Bitrate Bitrate Main Audio Track Secondary Audio Track
––- ––– –––- ––––––– ––––––– –––- –––- ––––––––– ––––––––––-
00003.MPLS AVC 0:00:23 80 443 392 19 553 985 656 27,71 22,96 LPCM 2.0 1536Kbps (48kHz/16-bit) LPCM 2.0 1536Kbps (48kHz/16-bit)
Code:

DISC INFO:

Disc Title: The Police - Around The World
Disc Size: 19 553 985 656 bytes
Protection: AACS
BD-Java: No
BDInfo: 0.5.8

PLAYLIST REPORT:

Name: 00003.MPLS
Length: 0:00:23.223 (h:m:s.ms)
Size: 80 443 392 bytes
Total Bitrate: 27,71 Mbps

VIDEO:

Codec Bitrate Description
––- –––- –––––-
MPEG-4 AVC Video 22956 kbps 1080i / 29,970 fps / 16:9 / High Profile 4.1

AUDIO:

Codec Language Bitrate Description
––- –––– –––- –––––-
LPCM Audio English 1536 kbps 2.0 / 48 kHz / 1536 kbps / 16-bit
LPCM Audio English 1536 kbps 2.0 / 48 kHz / 1536 kbps / 16-bit

FILES:

Name Time In Length Size Total Bitrate
–– –––- ––– –– ––––––-
00004.M2TS 0:00:00.000 0:00:11.211 36 397 056 25 972
00005.M2TS 0:00:11.211 0:00:12.011 44 046 336 29 335

CHAPTERS:

Number Time In Length Avg Video Rate Max 1-Sec Rate Max 1-Sec Time Max 5-Sec Rate Max 5-Sec Time Max 10Sec Rate Max 10Sec Time Avg Frame Size Max Frame Size Max Frame Time
––– –––- ––– ––––––– ––––––– ––––––– ––––––– ––––––– ––––––– ––––––– ––––––– ––––––– –––––––
1 0:00:00.000 0:00:23.223 22 956 kbps 29 775 kbps 00:00:01.401 25 029 kbps 00:00:11.811 25 005 kbps 00:00:11.611 95 746 bytes 734 962 bytes 00:00:05.605

STREAM DIAGNOSTICS:

File PID Type Codec Language Seconds Bitrate Bytes Packets
–– –- –– ––- –––– ––––––– ––––––– ––––––- ––-
00004.M2TS 4113 (0x1011) 0x1B AVC 11,144 21 414 29 830 286 162 264
00004.M2TS 4352 (0x1100) 0x80 LPCM eng (English) 11,144 1 551 2 161 288 13 452
00004.M2TS 4353 (0x1101) 0x80 LPCM eng (English) 11,144 1 551 2 161 288 13 452
00005.M2TS 4113 (0x1011) 0x1B AVC 11,912 24 721 36 808 607 200 165
00005.M2TS 4352 (0x1100) 0x80 LPCM eng (English) 11,912 1 555 2 315 528 14 412
00005.M2TS 4353 (0x1101) 0x80 LPCM eng (English) 11,912 1 555 2 315 528 14 412

<–– END FORUMS PASTE ––>

QUICK SUMMARY:

Disc Title: The Police - Around The World
Disc Size: 19 553 985 656 bytes
Protection: AACS
BD-Java: No
Playlist: 00003.MPLS
Size: 80 443 392 bytes
Length: 0:00:23.223
Total Bitrate: 27,71 Mbps
Video: MPEG-4 AVC Video / 22956 kbps / 1080i / 29,970 fps / 16:9 / High Profile 4.1
Audio: English / LPCM Audio / 2.0 / 48 kHz / 1536 kbps / 16-bit
Audio: English / LPCM Audio / 2.0 / 48 kHz / 1536 kbps / 16-bit