Tags
Language
Tags

The Rhinestones - The Rhinestones (1975) [Vivid Sound VSCD3540, Japan]

Posted By: v3122
The Rhinestones - The Rhinestones (1975) [Vivid Sound VSCD3540, Japan]

The Rhinestones - The Rhinestones (1975)
EAC | Flac(Image) + Cue + Log & MP3 CBR 320Kbps
2011 | Vivid Sound, VSCD3540 | ~ 248 or 97 Mb | Scans(jpg) -> 32 Mb
Pop-Rock & Soft Rock, Funk

They've dropped the Fabulous from their name but one can't remove it from their music. This is the funkiest album they made. They've stepped out of core group, did a few covers, and brought in some outside players. Among the many new contributers are Brian Auger [Organ], Eric Kaz [Arp String Ensemble] and Bill Curtis on congas. Kal David's vocals are super fine and the background vocals are flawless. This is just great stuff. If you like The Average White Band,Hall & Oats, or the music released on Philly International in the heyday of the 70's you are going to like this record. For the Rhinestones it's another one in the winners circle.
The Rhinestones - The Rhinestones (1975):

The Rhinestones - The Rhinestones (1975) [Vivid Sound VSCD3540, Japan]

Tracklist:

01. One Time Love 3:37
02. Ridin' Thumb 4:00
03. Party Music 3:05
04. Get It Up For Love 3:57
05. Love Jam 2:0
06. Another Sogn For You 2:59
07. Love On My Mind 3:53
08. Crossroads Of My Life 3:01
09. This Devil In Me 5:14
10. All My Love 4:08
11. Party Music (bonus: alternate mix) 3:02

Musicians:

Harvey Brooks – bass
Kal David – lead guitar, lead vocals
Bob Leinbach – keyboards, trombone, background vocals
Arti Funaro – rhythm guitar, background vocals
Eric Parker – drums
Jim Mason - producer
Guests: Brian Auger, Paul Harris – organ
Bill Curtis – percussion
Eric Kaz – ARP string ensemble


Exact Audio Copy V1.1 from 23. June 2015

Отчёт EAC об извлечении, выполненном 22. апреля 2016, 12:32

The Rhinestones / The Rhinestones

Дисковод: ASUS DRW-24B3ST Adapter: 0 ID: 0

Режим чтения : Достоверность
Использование точного потока : Да
Отключение кэша аудио : Да
Использование указателей C2 : Нет

Коррекция смещения при чтении : 6
Способность читать области Lead-in и Lead-out : Нет
Заполнение пропущенных сэмплов тишиной : Да
Удаление блоков с тишиной в начале и конце : Нет
При вычислениях CRC использовались нулевые сэмплы : Да
Интерфейс : Установленный внешний ASPI-интерфейс

Выходной формат : Пользовательский кодировщик
Выбранный битрейт : 1024 kBit/s
Качество : Высокий
Добавление ID3-тега : Нет
Утилита сжатия : C:\Program Files (x86)\Exact Audio Copy\FLAC\FLAC.EXE
Дополнительные параметры : -6 -V -T "ARTIST=%artist%" -T "TITLE=%title%" -T "ALBUM=%albumtitle%" -T "DATE=%year%" -T "TRACKNUMBER=%tracknr%" -T "GENRE=%genre%" -T "COMMENT=%comment%" -T "BAND=%albuminterpret%" -T "ALBUMARTIST=%albuminterpret%" -T "COMPOSER=%composer%" %haslyrics%–tag-from-file=LYRICS="%lyricsfile%"%haslyrics% -T "DISCNUMBER=%cdnumber%" -T "TOTALDISCS=%totalcds%" -T "TOTALTRACKS=%numtracks%" %hascover%–picture="%coverfile%"%hascover% %source% -o %dest%


TOC извлечённого CD

Трек | Старт | Длительность | Начальный сектор | Конечный сектор
––––––––––––––––––––––––––––––––––-
1 | 0:00.00 | 3:42.40 | 0 | 16689
2 | 3:42.40 | 4:42.65 | 16690 | 37904
3 | 8:25.30 | 3:02.44 | 37905 | 51598
4 | 11:27.74 | 3:59.72 | 51599 | 69595
5 | 15:27.71 | 2:07.23 | 69596 | 79143
6 | 17:35.19 | 3:04.06 | 79144 | 92949
7 | 20:39.25 | 3:57.20 | 92950 | 110744
8 | 24:36.45 | 3:07.02 | 110745 | 124771
9 | 27:43.47 | 5:18.35 | 124772 | 148656
10 | 33:02.07 | 4:11.46 | 148657 | 167527
11 | 37:13.53 | 3:02.22 | 167528 | 181199


Характеристики диапазона извлечения и сообщения об ошибках

Выбранный диапазон

Имя файла C:\Torrents - my\The Rhinestones - 1975 - The Rhinestones\The Rhinestones - The Rhinestones.wav

Пиковый уровень 97.7 %
Скорость извлечения 7.8 X
Качество диапазона 99.9 %
CRC теста 3DDAD54D
CRC копии 3DDAD54D
Копирование… OK

Ошибок не произошло

Конец отчёта

==== Контрольная сумма отчёта 1532F8B4BC05EC3C31BA7FE236C780AE92837F343A70796161568A683CF917EC ====


[CUETools log; Date: 08.11.2017 1:16:44; Version: 2.1.5]
[AccurateRip ID: 00107dd2-008e8318-9e09700b] disk not present in database.

Track Peak [ CRC32 ] [W/O NULL] [ LOG ]
– 97,7 [3DDAD54D] [B320692A] CRC32
01 97,7 [4E658B7B] [0B9A6498]
02 97,7 [A5B903C1] [2DCB6CC9]
03 97,7 [4AF96975] [556DC231]
04 97,7 [A7C4F2A8] [103E13DB]
05 97,7 [10E202ED] [C6C71CE0]
06 97,7 [62E8D7CD] [B123BD51]
07 97,7 [53CE1460] [08246E80]
08 97,7 [1CC69D02] [180759D0]
09 97,7 [B65FE25A] [CFB48F4F]
10 97,7 [817C7FD4] [16C5E824]
11 97,7 [6EED371C] [0626D0B9]


The Rhinestones - The Rhinestones (1975) [Vivid Sound VSCD3540, Japan]

All thanks go to Копысов

Download The Rhinestones - The Rhinestones (1975):