Tags
Language
Tags
June 2024
Su Mo Tu We Th Fr Sa
26 27 28 29 30 31 1
2 3 4 5 6 7 8
9 10 11 12 13 14 15
16 17 18 19 20 21 22
23 24 25 26 27 28 29
30 1 2 3 4 5 6

The Rolling Stones - GRRR Live! (2023) (Blu-ray)

Posted By: Rtax
The Rolling Stones - GRRR Live! (2023) (Blu-ray)

The Rolling Stones - GRRR Live! (2023) (Blu-ray)
Blu-Ray BDMV | Video : MPEG-4 AVC Video / 22990 kbps / 1080i / 29,970 fps / 16:9 / High Profile 4.1
Audio #1 : English / LPCM Audio / 2.0 / 48 kHz / 2304 kbps / 24-bit | Audio #2 : English / DTS-HD Master Audio / 5.1 / 48 kHz / 4767 kbps / 24-bit (DTS Core: 5.1 / 48 kHz / 1509 kbps / 24-bit) | Audio #3 : English / Dolby TrueHD Audio / 7.1 / 48 kHz / 6099 kbps / 24-bit (AC3 Embedded: 5.1-EX / 48 kHz / 640 kbps) | 2:37:15 | 44.3 GB | Blues Rock | Label: Mercury Studios

The Rolling Stones celebrated their golden anniversary in 2012 & 2013 by embarking on the 50 & Counting Tour, a 30-show itinerary for North America and Europe. On December 15, 2012, the band took the stage at Newark, New Jersey's Prudential Center for the final of 4 shows in the New York area. Featuring guest spots from The Black Keys, Gary Clark Jr, Lady Gaga, John Mayer, Bruce Springsteen, and Mick Taylor, the concert proved to be one of the most memorable shows in the band's history.

Tracklist
1. Get Off My Cloud
2. The Last Time
3. It s Only Rock n Roll (But I Like It)
4. Paint It Black
5. Gimme Shelter (with Lady Gaga)
6. Wild Horses
7. Going Down (with John Mayer and Gary Clark Jr.)
8. Dead Flowers
9. Who Do You Love? (with The Black Keys)
10. Doom And Gloom
11. One More Shot
12. Miss You
13. Honky Tonk Women
14. Before They Make Me Run
15. Happy
16. Midnight Rambler (with Mick Taylor)
17. Start Me Up
18 Tumbling Dice (with Bruce Springsteen)
19. Brown Sugar
20. Sympathy For The Devil
21. You Can t Always Get What You Want
22. Jumpin Jack Flash
23. (I Can't Get No) Satisfaction

Bonus Features
24 Respectable (with John Mayer)
25 Around And Around
26 Gimme Shelter
Disc Title: The Rolling Stones - GRRR Live
Disc Size: 47,655,471,963 bytes
Protection: AACS
BD-Java: No
BDInfo: 0.5.8

Notes:

BDINFO HOME:
Cinema Squid
http://www.cinemasquid.com/blu-ray/tools/bdinfo

INCLUDES FORUMS REPORT FOR:
AVS Forum Blu-ray Audio and Video Specifications Thread
http://www.avsforum.com/avs-vb/showthread.php?t=1155731

********************
PLAYLIST: 00000.MPLS
********************

<–- BEGIN FORUMS PASTE –->
Code:

Total Video
Title Codec Length Movie Size Disc Size Bitrate Bitrate Main Audio Track Secondary Audio Track
––- ––– –––- ––––––– - ––––––- –––- –––- ––––––––– ––- ––––––––
00000.MPLS AVC 2:22:04 42460 145664 47655 471963 39.85 22.99 LPCM 2.0 2304Kbps (48kHz/24-bit) DTS -HD Master 5.1 4767Kbps (48kHz/24-bit)
Code:

DISC INFO:

Disc Title: The Rolling Stones - GRRR Live
Disc Size: 47,655,471,963 bytes
Protection: AACS
BD-Java: No
BDInfo: 0.5.8

PLAYLIST REPORT:

Name: 00000.MPLS
Length: 2:22:04.649 (h:m:s.ms)
Size: 42,460,145,664 bytes
Total Bitrate: 39.85 Mbps

VIDEO:

Codec Bitrate Description
––- –––- –––––-
MPEG-4 AVC Video 22990 kbps 1080i / 29,970 fps / 16:9 / High Profile 4.1

AUDIO:

Codec Language Bitrate Description
––- –––– –––- –––––-
LPCM Audio English 2304 kbps 2.0 / 48 kHz / 2304 kbps / 24- bit
DTS-HD Master Audio English 4767 kbps 5.1 / 48 kHz / 4767 kbps / 24-bit (DTS Core: 5.1 / 48 kHz / 1509 kbps / 24-bit) Dolby TrueHD Audio English 6099 kbps 7.1 / 48 kHz / 6099 kbps
/ 24-bit (AC3 Embedded: 5.1-EX / 48 kHz / 640 kbps)

FILES:

Name Time In Length Size Total Bitrate
–– –––- ––– –– ––––––-
00014.M2TS 0:00:00.000 0 :00:02.002 2 795 520 11 171
00010.M2TS 0:00:02.002 2:22:01.646 42 456 446 976 39 858
00300.M2TS 2:22:03.648 0:00:01.000 903 18

CHAPTERS:

Number Time In Length Avg Video Rate Max 1-Sec Rate Max 1-Sec Time Max 5-Sec Rate Max 5-Sec Time Max 10Sec Rate Max 10Sec Time Avg Frame Size Max Frame Size Max Frame Time –––
– ––- ––– ––––––– ––––––– –––––- –- ––––––– ––––––– ––––––– ––- ––––- ––––––– ––––––– ––––––- -
1 0:00:00.000 0:02:42.028 23,331 kbps 29,647 kbps 00:01:08.401 26,607 kbps 00:01:04.564 26,226 kbps 00:00:59.459 97,289 bytes 328 0:33:2 bytes
2 0:02:42.028 0:03:37.584 25 100 kbps 27 549 kbps 00:03:50.763 26 152 kbps 00:05:43.042 25 983 kbps 00:02:54.908 104 688 bytes 303 902 bytes
2.9033 0:06:19.612 0:04:13.586 24 106 kbps 28 239 kbps 00:06:30.289 26 139 kbps 00:08:38.618 25 948 kbps 00:08:34.547 100 544 bytes 322 744 bytes
00 :10:33.199 0:04:38.211 22 837 kbps 28 613 kbps 00:14:54.093 26 372 kbps 00:13:40.519 26 008 kbps 00:13:32.978 95 250 bytes 301 863 bytes 00:13:14
5 0:15:11.410 0:05:27.593 23458 kbps 31181 kbps 00:18:00.245 26814 kbps 00:19:52.858 25953 kbps 00:18:02.881 97840 bytes 348367
bytes0.0 0:20:39.004 0:07:10.463 24 253 kbps 30 498 kbps 00:27:08.927 26 473 kbps 00:23:41.987 26 027 kbps 00:24:17.389 101 153 bytes 318 718 bytes 00:
6023 :27:49.467 0:05:49.882 23260 kbps 28855 kbps 00:30:24.255 26423 kbps 00:30:20.251 26017 kbps 00:31:58.049 97012 bytes 321 109 bytes 00:315
8 0:33:39.350 0:06:41.167 24,395 kbps 29,797 kbps 00:37:
45.863 0:40:20.518 0:05:39.739 23144 kbps 29239 kbps 00:41:02.426 26567 kbps 00:42:39.990 26158 kbps 00:42:35.152 96532 bytes 343 150 bytes 00:
5 :46:00.257 0:04:22.495 24 690 kbps 32 735 kbps 00:50:06.136 26 470 kbps 00:46:34.391 26 132 kbps 00:46:29.419 102 978 bytes 328 803 bytes 00:475:
11 0:50:22.753 0:04:36.175 23 818 kbps 33 270 kbps 00:52:16.800 26 659 kbps 00:53:56.132 26 141 kbps 00:52:07.891 99 343 bytes 368 0:285 bytes
5 0:54:58.928 0:03:19.933 23030 kbps 29438 kbps 00:55:23.520 26271 kbps 00:57:20.370 25867 kbps 00:57:23.706 96054 bytes 336 681 bytes 00:
6 :58:18.862 0:07:40.426 21,277 kbps 29,335 kbps 01:01:57.714 26,161 kbps 01:05:12.909 25,965 kbps 01:05:18.848 88,743 bytes 339,222 bytes 01:02:02
14 1:05:59.288 0:09:00.172 23,435 kbps 33,711 kbps 01:12:39.955 26,676 kbps 01:13:38.514 26,064 kbps 01:13:33.842 97,744 bytes 373:01.34
bytes 1:14:59.461 0:04:29.235 21 643 kbps 28 800 kbps 01:18:11.820 25 944 kbps 01:17:42.491 25 125 kbps 01:18:54.296 90 271 bytes 338 256 bytes
01.18 :19:28.697 0:04:11.251 22,985 kbps 28,697 kbps 01:21:12.467 26,320 kbps 01:21:53.675 25,965 kbps 01:21:48.737 95,867 bytes 333 160 bytes 01:195:4
17 1:23:39.948 0:12:13.132 21316 kbps 29088 kbps 01:24:59.661 26434 kbps 01:35:26.654 26095 kbps 01:35:21.649 88904 bytes 357063 bytes 357063 bytes 357063 bytes 357063
bytes3 1:35:53.080 0:04:36.876 23 338 kbps 29 331 kbps 01:37:09.323 26 591 kbps 01:39:32.299 26 127 kbps 01:39:27.294 97 339 bytes 312 352 bytes 01:
413 :40:29.957 0:04:55.862 23,581 kbps 30,984 kbps 01:42:52.699 26,813 kbps 01:42:48.729 26,063 kbps 01:42:59.339 98,354 bytes 331 121 bytes 01:413
20 1:45:25.819 0:05:28.227 22,954 kbps 31,124 kbps 01:50:35.095 26,679 kbps 01:48:42.516 26,000 kbps 01:48:37.511 95,736 bytes 356 2160
bytes 1:50:54.047 0:07:56.943 20 445 kbps 31 453 kbps 01:57:28.808 26 083 kbps 01:53:23.596 25 390 kbps 01:56:56.576 85 273 bytes 408 434 bytes 01:
265 :58:50.990 0:08:50.963 22 114 kbps 28 950 kbps 02:07:30.275 26 528 kbps 02:07:26.205 26 042 kbps 02:04:52.051 92 235 bytes 323 685 bytes 02:06:06
23 2:07:41.954 0:05:47.046 24376 kbps 31084 kbps 02:07:49.328 26846 kbps 02:07:45.324 26235 kbps 02:10:38.397 101669 bytes
3182408 2:13:29.001 0:06:52.678 24 613 kbps 32 716 kbps 02:18:30.869 26 714 kbps 02:18:03.408 26 150 kbps 02:14:54.019 102 655 bytes 329 273 bytes 02.2
. :20:21.679 0:01:41.968 18 922 kbps 27 338 kbps 02:21:34.152 22 713 kbps 02:21:32.917 22 143 kbps 02:21:06.124 78 922 bytes 293 404 bytes 02.213:3:213
26 2:22:03.648 0:00:01.001 111 kbps 0 kbps 00:00:00.000 0 kbps 00:00:00.000 0 kbps 00:00:00.000 478 bytes 2 441 bytes 02:22:04.249

STREAM DIAGNOSTICS:

File PID Type Codec Language Seconds Bitrate Bytes Packets
–– –- –– ––- –––– ––––––– –- –––––- ––––––- ––-
00014.M2TS 4113 (0x1011) 0x1B AVC 1.869 4 264 995 894 5 430
00014.M2TS 4352 ( 0x1100) 0x80 LPCM eng (English) 1.869 2 479 579 044 3 208
00014.M2TS 4353 (0x1101) 0x86 DTS-HD MA eng (English) 1.869 1 674 391 040 2 444
00014.m2ts 4354 (0x1102) 0x83 Truehd English (English) 1.869 1 367 319 304 3 369 00010.m2ts 4113
(0x1011) 0x1b AVC 8521.513 22 997 620 620 666 133 282 872 000 00010.M2TS
4352 (0x1110.M2TS 4352 (0XA) eng (English) 8521.513 2 310 2 460 945 664 13 634 048
00010.M2TS 4353 (0x1101) 0x86 DTS-HD MA eng (English) 8521.513 4 768 5 079 053 300 28 933 617
00010.m2TS 4354 (0x1102) 0x83 TrueHD (English) 8521.513 6 741 7 180 802 316 44 991 298 00300.m2TS 4113 (0x1011) 0x1b AVC 0.901 145
16 308 112 00300.M2TS
4352 (0x1100) English) 0.901 2 565 288 800 1 600
00300.M2TS 4353 (0x1101)
0x86 1 695

<–– END FORUMS PASTE ––>

QUICK SUMMARY:

Disc Title: The Rolling Stones - GRRR Live
Disc Size: 47,655,471,963 bytes
Protection: AACS
BD-Java: No
Playlist: 00000.MPLS
Size: 42,460,145,664 bytes
Length: 2:22:04.649
Total Bitrate: 39.85 Mbps
Video: MPEG-4 AVC Video / 22990 kbps / 1080i / 29.970 fps / 16:9 / High Profile 4.1
Audio: English / LPCM Audio / 2.0 / 48 kHz / 2304 kbps / 24-bit
Audio: English / DTS-HD Master Audio / 5.1 / 48 kHz / 4767 kbps / 24-bit (DTS Core: 5.1 / 48 kHz / 1509 kbps / 24-bit) Audio: English
/ Dolby TrueHD Audio / 7.1 / 48 kHz / 6099 kbps / 24-bit (AC3 Embedded: 5.1-EX / 48 kHz / 640 kbps)

********************
PLAYLIST: 00001.MPLS
********************

<–- BEGIN FORUMS PASTE –->
Code:

Total Video
Title Codec Length Movie Size Disc Size Bitrate Bitrate Main Audio Track Secondary Audio Track
––- ––– –––- ––––––– - ––––––- –––- –––- ––––––––– ––- ––––––––
00001.MPLS AVC 0:15:04 4426604544 47655471963 39.1629.94 LPCM 2.0 2304Kbps (48kHz/24-bit) DTS -HD Master 5.1 4908Kbps (48kHz/24-bit)
Code:

DISC INFO:

Disc Title: The Rolling Stones - GRRR Live
Disc Size: 47,655,471,963 bytes
Protection: AACS
BD-Java: No
BDInfo: 0.5.8

PLAYLIST REPORT:

Name: 00001.MPLS
Length: 0:15:04.236 (h:m:s.ms)
Size: 4426604544 bytes
Total Bitrate: 39.16 Mbps

VIDEO:

Codec Bitrate Description
––- –––- –––––-
MPEG-4 AVC Video 29937 kbps 1080i / 29.970 fps / 16:9 / High Profile 4.1

AUDIO:

Codec Language Bitrate Description
––- –––– –––- –––––-
LPCM Audio English 2304 kbps 2.0 / 48 kHz / 2304 kbps / 24- bit
DTS-HD Master Audio English 4908 kbps 5.1 / 48 kHz / 4908 kbps / 24-bit (DTS Core: 5.1 / 48 kHz / 1509 kbps / 24-bit)

FILES:

Name Time In Length Size Total Bitrate
–– –––- ––– –– ––––––-
00015.M2TS 0:00:00.000 0 :00:01.001 1 081 344 8 642
00002.M2TS 0:00:01.001 0:15:02.234 4 424 583 168 39 232
00001.M2TS 0:15:03.235 0:00:01.000 940 032 7

CHAPTERS:

Number Time In Length Avg Video Rate Max 1-Sec Rate Max 1-Sec Time Max 5-Sec Rate Max 5-Sec Time Max 10Sec Rate Max 10Sec Time Avg Frame Size Max Frame Size Max Frame Time –––
– ––- ––– ––––––– ––––––– –––––- –- ––––––– ––––––– ––––––– ––- ––––- ––––––– ––––––– ––––––- -
1 0:00:00.000 0:05:15.648 30 036 kbps 43 701 kbps 00:03:34.981 38 239 kbps 00:01:22.882 36 330 kbps 00:01:21.481 125 261 bytes 470 030 bytes 470 030 bytes 470 0305 bytes
2 0:05:15.648 0:03:09.022 31 848 kbps 42 265 kbps 00:05:32.765 38 178 kbps 00:06:33.493 37 716 kbps 00:06:31.924 132 832 bytes 532 260 bytes 0:68
4 0:08:24.670 0:06:38.564 29,028 kbps 43,288 kbps 00:09:48.054 37,949 kbps 00:10:21.554 37,257 kbps 00:13:51.697 121,071 bytes 460 426 bytes
00.618 :15:03.235 0:00:01.000 111 kbps 0 kbps 00:00:00.000 0 kbps 00:00:00.000 0 kbps 00:00:00.000 478 bytes 2 441 bytes 00:15:03.836

STREAM DIAGNOSTICS:

File PID Type Codec Language Seconds Bitrate Bytes Packets
–– –- –– ––- –––– ––––––– –- –––––- ––––––- ––-
00015.M2TS 4113 (0x1011) 0x1B AVC 0.868 4592497949 2714
00015.M2TS 4352 ( 0x1100) 0x80 LPCM eng (English) 0.868 2 676 290 244 1 608
00015.M2TS 4353 (0x1101) 0x86 DTS-HD MA eng (English) 0.868 1 803 195 520 1 222
00002.m2ts 4113 (0x1011) 0x1b AVC 902.101 30 004 3 383 282 369 18 403 134 00002.m2ts 4352
(0x1100) 0x80 LPCM ENG (English)
902.1012 -HD MA eng (English) 902.101 4 915 554 282 728 3 167 754
00001.M2TS 4113 (0x1011) 0x1B AVC 0.901 145 16 308 112
00001.M2TS 4352 (0x1100) 0x80 LPCM eng (English) 0.901
5 122 576 800 3 200

<–– END FORUMS PASTE ––>

QUICK SUMMARY:

Disc Title: The Rolling Stones - GRRR Live
Disc Size: 47,655,471,963 bytes
Protection: AACS
BD-Java: No
Playlist: 00001.MPLS
Size: 4,426,604,544 bytes
Length: 0:15:04.236
Total Bitrate: 39.16 Mbps
Video: MPEG-4 AVC Video / 29937 kbps / 1080i / 29.970 fps / 16:9 / High Profile 4.1
Audio: English / LPCM Audio / 2.0 / 48 kHz / 2304 kbps / 24-bit
Audio: English / DTS-HD Master Audio / 5.1 / 48 kHz / 4908 kbps / 24-bit (DTS Core: 5.1 / 48 kHz / 1509 kbps / 24-bit)

The Rolling Stones - GRRR Live! (2023) (Blu-ray)