Tags
Language
Tags
February 2023
Su Mo Tu We Th Fr Sa
29 30 31 1 2 3 4
5 6 7 8 9 10 11
12 13 14 15 16 17 18
19 20 21 22 23 24 25
26 27 28 1 2 3 4

The Rolling Stones - Got Live If You Want It! (1966) [2 Releases]

Posted By: v3122
The Rolling Stones - Got Live If You Want It! (1966) [2 Releases]

The Rolling Stones - Got Live If You Want It! (1966)
EAC | Flac(Image) + Cue + Log & MP3 CBR 320Kbps
2CD | London, ABKCO | ~ 432 or 187 Mb | Artwork(jpg) -> 32 Mb
Blues Rock, Classic Rock, Rock & Roll

~ 1986 Germany Original, London 820 137-2 & 2002 EU Remaster, ABKCO 8822962 ~

A live document of the Brian Jones-era Rolling Stones sounds enticing, but the actual product is a letdown, owing to a mixture of factors, some beyond the producers' control and other very much their doing. The sound on the original LP was lousy, and for that matter not all of it's live; a couple of old studio R&B covers were augmented by screaming fans that had obviously been overdubbed. Still, the album has its virtues as a historical document, with some extremely important caveats for anyone not old enough to recognize the inherent limitations in a live album of this vintage. The first concerns the history of this release – the Got Live if You Want It! album (not to be confused with the superior sounding but much shorter, U.K.-only extended-play single, issued in England in mid-1965) was a U.S.-only release in late 1966, intended to feed a seemingly insatiable American market. As a best-of album had been issued in March 1966 and Aftermath in June of the same year, and the Stones had just come off of a major U.S. tour (which proved to be their last for over three years), another album was needed to bridge the gap in America between the those earlier LPs, the two most recent singles – "Paint It, Black" and "Have You Seen Your Mother, Baby, Standing in the Shadow?" – and the Between the Buttons album, which was not going to make it out in time for the Christmas season.

The result was Got Live If You Want It!, which was intended to be recorded at a concert at Royal Albert Hall on September 23, 1966, the Stones' first live appearance in England in over a year. The problem was, as was memorably stated by a writer in Rolling Stone magazine a few years later, the Stones in those days didn't play concerts – they played riots, and that was precisely what happened at Royal Albert Hall, as several hundred fans charged the stage, overwhelming the band before they'd gotten through the opening number "Paint It, Black." The scene was captured in the footage later used in the promotional film for "Have You Seen Your Mother, Baby, Standing in the Shadow?" What was left of the show, once order was restored, was taped, along with at least two other shows on that tour over the next week or so; and it should also be remembered that in those days the group seldom played for more than 30 to 40 minutes, and sometimes less than that, much like the Beatles in concert. And the audience noise, much as it was with the Beatles, was overwhelming in the days before stacks of Marshall amps became routine in a band's equipment; indeed, at some shows, at certain moments, only the tempo of Charlie Watts' drumming could tell you which song the group was playing, and the bandmembers couldn't hear much more than the crowd – matters such as tuning instruments and precise playing, even down to the most routine changes, became exercises in futility. Add to that the limitations of live recording, and the inevitable sound leakages and other problems, and one can see how this album was easier to conceive than to actually bring off successfully. When all of the tapes were assembled, the producers were left with about 28 minutes of material that was usable to varying degrees, and even that was somewhat wishful thinking by the standards of the day. (Apart from the Kinks' Live at Kelvin Hall [aka The Live Kinks], few groups or record labels in 1967 had the courage to release a concert album that sounded like the real article.) And here, someone – the Stones' producer, London Records, whoever – started fiddling around, twirling knobs, changing balances, and making the stuff supposedly sound "better," and bringing in a couple of studio tracks, "I've Been Loving You Too Long" and "Fortune Teller," and laying on some crowd noise to bring the show up to an acceptable length for an LP.

by Richie Unterberger, allmusic
The Rolling Stones - Got Live If You Want It! (1966):

The Rolling Stones - Got Live If You Want It! (1966) [2 Releases]

Tracklist CD1 - Got Live If You Want It! (1986 Germany Original, London 820 137-2):

1. Under My Thumb (2:47)
2. Get Off My Cloud (2:56)
3. Lady Jane (3:13)
4. Not Fade Away (2:08)
5. I've Been Loving You Too Long (2:59)
6. Fortune Teller (2:12)
7. The Last Time (3:16)
8. 19th Nervous Breakdown (3:30)
9. Time Is On My Side (2:56)
10. I'm Alright (2:25)
11. Have You Seen Your Mother, Baby, Standing In The Shadow? (2:22)
12. Satisfaction (3:55)

Exact Audio Copy V1.0 beta 3 from 29. August 2011

EAC extraction logfile from 26. June 2013, 20:51

The Rolling Stones / Got Live If You Want It! (4th West German Pressing)

Used drive : _NEC DVD+-RW ND-6500A Adapter: 1 ID: 0

Read mode : Secure
Utilize accurate stream : Yes
Defeat audio cache : Yes
Make use of C2 pointers : No

Read offset correction : 48
Overread into Lead-In and Lead-Out : No
Fill up missing offset samples with silence : Yes
Delete leading and trailing silent blocks : No
Null samples used in CRC calculations : Yes
Used interface : Native Win32 interface for Win NT & 2000

Used output format : User Defined Encoder
Selected bitrate : 768 kBit/s
Quality : High
Add ID3 tag : No
Command line compressor : C:\Program Files\Exact Audio Copy\FLAC\FLAC.EXE
Additional command line options : -V -8 -T "Date=%year%" -T "Genre=%genre%" %source%


TOC of the extracted CD

Track | Start | Length | Start sector | End sector
––––––––––––––––––––––––––––-
1 | 0:00.32 | 2:52.65 | 32 | 12996
2 | 2:53.22 | 3:00.10 | 12997 | 26506
3 | 5:53.32 | 3:18.20 | 26507 | 41376
4 | 9:11.52 | 2:12.50 | 41377 | 51326
5 | 11:24.27 | 3:03.48 | 51327 | 65099
6 | 14:28.00 | 2:16.07 | 65100 | 75306
7 | 16:44.07 | 3:20.38 | 75307 | 90344
8 | 20:04.45 | 3:34.37 | 90345 | 106431
9 | 23:39.07 | 3:00.15 | 106432 | 119946
10 | 26:39.22 | 2:28.13 | 119947 | 131059
11 | 29:07.35 | 2:25.37 | 131060 | 141971
12 | 31:32.72 | 3:54.05 | 141972 | 159526


Range status and errors

Selected range

Filename E:\RUTRA\1966 - GLIYWI\The Rolling Stones - Got Live If You Want It! (4th West German Pressing).wav

Peak level 95.4 %
Extraction speed 1.7 X
Range quality 100.0 %
Test CRC 0BFC7C08
Copy CRC 0BFC7C08
Copy OK

No errors occurred


AccurateRip summary

Track 1 accurately ripped (confidence 9) [13FE283C] (AR v1)
Track 2 accurately ripped (confidence 9) [AA3E9FB9] (AR v1)
Track 3 accurately ripped (confidence 9) [97871B59] (AR v1)
Track 4 accurately ripped (confidence 9) [A3CD57B4] (AR v1)
Track 5 accurately ripped (confidence 9) [25029A39] (AR v1)
Track 6 accurately ripped (confidence 8) [EED4E0B2] (AR v1)
Track 7 accurately ripped (confidence 9) [4B1E0507] (AR v1)
Track 8 accurately ripped (confidence 8) [2FAF84A5] (AR v1)
Track 9 accurately ripped (confidence 9) [34765D92] (AR v1)
Track 10 accurately ripped (confidence 9) [666EA4E0] (AR v1)
Track 11 accurately ripped (confidence 9) [AB3C7135] (AR v1)
Track 12 accurately ripped (confidence 8) [9E97CB95] (AR v1)

All tracks accurately ripped

End of status report

==== Log checksum 564009CC7DC37F89420D300591094402398DC956362D50E5D710D25F1D836643 ====


[CUETools log; Date: 10.03.2019 11:25:13; Version: 2.1.4]
Pregap length 00:00:32.
[AccurateRip ID: 000f97ea-0091a41c-97084f0c] found.
Track [ CRC | V2 ] Status
01 [13fe283c|75a955cf] (10+23/48) Accurately ripped
02 [aa3e9fb9|ed5e76fc] (10+23/48) Accurately ripped
03 [97871b59|c677751f] (09+23/47) Accurately ripped
04 [a3cd57b4|b77577d5] (10+23/49) Accurately ripped
05 [25029a39|c2bb12b6] (10+23/48) Accurately ripped
06 [eed4e0b2|d47df02f] (09+23/48) Accurately ripped
07 [4b1e0507|a42e26fd] (10+23/49) Accurately ripped
08 [2faf84a5|e7ac511a] (09+23/47) Accurately ripped
09 [34765d92|965d4166] (10+23/48) Accurately ripped
10 [666ea4e0|19cb699a] (10+23/48) Accurately ripped
11 [ab3c7135|1dfceb66] (10+23/48) Accurately ripped
12 [9e97cb95|1040e3f2] (09+22/46) Accurately ripped
Offsetted by -1390:
01 [b1925eb8] (03/48) Accurately ripped
02 [b53b42bf] (03/48) Accurately ripped
03 [22b2b60b] (03/47) Accurately ripped
04 [4a832c28] (03/49) Accurately ripped
05 [26129afb] (03/48) Accurately ripped
06 [ee5c2756] (03/48) Accurately ripped
07 [2f788c4d] (03/49) Accurately ripped
08 [fac4234f] (03/47) Accurately ripped
09 [661cffbc] (03/48) Accurately ripped
10 [2687ca06] (03/48) Accurately ripped
11 [e1760403] (03/48) Accurately ripped
12 [5173a4a3] (03/46) Accurately ripped
Offsetted by 178:
01 [b982b368] (00/48) No match
02 [fd30521f] (02/48) Accurately ripped
03 [82640e2b] (00/47) No match (V2 was not tested)
04 [d298f568] (00/49) No match
05 [89ccfc1b] (00/48) No match
06 [7d710b96] (00/48) No match
07 [67b47fad] (00/49) No match
08 [ff35e6ef] (00/47) No match
09 [79fbbb5c] (00/48) No match
10 [66e14b66] (00/48) No match
11 [e57d43e3] (00/48) No match
12 [886ce883] (00/46) No match
Offsetted by 244:
01 [1e3d9d01] (00/48) No match (V2 was not tested)
02 [38b515b5] (00/48) No match
03 [666b318d] (00/47) No match
04 [656304bc] (00/49) No match
05 [309c570d] (00/48) No match
06 [141e019a] (00/48) No match
07 [edfd8d83] (00/49) No match
08 [f2fd4d89] (00/47) No match
09 [99837976] (00/48) No match
10 [e2bb441c] (00/48) No match
11 [31bd9201] (00/48) No match
12 [12e712e1] (00/46) No match
Offsetted by 472:
01 [9cef293f] (00/48) No match
02 [7aae4501] (00/48) No match
03 [34554eb1] (00/47) No match
04 [ec1d0b24] (02/49) Accurately ripped
05 [fc7fee51] (02/48) Accurately ripped
06 [a844f662] (02/48) Accurately ripped
07 [323fbd4f] (02/49) Accurately ripped
08 [e00b3b9d] (02/47) Accurately ripped
09 [1db57e8a] (02/48) Accurately ripped
10 [02f213a8] (02/48) Accurately ripped
11 [963e9fdd] (02/48) Accurately ripped
12 [c2bba53d] (02/46) Accurately ripped

Track Peak [ CRC32 ] [W/O NULL] [ LOG ]
– 95,4 [0BFC7C08] [3FA026FA] CRC32
01 83,2 [CFECC504] [A13DFCC9]
02 87,4 [58EAEAE3] [2887DC14]
03 84,2 [3A50B62F] [EDEAD69D]
04 73,7 [0E786A7C] [14B4380A]
05 87,9 [54D8A395] [B4847933]
06 95,4 [C5B6D03B] [932E1966]
07 84,7 [900D7B68] [DE65C0F3]
08 85,7 [3D13A804] [5D3A3565]
09 95,2 [F452E184] [EBBBC230]
10 81,1 [72AAFE9D] [56D4E8C4]
11 87,0 [BF352A27] [4AF0B054]
12 93,2 [7D069978] [FA650482]


The Rolling Stones - Got Live If You Want It! (1966) [2 Releases]

Tracklist CD2 - Got Live If You Want It! (2002 EU Remaster, ABKCO 8822962):

1. Under My Thumb (2:53)
2. Get Off Of My Cloud (2:54)
3. Lady Jane (3:08)
4. Not Fade Away (2:03)
5. I've Been Loving You Too Long (2:54)
6. Fortune Teller (1:56)
7. The Last Time (3:07)
8. 19th Nervous Breakdown (3:30)
9. Time Is On My Side (2:48)
10. I'm Alright (2:26)
11. Have You Seen Your Mother Baby, Standing In The Shadow? (2:19)
12. (I Can't Get No) Satisfaction (3:04)

Exact Audio Copy V1.0 beta 3 from 29. August 2011

EAC extraction logfile from 19. November 2013, 11:06

The Rolling Stones / Got Live If You Want It! (SACD-hybrid)

Used drive : HL-DT-STDVD+-RW GH50N Adapter: 0 ID: 1

Read mode : Secure
Utilize accurate stream : Yes
Defeat audio cache : Yes
Make use of C2 pointers : No

Read offset correction : 667
Overread into Lead-In and Lead-Out : No
Fill up missing offset samples with silence : Yes
Delete leading and trailing silent blocks : No
Null samples used in CRC calculations : Yes
Used interface : Native Win32 interface for Win NT & 2000

Used output format : User Defined Encoder
Selected bitrate : 768 kBit/s
Quality : High
Add ID3 tag : No
Command line compressor : C:\Program Files (x86)\Exact Audio Copy\FLAC\FLAC.EXE
Additional command line options : -V -8 -T "Date=%year%" -T "Genre=%genre%" %source%


TOC of the extracted CD

Track | Start | Length | Start sector | End sector
––––––––––––––––––––––––––––-
1 | 0:00.00 | 2:53.70 | 0 | 13044
2 | 2:53.70 | 2:54.05 | 13045 | 26099
3 | 5:48.00 | 3:08.12 | 26100 | 40211
4 | 8:56.12 | 2:03.50 | 40212 | 49486
5 | 10:59.62 | 2:54.45 | 49487 | 62581
6 | 13:54.32 | 1:56.70 | 62582 | 71351
7 | 15:51.27 | 3:07.60 | 71352 | 85436
8 | 18:59.12 | 3:30.63 | 85437 | 101249
9 | 22:30.00 | 2:48.55 | 101250 | 113904
10 | 25:18.55 | 2:26.37 | 113905 | 124891
11 | 27:45.17 | 2:19.18 | 124892 | 135334
12 | 30:04.35 | 3:04.42 | 135335 | 149176


Range status and errors

Selected range

Filename C:\222\SACD\1966 - Got Live If You Want It\The Rolling Stones - Got Live If You Want It! (SACD-hybrid).wav

Peak level 99.8 %
Extraction speed 1.8 X
Range quality 99.9 %
Test CRC E143DD90
Copy CRC E143DD90
Copy OK

No errors occurred


AccurateRip summary

Track 1 accurately ripped (confidence 6) [C8D80DA2] (AR v2)
Track 2 accurately ripped (confidence 6) [8739200B] (AR v2)
Track 3 accurately ripped (confidence 6) [B78A8D89] (AR v2)
Track 4 accurately ripped (confidence 6) [8354A4E6] (AR v2)
Track 5 accurately ripped (confidence 6) [9AE51E5C] (AR v2)
Track 6 accurately ripped (confidence 6) [551745EB] (AR v2)
Track 7 accurately ripped (confidence 6) [427B7CB5] (AR v2)
Track 8 accurately ripped (confidence 6) [FBCC751B] (AR v2)
Track 9 accurately ripped (confidence 6) [38188941] (AR v2)
Track 10 accurately ripped (confidence 6) [BC14D3A1] (AR v2)
Track 11 accurately ripped (confidence 6) [BCCA761B] (AR v2)
Track 12 accurately ripped (confidence 6) [DF41124E] (AR v2)

All tracks accurately ripped

End of status report

==== Log checksum 6D8628E593E43747E7D30E276781124744D632D5F7233004DEBDCFF9C14569B6 ====


[CUETools log; Date: 10.03.2019 11:23:51; Version: 2.1.4]
[AccurateRip ID: 000ed7e6-008a38ff-9307c50c] found.
Track [ CRC | V2 ] Status
01 [1faa9f9e|c8d80da2] (018+016/121) Accurately ripped
02 [4d9764f3|8739200b] (018+016/121) Accurately ripped
03 [081249b9|b78a8d89] (018+016/121) Accurately ripped
04 [ad3f2ad8|8354a4e6] (018+016/121) Accurately ripped
05 [9da4ae3b|9ae51e5c] (018+016/121) Accurately ripped
06 [c0d08f1a|551745eb] (018+016/121) Accurately ripped
07 [7c7c04b6|427b7cb5] (018+016/121) Accurately ripped
08 [65b592db|fbcc751b] (018+016/121) Accurately ripped
09 [059dcde1|38188941] (018+016/120) Accurately ripped
10 [2a6d6412|bc14d3a1] (018+016/120) Accurately ripped
11 [e4f91398|bcca761b] (018+016/121) Accurately ripped
12 [30798e05|df41124e] (017+016/119) Accurately ripped
Offsetted by -664:
01 [d658ef7e] (009/121) Accurately ripped
02 [9ff6f78d] (009/121) Accurately ripped
03 [e6c17bbf] (009/121) Accurately ripped
04 [6eff47ba] (009/121) Accurately ripped
05 [cfccb7de] (009/121) Accurately ripped
06 [f29e4101] (010/121) Accurately ripped
07 [7eda7374] (009/121) Accurately ripped
08 [26436612] (009/121) Accurately ripped
09 [91573474] (009/120) Accurately ripped
10 [0b331fbd] (008/120) Accurately ripped
11 [6a12b074] (009/121) Accurately ripped
12 [ba6e39a0] (008/119) Accurately ripped
Offsetted by 1349:
01 [55e14418] (003/121) Accurately ripped
02 [8e575983] (003/121) Accurately ripped
03 [162eca28] (003/121) Accurately ripped
04 [d26792bd] (003/121) Accurately ripped
05 [d0e24f01] (003/121) Accurately ripped
06 [878037d2] (003/121) Accurately ripped
07 [3dd1b420] (003/121) Accurately ripped
08 [fabb217c] (003/121) Accurately ripped
09 [7ab46c8d] (003/120) Accurately ripped
10 [d10bb471] (003/120) Accurately ripped
11 [d85a51c0] (003/121) Accurately ripped
12 [2966597c] (003/119) Accurately ripped
Offsetted by -694:
01 [f7824850] (000/121) No match (V2 was not tested)
02 [45ddcc8a] (000/121) No match (V2 was not tested)
03 [c7833745] (000/121) No match (V2 was not tested)
04 [02620b96] (000/121) No match (V2 was not tested)
05 [d93f0e10] (000/121) No match (V2 was not tested)
06 [12b28c70] (000/121) No match (V2 was not tested)
07 [c9e07f27] (000/121) No match (V2 was not tested)
08 [294984a2] (000/121) No match (V2 was not tested)
09 [a685847f] (000/120) No match (V2 was not tested)
10 [043352dd] (000/120) No match (V2 was not tested)
11 [df116de4] (000/121) No match (V2 was not tested)
12 [1d86967d] (000/119) No match (V2 was not tested)
Offsetted by -12:
01 [6f9f42ec] (000/121) No match (V2 was not tested)
02 [909681d8] (000/121) No match (V2 was not tested)
03 [705f8f37] (000/121) No match (V2 was not tested)
04 [1d6e7f10] (000/121) No match (V2 was not tested)
05 [9c07f9a5] (000/121) No match (V2 was not tested)
06 [3a029036] (000/121) No match (V2 was not tested)
07 [0226f26d] (000/121) No match (V2 was not tested)
08 [517d0b77] (000/121) No match (V2 was not tested)
09 [a53bb6a9] (000/120) No match (V2 was not tested)
10 [6381c1a1] (000/120) No match (V2 was not tested)
11 [30cf19cb] (000/121) No match (V2 was not tested)
12 [c4a08f71] (000/119) No match (V2 was not tested)

Track Peak [ CRC32 ] [W/O NULL] [ LOG ]
– 99,8 [E143DD90] [80ED0ADE] CRC32
01 86,5 [1A601ECE] [E749995D]
02 85,3 [EBE8E40A] [3C7CD053]
03 88,9 [F4892BBF] [97FA3B3F]
04 86,6 [5D606472] [6B6596A0]
05 99,8 [81811878] [FE15CDDC]
06 88,1 [901D9B13] [86DDE665]
07 99,8 [393BA1C0] [4425D579]
08 98,6 [7B6B53F2] [0C5859C6]
09 92,8 [EF08A8B0] [B886834B]
10 97,8 [AC38F474] [6FD77EF0]
11 92,5 [D369AF92] [5F98168E]
12 90,6 [CB5025C1] [173E1B79]


All thanks go to dafnaplus

The Rolling Stones in my Blog

Download The Rolling Stones - Got Live If You Want It! (1966):