Tags
Language
Tags

The Rolling Stones - Some Girls (1978) [4 Releases]

Posted By: v3122
The Rolling Stones - Some Girls (1978) [4 Releases]

The Rolling Stones - Some Girls (1978)
EAC | Flac(Image) + Cue + Log & MP3 CBR 320Kbps
6CD | Label: Various | ~ 1710 or 743 Mb | Artwork(jpg) -> 391 Mb
Blues Rock, Classic Rock, Rock & Roll

~ 1994 Holland Remaster, Virgin CDV 2734 + 2011 EU Remster, A&M 278 405-5 + 2011 Japan Remaster, Promotone UICX-1456/7 + 2013 Japan Remaster, Promotone UICY-40012 ~

During the mid-'70s, the Rolling Stones remained massively popular, but their records suffered from Jagger's fascination with celebrity and Keith's worsening drug habit. By 1978, both punk and disco had swept the group off the front pages, and Some Girls was their fiery response to the younger generation. Opening with the disco-blues thump of "Miss You," Some Girls is a tough, focused, and exciting record, full of more hooks and energy than any Stones record since Exile on Main St. Even though the Stones make disco their own, they never quite take punk on their own ground. Instead, their rockers sound harder and nastier than they have in years. Using "Star Star" as a template, the Stones run through the seedy homosexual imagery of "When the Whip Comes Down," the bizarre, borderline-misogynistic vitriol of the title track, Keith's ultimate outlaw anthem, "Before They Make Me Run," and the decadent closer, "Shattered." In between, they deconstruct the Temptations' "(Just My) Imagination," unleash the devastatingly snide country parody "Far Away Eyes," and contribute "Beast of Burden," one of their very best ballads. Some Girls may not have the back-street aggression of their '60s records, or the majestic, drugged-out murk of their early-'70s work, but its brand of glitzy, decadent hard rock still makes it a definitive Stones album.

by Stephen Thomas Erlewine, allmusic
The Rolling Stones - Some Girls (1978):

The Rolling Stones - Some Girls (1978) [4 Releases]

Tracklist CD1 - Some Girls (1994 Holland Remaster, Virgin CDV 2734):

1. Miss You (4:48)
2. When The Whip Comes Down (4:21)
3. Just My Imagination (Running Away With Me) (4:38)
4. Some Girls (4:36)
5. Lies (3:11)
6. Far Away Eyes (4:23)
7. Respectable (3:07)
8. Before They Make Me Run (3:25)
9. Beast Of Burden (4:25)
10. Shattered (3:47)

Exact Audio Copy V1.0 beta 3 from 29. August 2011

EAC extraction logfile from 30. June 2013, 11:56

The Rolling Stones / Some Girls [CDV 2734]

Used drive : SONY DVD+-RW DW-D56A Adapter: 1 ID: 0

Read mode : Secure
Utilize accurate stream : Yes
Defeat audio cache : Yes
Make use of C2 pointers : No

Read offset correction : 12
Overread into Lead-In and Lead-Out : No
Fill up missing offset samples with silence : Yes
Delete leading and trailing silent blocks : No
Null samples used in CRC calculations : Yes
Used interface : Native Win32 interface for Win NT & 2000

Used output format : User Defined Encoder
Selected bitrate : 768 kBit/s
Quality : High
Add ID3 tag : No
Command line compressor : C:\Program Files\Exact Audio Copy\FLAC\FLAC.EXE
Additional command line options : -V -8 -T "Date=%year%" -T "Genre=%genre%" %source%


TOC of the extracted CD

Track | Start | Length | Start sector | End sector
––––––––––––––––––––––––––––-
1 | 0:00.00 | 4:48.37 | 0 | 21636
2 | 4:48.37 | 4:21.15 | 21637 | 41226
3 | 9:09.52 | 4:38.03 | 41227 | 62079
4 | 13:47.55 | 4:36.57 | 62080 | 82836
5 | 18:24.37 | 3:11.50 | 82837 | 97211
6 | 21:36.12 | 4:23.55 | 97212 | 116991
7 | 25:59.67 | 3:07.58 | 116992 | 131074
8 | 29:07.50 | 3:25.15 | 131075 | 146464
9 | 32:32.65 | 4:25.05 | 146465 | 166344
10 | 36:57.70 | 3:47.20 | 166345 | 183389


Range status and errors

Selected range

Filename E:\RUTRA\Virgin\1978 - Some Girls [CDV 2734]\The Rolling Stones - Some Girls [CDV 2734].wav

Peak level 97.7 %
Extraction speed 4.0 X
Range quality 99.9 %
Test CRC 775179AD
Copy CRC 775179AD
Copy OK

No errors occurred


AccurateRip summary

Track 1 accurately ripped (confidence 9) [13B249B5] (AR v2)
Track 2 accurately ripped (confidence 9) [AFD57B01] (AR v2)
Track 3 accurately ripped (confidence 9) [FDC5BAC4] (AR v2)
Track 4 accurately ripped (confidence 9) [14D0762E] (AR v2)
Track 5 accurately ripped (confidence 9) [58843B9B] (AR v2)
Track 6 accurately ripped (confidence 9) [DAEEF771] (AR v2)
Track 7 accurately ripped (confidence 9) [3D494B8F] (AR v2)
Track 8 accurately ripped (confidence 9) [B9CD97AC] (AR v2)
Track 9 accurately ripped (confidence 9) [BE360BC6] (AR v2)
Track 10 accurately ripped (confidence 9) [042E94E0] (AR v2)

All tracks accurately ripped

End of status report

==== Log checksum C12E9C402F5350128EADBE60DCF41DAC8489FFFBCCCD0637B80DE2CD0AD5723A ====


[CUETools log; Date: 09.06.2017 23:36:14; Version: 2.1.5]
[CTDB TOCID: q0eqxwBWHWZn7V2Quf910Z5Go94-] found.
Track | CTDB Status
1 | (198/208) Accurately ripped
2 | (202/208) Accurately ripped
3 | (201/208) Accurately ripped
4 | (202/208) Accurately ripped
5 | (204/208) Accurately ripped
6 | (203/208) Accurately ripped
7 | (204/208) Accurately ripped
8 | (202/208) Accurately ripped
9 | (201/208) Accurately ripped
10 | (200/208) Accurately ripped
[AccurateRip ID: 001002ac-007e54a2-8a098d0a] found.
Track [ CRC | V2 ] Status
01 [5d3fa61e|13b249b5] (086+088/235) Accurately ripped
02 [be20d599|afd57b01] (087+088/233) Accurately ripped
03 [6b7fae8d|fdc5bac4] (088+089/237) Accurately ripped
04 [eb41a969|14d0762e] (086+087/234) Accurately ripped
05 [b7579327|58843b9b] (087+090/238) Accurately ripped
06 [60654498|daeef771] (087+089/237) Accurately ripped
07 [15e1a7d1|3d494b8f] (085+089/235) Accurately ripped
08 [f16edf5e|b9cd97ac] (085+087/232) Accurately ripped
09 [bcc346c2|be360bc6] (087+091/238) Accurately ripped
10 [830aef1a|042e94e0] (087+088/235) Accurately ripped
Offsetted by -473:
01 [5d1099d5] (002/235) Accurately ripped
02 [d6dcdad0] (002/233) Accurately ripped
03 [13b65438] (002/237) Accurately ripped
04 [f4c0e5ef] (002/234) Accurately ripped
05 [238fa933] (002/238) Accurately ripped
06 [e9b20a61] (002/237) Accurately ripped
07 [7afe5fe3] (002/235) Accurately ripped
08 [0c1a4a29] (002/232) Accurately ripped
09 [60bb14ff] (002/238) Accurately ripped
10 [41aa437e] (002/235) Accurately ripped
Offsetted by 254:
01 [9772f159] (009/235) Accurately ripped
02 [9dbd44ad] (009/233) Accurately ripped
03 [c92d59f2] (010/237) Accurately ripped
04 [5f7ce1e3] (011/234) Accurately ripped
05 [b3cd6a41] (011/238) Accurately ripped
06 [49158de4] (010/237) Accurately ripped
07 [af471d13] (011/235) Accurately ripped
08 [7474a59c] (011/232) Accurately ripped
09 [c321eed2] (011/238) Accurately ripped
10 [abdf5864] (010/235) Accurately ripped
Offsetted by 749:
01 [df1988d7] (011/235) Accurately ripped
02 [a729e561] (010/233) Accurately ripped
03 [9bdf4079] (010/237) Accurately ripped
04 [3aaa10f4] (010/234) Accurately ripped
05 [cc1fd5ff] (010/238) Accurately ripped
06 [9c9d7d21] (010/237) Accurately ripped
07 [2ad50cfb] (010/235) Accurately ripped
08 [356da46f] (009/232) Accurately ripped
09 [f110c0e7] (010/238) Accurately ripped
10 [29791508] (010/235) Accurately ripped

Track Peak [ CRC32 ] [W/O NULL] [ LOG ]
– 97,7 [775179AD] [1BE73656] CRC32
01 97,7 [C3FBB761] [D429DF23]
02 97,7 [84D727FA] [C8EAE9CC]
03 97,7 [67ACE800] [5436489E]
04 97,7 [BB221BC9] [1E0E6DBF]
05 97,7 [B2ADBEB9] [3C3EC27E]
06 97,7 [0E68CA08] [4C953593]
07 97,7 [658D552E] [86F204D5]
08 97,7 [D679C759] [D3F1FEDC]
09 97,7 [76C0D3B5] [D9142ADE]
10 97,7 [AD675822] [B98AE215]


The Rolling Stones - Some Girls (1978) [4 Releases]

Tracklist CD2-3 - Some Girls (Deluxe Edition) (2011 EU Remster, A&M 278 405-5):

1. Miss You (4:48)
2. When The Whip Comes Down (4:21)
3. Just My Imagination (Running Away With Me) (4:38)
4. Some Girls (4:37)
5. Lies (3:11)
6. Far Away Eyes (4:23)
7. Respectable (3:07)
8. Before They Make Me Run (3:25)
9. Beast Of Burden (4:25)
10. Shattered (3:47)

Exact Audio Copy V0.99 prebeta 5 from 4. May 2009

EAC extraction logfile from 23. December 2011, 13:58

Rolling Stones / Some Girls (Remastered 2009)

Used drive : HL-DT-STDVD+-RW GH50N Adapter: 0 ID: 1

Read mode : Secure
Utilize accurate stream : Yes
Defeat audio cache : Yes
Make use of C2 pointers : No

Read offset correction : 667
Overread into Lead-In and Lead-Out : No
Fill up missing offset samples with silence : Yes
Delete leading and trailing silent blocks : No
Null samples used in CRC calculations : Yes
Used interface : Native Win32 interface for Win NT & 2000

Used output format : User Defined Encoder
Selected bitrate : 768 kBit/s
Quality : High
Add ID3 tag : No
Command line compressor : C:\Program Files (x86)\Exact Audio Copy\FLAC\FLAC.EXE
Additional command line options : -8 -V -T "ARTIST=%a" -T "TITLE=%t" -T "ALBUM=%g" -T "DATE=%y" -T "TRACKNUMBER=%n" -T "GENRE=%m" -T "COMMENT=EAC FLAC -8" %s


TOC of the extracted CD

Track | Start | Length | Start sector | End sector
––––––––––––––––––––––––––––-
1 | 0:00.00 | 4:48.50 | 0 | 21649
2 | 4:48.50 | 4:20.72 | 21650 | 41221
3 | 9:09.47 | 4:38.13 | 41222 | 62084
4 | 13:47.60 | 4:36.70 | 62085 | 82854
5 | 18:24.55 | 3:11.20 | 82855 | 97199
6 | 21:36.00 | 4:23.72 | 97200 | 116996
7 | 25:59.72 | 3:07.33 | 116997 | 131054
8 | 29:07.30 | 3:24.72 | 131055 | 146426
9 | 32:32.27 | 4:25.13 | 146427 | 166314
10 | 36:57.40 | 3:46.60 | 166315 | 183324


Range status and errors

Selected range

Filename C:\Azureus Downloads\Some Girls\CD1\Rolling Stones - Some Girls (Remastered 2009).wav

Peak level 98.7 %
Range quality 99.9 %
Test CRC 2CDE6968
Copy CRC 2CDE6968
Copy OK

No errors occurred


AccurateRip summary

Track 1 accurately ripped (confidence 91) [D45F242C]
Track 2 accurately ripped (confidence 91) [F1C9C1D7]
Track 3 accurately ripped (confidence 90) [FA179FB2]
Track 4 accurately ripped (confidence 90) [C2010681]
Track 5 accurately ripped (confidence 90) [837672B3]
Track 6 accurately ripped (confidence 89) [6E449081]
Track 7 accurately ripped (confidence 89) [DD0086E9]
Track 8 accurately ripped (confidence 91) [37C85490]
Track 9 accurately ripped (confidence 91) [B1D8128E]
Track 10 accurately ripped (confidence 88) [4E24E732]

All tracks accurately ripped

End of status report


[CUETools log; Date: 09.06.2017 23:35:07; Version: 2.1.5]
[CTDB TOCID: mpl47hpVEEOuFHnr9zaWqyu7nOg-] found.
Track | CTDB Status
1 | (578/581) Accurately ripped
2 | (579/581) Accurately ripped
3 | (578/581) Accurately ripped
4 | (578/581) Accurately ripped
5 | (579/581) Accurately ripped
6 | (577/581) Accurately ripped
7 | (577/581) Accurately ripped
8 | (575/581) Accurately ripped
9 | (573/581) Accurately ripped
10 | (571/581) Accurately ripped, or (4/581) differs in 1876 samples @03:46:41-03:46:44
[AccurateRip ID: 0010022b-007e4f09-8a098c0a] found.
Track [ CRC | V2 ] Status
01 [d45f242c|2efe9613] (132+200/415) Accurately ripped
02 [f1c9c1d7|72257cfb] (131+200/414) Accurately ripped
03 [fa179fb2|f8544fe4] (131+200/412) Accurately ripped
04 [c2010681|6986f301] (131+200/413) Accurately ripped
05 [837672b3|875ffb21] (131+200/411) Accurately ripped
06 [6e449081|745b4799] (129+200/409) Accurately ripped
07 [dd0086e9|e816f408] (130+200/411) Accurately ripped
08 [37c85490|11f0ca4e] (132+200/412) Accurately ripped
09 [b1d8128e|bfbed119] (132+200/413) Accurately ripped
10 [4e24e732|6aebc587] (127+200/409) Accurately ripped
Offsetted by -676:
01 [4923af0d] (005/415) Accurately ripped
02 [8f200146] (004/414) Accurately ripped
03 [ed56d6de] (003/412) Accurately ripped
04 [939b40aa] (004/413) Accurately ripped
05 [321d653f] (004/411) Accurately ripped
06 [661cd232] (004/409) Accurately ripped
07 [f88f6417] (004/411) Accurately ripped
08 [6bb9d880] (004/412) Accurately ripped
09 [ab954b5c] (004/413) Accurately ripped
10 [3c9b60fc] (004/409) Accurately ripped
Offsetted by -6:
01 [070d1056] (005/415) Accurately ripped
02 [884f7073] (005/414) Accurately ripped
03 [80eff080] (005/412) Accurately ripped
04 [5abf222b] (005/413) Accurately ripped
05 [2fb8cbaa] (005/411) Accurately ripped
06 [ffd5a395] (005/409) Accurately ripped
07 [47b6947f] (005/411) Accurately ripped
08 [2db76eea] (005/412) Accurately ripped
09 [98ccf1e1] (005/413) Accurately ripped
10 [891374bc] (005/409) Accurately ripped
Offsetted by -670:
01 [ddea7525] (000/415) No match (V2 was not tested)
02 [ebe441d5] (000/414) No match (V2 was not tested)
03 [6715de36] (000/412) No match (V2 was not tested)
04 [ea2a0fd2] (000/413) No match (V2 was not tested)
05 [85db0c7b] (000/411) No match (V2 was not tested)
06 [e4d0987f] (000/409) No match (V2 was not tested)
07 [3386dbbb] (000/411) No match (V2 was not tested)
08 [7654aa14] (000/412) No match (V2 was not tested)
09 [c3edfb73] (000/413) No match (V2 was not tested)
10 [024565c9] (000/409) No match (V2 was not tested)
Offsetted by -664:
01 [5374e6ae] (000/415) No match (V2 was not tested)
02 [4acaebc3] (000/414) No match (V2 was not tested)
03 [3107c5a7] (000/412) No match (V2 was not tested)
04 [3f4433b6] (000/413) No match (V2 was not tested)
05 [d998b3b1] (000/411) No match (V2 was not tested)
06 [32ca826e] (000/409) No match (V2 was not tested)
07 [60d38b2d] (000/411) No match (V2 was not tested)
08 [80ef7ba0] (000/412) No match (V2 was not tested)
09 [dcf91bd1] (000/413) No match (V2 was not tested)
10 [c756d838] (000/409) No match (V2 was not tested)
Offsetted by -30:
01 [a2158303] (000/415) No match (V2 was not tested)
02 [d4b3fcea] (000/414) No match (V2 was not tested)
03 [61f0bc2c] (000/412) No match (V2 was not tested)
04 [bc6755fb] (000/413) No match (V2 was not tested)
05 [e345b6db] (000/411) No match (V2 was not tested)
06 [5c88531b] (000/409) No match (V2 was not tested)
07 [38642df3] (000/411) No match (V2 was not tested)
08 [07119b33] (000/412) No match (V2 was not tested)
09 [333b8e71] (000/413) No match (V2 was not tested)
10 [739c863d] (000/409) No match (V2 was not tested)
Offsetted by -12:
01 [bc2befa9] (000/415) No match (V2 was not tested)
02 [1ea1ba85] (000/414) No match (V2 was not tested)
03 [48863dbd] (000/412) No match (V2 was not tested)
04 [f6484625] (000/413) No match (V2 was not tested)
05 [dcfc8dfc] (000/411) No match (V2 was not tested)
06 [98e4f129] (000/409) No match (V2 was not tested)
07 [b87cc162] (000/411) No match (V2 was not tested)
08 [243074d7] (000/412) No match (V2 was not tested)
09 [7f0f60f1] (000/413) No match (V2 was not tested)
10 [c402024a] (000/409) No match (V2 was not tested)
Offsetted by 6:
01 [1f37e549] (000/415) No match (V2 was not tested)
02 [5b08158d] (000/414) No match (V2 was not tested)
03 [7e161e56] (000/412) No match (V2 was not tested)
04 [28904c11] (000/413) No match (V2 was not tested)
05 [d6b36511] (000/411) No match (V2 was not tested)
06 [e60e3624] (000/409) No match (V2 was not tested)
07 [737a55a6] (000/411) No match (V2 was not tested)
08 [414f4eac] (000/412) No match (V2 was not tested)
09 [ca30c2f9] (000/413) No match (V2 was not tested)
10 [129dc74a] (000/409) No match (V2 was not tested)

Track Peak [ CRC32 ] [W/O NULL] [ LOG ]
– 98,7 [2CDE6968] [50E861ED] CRC32
01 98,7 [DF69EF47] [5F5FA402]
02 98,7 [98D426C3] [095C310A]
03 98,7 [74AB92B2] [1B861748]
04 95,3 [23497071] [41927C75]
05 98,7 [E29DFCF3] [854A4168]
06 98,7 [B51F0C6E] [A891CE6C]
07 98,7 [75243582] [99EAE4C1]
08 98,7 [61BEF2B2] [5C5A8C69]
09 98,7 [FAF844F1] [32F58930]
10 98,7 [43CF45B1] [DE3EF0E4]


1. Claudine (3:42)
2. So Young (3:19)
3. Do You Think I Really Care (4:22)
4. When You're Gone (3:51)
5. No Spare Parts (4:31)
6. Don't Be A Stranger (4:06)
7. We Had It All (2:54)
8. Tallahassee Lassie (2:37)
9. I Love You Too Much (3:11)
10. Keep Up Blues (4:20)
11. You Win Again (3:00)
12. Petrol Blues (1:36)

Exact Audio Copy V0.99 prebeta 5 from 4. May 2009

EAC extraction logfile from 23. December 2011, 14:48

The Rolling Stones / Some Girls {2011 Deluxe Ed.} (CD 2)

Used drive : HL-DT-STDVD+-RW GH50N Adapter: 0 ID: 1

Read mode : Secure
Utilize accurate stream : Yes
Defeat audio cache : Yes
Make use of C2 pointers : No

Read offset correction : 667
Overread into Lead-In and Lead-Out : No
Fill up missing offset samples with silence : Yes
Delete leading and trailing silent blocks : No
Null samples used in CRC calculations : Yes
Used interface : Native Win32 interface for Win NT & 2000

Used output format : User Defined Encoder
Selected bitrate : 768 kBit/s
Quality : High
Add ID3 tag : No
Command line compressor : C:\Program Files (x86)\Exact Audio Copy\FLAC\FLAC.EXE
Additional command line options : -8 -V -T "ARTIST=%a" -T "TITLE=%t" -T "ALBUM=%g" -T "DATE=%y" -T "TRACKNUMBER=%n" -T "GENRE=%m" -T "COMMENT=EAC FLAC -8" %s


TOC of the extracted CD

Track | Start | Length | Start sector | End sector
––––––––––––––––––––––––––––-
1 | 0:00.00 | 3:42.19 | 0 | 16668
2 | 3:42.19 | 3:18.60 | 16669 | 31578
3 | 7:01.04 | 4:22.18 | 31579 | 51246
4 | 11:23.22 | 3:51.50 | 51247 | 68621
5 | 15:14.72 | 4:30.35 | 68622 | 88906
6 | 19:45.32 | 4:06.20 | 88907 | 107376
7 | 23:51.52 | 2:54.01 | 107377 | 120427
8 | 26:45.53 | 2:37.07 | 120428 | 132209
9 | 29:22.60 | 3:10.46 | 132210 | 146505
10 | 32:33.31 | 4:20.67 | 146506 | 166072
11 | 36:54.23 | 3:00.21 | 166073 | 179593
12 | 39:54.44 | 1:35.47 | 179594 | 186765


Range status and errors

Selected range

Filename C:\Azureus Downloads\Some Girls\CD2\The Rolling Stones - Some Girls {2011 Deluxe Ed.} (CD 2).wav

Peak level 98.8 %
Range quality 100.0 %
Test CRC A193E5AB
Copy CRC A193E5AB
Copy OK

No errors occurred


AccurateRip summary

Track 1 accurately ripped (confidence 3) [43676D20]
Track 2 accurately ripped (confidence 3) [A9C691C9]
Track 3 accurately ripped (confidence 3) [9738CEDD]
Track 4 accurately ripped (confidence 3) [9F9C43CE]
Track 5 accurately ripped (confidence 3) [EE752D79]
Track 6 accurately ripped (confidence 3) [48F77AAF]
Track 7 accurately ripped (confidence 3) [C6771741]
Track 8 accurately ripped (confidence 3) [395B3E8D]
Track 9 accurately ripped (confidence 3) [F31C2D33]
Track 10 accurately ripped (confidence 3) [7915356D]
Track 11 accurately ripped (confidence 3) [4230F70D]
Track 12 accurately ripped (confidence 3) [EF69920F]

All tracks accurately ripped

End of status report


[CUETools log; Date: 09.06.2017 23:35:20; Version: 2.1.5]
[CTDB TOCID: uG3ValkZUfp0rbLaiqu215ZkkmU-] found.
Track | CTDB Status
1 | (307/307) Accurately ripped
2 | (306/307) Accurately ripped
3 | (306/307) Accurately ripped
4 | (306/307) Accurately ripped
5 | (305/307) Accurately ripped
6 | (304/307) Accurately ripped
7 | (305/307) Accurately ripped
8 | (304/307) Accurately ripped
9 | (304/307) Accurately ripped
10 | (305/307) Accurately ripped
11 | (305/307) Accurately ripped
12 | (305/307) Accurately ripped
[AccurateRip ID: 0013c66a-00b6f20e-a509ba0c] found.
Track [ CRC | V2 ] Status
01 [43676d20|6ac40acf] (032+200/298) Accurately ripped
02 [a9c691c9|2d3f9df8] (033+200/300) Accurately ripped
03 [9738cedd|0258f881] (033+200/300) Accurately ripped
04 [9f9c43ce|e6a5db6a] (033+200/300) Accurately ripped
05 [ee752d79|9f8d5f4a] (033+200/302) Accurately ripped
06 [48f77aaf|1b0a9b4e] (033+200/299) Accurately ripped
07 [c6771741|bd45306b] (032+200/298) Accurately ripped
08 [395b3e8d|110124e5] (033+200/300) Accurately ripped
09 [f31c2d33|c14eeab6] (033+200/300) Accurately ripped
10 [7915356d|e3d17ec2] (033+200/300) Accurately ripped
11 [4230f70d|e4cdd90c] (033+200/298) Accurately ripped
12 [ef69920f|aa833ad7] (032+200/298) Accurately ripped
Offsetted by -6:
01 [ecdd962c] (004/298) Accurately ripped
02 [c5b47d13] (004/300) Accurately ripped
03 [1d1b902f] (004/300) Accurately ripped
04 [1dd3871c] (004/300) Accurately ripped
05 [ee30a822] (004/302) Accurately ripped
06 [12812a70] (004/299) Accurately ripped
07 [38b87d12] (004/298) Accurately ripped
08 [c4bce363] (004/300) Accurately ripped
09 [731ef48f] (004/300) Accurately ripped
10 [e824b63e] (004/300) Accurately ripped
11 [a511e637] (004/298) Accurately ripped
12 [da35cf03] (004/298) Accurately ripped
Offsetted by -676:
01 [06d75dac] (000/298) No match (V2 was not tested)
02 [16ae0c21] (000/300) No match (V2 was not tested)
03 [d3500dc5] (000/300) No match (V2 was not tested)
04 [f6cad555] (000/300) No match (V2 was not tested)
05 [be5c8dbf] (000/302) No match (V2 was not tested)
06 [5cb10f9e] (000/299) No match (V2 was not tested)
07 [ccba8a66] (000/298) No match (V2 was not tested)
08 [05a4158b] (000/300) No match (V2 was not tested)
09 [bf5ae991] (000/300) No match (V2 was not tested)
10 [8304b3d5] (000/300) No match (V2 was not tested)
11 [e385d22a] (000/298) No match (V2 was not tested)
12 [18f6b1a4] (000/298) No match (V2 was not tested)
Offsetted by -670:
01 [68cc574d] (000/298) No match (V2 was not tested)
02 [6c7a93f4] (000/300) No match (V2 was not tested)
03 [d5fbd589] (000/300) No match (V2 was not tested)
04 [ce6322fb] (000/300) No match (V2 was not tested)
05 [bcc41317] (000/302) No match (V2 was not tested)
06 [259516cc] (000/299) No match (V2 was not tested)
07 [7145db7d] (000/298) No match (V2 was not tested)
08 [c63b9156] (000/300) No match (V2 was not tested)
09 [3d889a58] (000/300) No match (V2 was not tested)
10 [86e050b6] (000/300) No match (V2 was not tested)
11 [d123330f] (000/298) No match (V2 was not tested)
12 [7ad38b73] (000/298) No match (V2 was not tested)
Offsetted by -664:
01 [de39ced8] (000/298) No match (V2 was not tested)
02 [fbde1bc3] (000/300) No match (V2 was not tested)
03 [2ecdefff] (000/300) No match (V2 was not tested)
04 [88f5a82e] (000/300) No match (V2 was not tested)
05 [bf829921] (000/302) No match (V2 was not tested)
06 [38eeaf6a] (000/299) No match (V2 was not tested)
07 [ffeebf9a] (000/298) No match (V2 was not tested)
08 [f27c0d34] (000/300) No match (V2 was not tested)
09 [77944b1e] (000/300) No match (V2 was not tested)
10 [3101ed94] (000/300) No match (V2 was not tested)
11 [1034841e] (000/298) No match (V2 was not tested)
12 [41c900a7] (000/298) No match (V2 was not tested)
Offsetted by -12:
01 [5ef74ddf] (000/298) No match (V2 was not tested)
02 [355c2ec2] (000/300) No match (V2 was not tested)
03 [a3b5c876] (000/300) No match (V2 was not tested)
04 [2a61398d] (000/300) No match (V2 was not tested)
05 [ef5b230c] (000/302) No match (V2 was not tested)
06 [49960007] (000/299) No match (V2 was not tested)
07 [0e592c62] (000/298) No match (V2 was not tested)
08 [6fe1b11f] (000/300) No match (V2 was not tested)
09 [e51a108f] (000/300) No match (V2 was not tested)
10 [0362a819] (000/300) No match (V2 was not tested)
11 [0614952f] (000/298) No match (V2 was not tested)
12 [13b842ce] (000/298) No match (V2 was not tested)

Track Peak [ CRC32 ] [W/O NULL] [ LOG ]
– 98,8 [A193E5AB] [F38F3904] CRC32
01 93,4 [7702BD91] [3AB2A89A]
02 96,0 [4690457D] [07F08BFB]
03 98,8 [BF34BB38] [DEBB80F5]
04 98,8 [6A0DEE23] [CBDF65B6]
05 98,8 [95F3AE3A] [DCD48E77]
06 98,8 [6863DCD7] [92ECAAEB]
07 98,8 [F994372F] [C3627BDA]
08 98,8 [040FDE4C] [5F9A815B]
09 96,9 [0866E044] [0E2F24DD]
10 98,8 [A538CDAA] [7D89CA76]
11 94,7 [FA80070B] [C464F342]
12 98,4 [04DCB454] [B0AC34CE]


The Rolling Stones - Some Girls (1978) [4 Releases]

Tracklist CD4-5 - Some Girls (Deluxe Edition) (2011 Japan Remaster, Promotone UICX-1456/7):

1. Miss You (4:48)
2. When The Whip Comes Down (4:20)
3. Just My Imagination (Running Away With Me) (4:38)
4. Some Girls (4:36)
5. Lies (3:11)
6. Far Away Eyes (4:23)
7. Respectable (3:07)
8. Before They Make Me Run (3:24)
9. Beast Of Burden (4:25)
10. Shattered (3:46)

Exact Audio Copy V1.0 beta 3 from 29. August 2011

EAC extraction logfile from 9. May 2014, 18:57

The Rolling Stones / Some Girls SHM-CD 1 Album

Used drive : PLEXTOR BD-R PX-B950SA Adapter: 6 ID: 0

Read mode : Secure
Utilize accurate stream : Yes
Defeat audio cache : Yes
Make use of C2 pointers : No

Read offset correction : 6
Overread into Lead-In and Lead-Out : No
Fill up missing offset samples with silence : Yes
Delete leading and trailing silent blocks : No
Null samples used in CRC calculations : Yes
Used interface : Native Win32 interface for Win NT & 2000

Used output format : Internal WAV Routines
Sample format : 44.100 Hz; 16 Bit; Stereo


TOC of the extracted CD

Track | Start | Length | Start sector | End sector
––––––––––––––––––––––––––––-
1 | 0:00.00 | 4:48.50 | 0 | 21649
2 | 4:48.50 | 4:20.72 | 21650 | 41221
3 | 9:09.47 | 4:38.13 | 41222 | 62084
4 | 13:47.60 | 4:36.70 | 62085 | 82854
5 | 18:24.55 | 3:11.20 | 82855 | 97199
6 | 21:36.00 | 4:23.72 | 97200 | 116996
7 | 25:59.72 | 3:07.33 | 116997 | 131054
8 | 29:07.30 | 3:24.72 | 131055 | 146426
9 | 32:32.27 | 4:25.13 | 146427 | 166314
10 | 36:57.40 | 3:46.60 | 166315 | 183324


Range status and errors

Selected range

Filename C:\Users\Meijin\Desktop\ALLexxess\The Rolling Stones\1978 Some Girls (2SHM-CD + DVD + 7'' Vinyl Box Set Universal Japan 2011)\CD1\The Rolling Stones - Some Girls SHM-CD 1 Album.wav

Peak level 98.7 %
Extraction speed 6.7 X
Range quality 100.0 %
Test CRC 3DFFC8D0
Copy CRC 3DFFC8D0
Copy OK

No errors occurred


AccurateRip summary

Track 1 accurately ripped (confidence 200) [2EFE9613] (AR v2)
Track 2 accurately ripped (confidence 200) [72257CFB] (AR v2)
Track 3 accurately ripped (confidence 200) [F8544FE4] (AR v2)
Track 4 accurately ripped (confidence 200) [6986F301] (AR v2)
Track 5 accurately ripped (confidence 200) [875FFB21] (AR v2)
Track 6 accurately ripped (confidence 200) [745B4799] (AR v2)
Track 7 accurately ripped (confidence 200) [E816F408] (AR v2)
Track 8 accurately ripped (confidence 200) [11F0CA4E] (AR v2)
Track 9 accurately ripped (confidence 200) [BFBED119] (AR v2)
Track 10 accurately ripped (confidence 200) [6AEBC587] (AR v2)

All tracks accurately ripped

End of status report

==== Log checksum 9180C0FB6908723CDFA59A0F966294AB900BFCFF18B9648CFD04876A4C94C215 ====


[CUETools log; Date: 09.06.2017 23:35:40; Version: 2.1.5]
[CTDB TOCID: mpl47hpVEEOuFHnr9zaWqyu7nOg-] found.
Track | CTDB Status
1 | (578/581) Accurately ripped
2 | (579/581) Accurately ripped
3 | (578/581) Accurately ripped
4 | (578/581) Accurately ripped
5 | (579/581) Accurately ripped
6 | (577/581) Accurately ripped
7 | (577/581) Accurately ripped
8 | (575/581) Accurately ripped
9 | (573/581) Accurately ripped
10 | (571/581) Accurately ripped, or (4/581) differs in 1876 samples @03:46:41-03:46:44
[AccurateRip ID: 0010022b-007e4f09-8a098c0a] found.
Track [ CRC | V2 ] Status
01 [d45f242c|2efe9613] (132+200/415) Accurately ripped
02 [f1c9c1d7|72257cfb] (131+200/414) Accurately ripped
03 [fa179fb2|f8544fe4] (131+200/412) Accurately ripped
04 [c2010681|6986f301] (131+200/413) Accurately ripped
05 [837672b3|875ffb21] (131+200/411) Accurately ripped
06 [6e449081|745b4799] (129+200/409) Accurately ripped
07 [dd0086e9|e816f408] (130+200/411) Accurately ripped
08 [37c85490|11f0ca4e] (132+200/412) Accurately ripped
09 [b1d8128e|bfbed119] (132+200/413) Accurately ripped
10 [4e24e732|6aebc587] (127+200/409) Accurately ripped
Offsetted by -676:
01 [4923af0d] (005/415) Accurately ripped
02 [8f200146] (004/414) Accurately ripped
03 [ed56d6de] (003/412) Accurately ripped
04 [939b40aa] (004/413) Accurately ripped
05 [321d653f] (004/411) Accurately ripped
06 [661cd232] (004/409) Accurately ripped
07 [f88f6417] (004/411) Accurately ripped
08 [6bb9d880] (004/412) Accurately ripped
09 [ab954b5c] (004/413) Accurately ripped
10 [3c9b60fc] (004/409) Accurately ripped
Offsetted by -6:
01 [070d1056] (005/415) Accurately ripped
02 [884f7073] (005/414) Accurately ripped
03 [80eff080] (005/412) Accurately ripped
04 [5abf222b] (005/413) Accurately ripped
05 [2fb8cbaa] (005/411) Accurately ripped
06 [ffd5a395] (005/409) Accurately ripped
07 [47b6947f] (005/411) Accurately ripped
08 [2db76eea] (005/412) Accurately ripped
09 [98ccf1e1] (005/413) Accurately ripped
10 [891374bc] (005/409) Accurately ripped
Offsetted by -670:
01 [ddea7525] (000/415) No match (V2 was not tested)
02 [ebe441d5] (000/414) No match (V2 was not tested)
03 [6715de36] (000/412) No match (V2 was not tested)
04 [ea2a0fd2] (000/413) No match (V2 was not tested)
05 [85db0c7b] (000/411) No match (V2 was not tested)
06 [e4d0987f] (000/409) No match (V2 was not tested)
07 [3386dbbb] (000/411) No match (V2 was not tested)
08 [7654aa14] (000/412) No match (V2 was not tested)
09 [c3edfb73] (000/413) No match (V2 was not tested)
10 [024565c9] (000/409) No match (V2 was not tested)
Offsetted by -664:
01 [5374e6ae] (000/415) No match (V2 was not tested)
02 [4acaebc3] (000/414) No match (V2 was not tested)
03 [3107c5a7] (000/412) No match (V2 was not tested)
04 [3f4433b6] (000/413) No match (V2 was not tested)
05 [d998b3b1] (000/411) No match (V2 was not tested)
06 [32ca826e] (000/409) No match (V2 was not tested)
07 [60d38b2d] (000/411) No match (V2 was not tested)
08 [80ef7ba0] (000/412) No match (V2 was not tested)
09 [dcf91bd1] (000/413) No match (V2 was not tested)
10 [c756d838] (000/409) No match (V2 was not tested)
Offsetted by -30:
01 [a2158303] (000/415) No match (V2 was not tested)
02 [d4b3fcea] (000/414) No match (V2 was not tested)
03 [61f0bc2c] (000/412) No match (V2 was not tested)
04 [bc6755fb] (000/413) No match (V2 was not tested)
05 [e345b6db] (000/411) No match (V2 was not tested)
06 [5c88531b] (000/409) No match (V2 was not tested)
07 [38642df3] (000/411) No match (V2 was not tested)
08 [07119b33] (000/412) No match (V2 was not tested)
09 [333b8e71] (000/413) No match (V2 was not tested)
10 [739c863d] (000/409) No match (V2 was not tested)
Offsetted by -12:
01 [bc2befa9] (000/415) No match (V2 was not tested)
02 [1ea1ba85] (000/414) No match (V2 was not tested)
03 [48863dbd] (000/412) No match (V2 was not tested)
04 [f6484625] (000/413) No match (V2 was not tested)
05 [dcfc8dfc] (000/411) No match (V2 was not tested)
06 [98e4f129] (000/409) No match (V2 was not tested)
07 [b87cc162] (000/411) No match (V2 was not tested)
08 [243074d7] (000/412) No match (V2 was not tested)
09 [7f0f60f1] (000/413) No match (V2 was not tested)
10 [c402024a] (000/409) No match (V2 was not tested)
Offsetted by 6:
01 [1f37e549] (000/415) No match (V2 was not tested)
02 [5b08158d] (000/414) No match (V2 was not tested)
03 [7e161e56] (000/412) No match (V2 was not tested)
04 [28904c11] (000/413) No match (V2 was not tested)
05 [d6b36511] (000/411) No match (V2 was not tested)
06 [e60e3624] (000/409) No match (V2 was not tested)
07 [737a55a6] (000/411) No match (V2 was not tested)
08 [414f4eac] (000/412) No match (V2 was not tested)
09 [ca30c2f9] (000/413) No match (V2 was not tested)
10 [129dc74a] (000/409) No match (V2 was not tested)

Track Peak [ CRC32 ] [W/O NULL] [ LOG ]
– 98,7 [3DFFC8D0] [996F1A98] CRC32
01 98,7 [DF69EF47] [5F5FA402]
02 98,7 [98D426C3] [095C310A]
03 98,7 [74AB92B2] [1B861748]
04 95,3 [23497071] [41927C75]
05 98,7 [E29DFCF3] [854A4168]
06 98,7 [B51F0C6E] [A891CE6C]
07 98,7 [75243582] [99EAE4C1]
08 98,7 [61BEF2B2] [5C5A8C69]
09 98,7 [FAF844F1] [32F58930]
10 98,7 [52EEE409] [AD4DE520]


1. Claudine (3:42)
2. So Young (3:18)
3. Do You Think I Really Care (4:22)
4. When You're Gone (3:51)
5. No Spare Parts (4:30)
6. Don't Be A Stranger (4:06)
7. We Had It All (2:54)
8. Tallahassee Lassie (2:37)
9. I Love You Too Much (3:10)
10. Keep Up Blues (4:20)
11. You Win Again (3:00)
12. Petrol Blues (1:36)
Bonus Track:
13. So Young (Piano Version) (2:55)

Exact Audio Copy V1.0 beta 3 from 29. August 2011

EAC extraction logfile from 9. May 2014, 18:24

The Rolling Stones / Some Girls SHM-CD 2 Bonus

Used drive : PLEXTOR BD-R PX-B950SA Adapter: 6 ID: 0

Read mode : Secure
Utilize accurate stream : Yes
Defeat audio cache : Yes
Make use of C2 pointers : No

Read offset correction : 6
Overread into Lead-In and Lead-Out : No
Fill up missing offset samples with silence : Yes
Delete leading and trailing silent blocks : No
Null samples used in CRC calculations : Yes
Used interface : Native Win32 interface for Win NT & 2000

Used output format : Internal WAV Routines
Sample format : 44.100 Hz; 16 Bit; Stereo


TOC of the extracted CD

Track | Start | Length | Start sector | End sector
––––––––––––––––––––––––––––-
1 | 0:00.00 | 3:42.19 | 0 | 16668
2 | 3:42.19 | 3:18.60 | 16669 | 31578
3 | 7:01.04 | 4:22.18 | 31579 | 51246
4 | 11:23.22 | 3:51.50 | 51247 | 68621
5 | 15:14.72 | 4:30.35 | 68622 | 88906
6 | 19:45.32 | 4:06.20 | 88907 | 107376
7 | 23:51.52 | 2:54.01 | 107377 | 120427
8 | 26:45.53 | 2:37.07 | 120428 | 132209
9 | 29:22.60 | 3:10.46 | 132210 | 146505
10 | 32:33.31 | 4:20.67 | 146506 | 166072
11 | 36:54.23 | 3:00.21 | 166073 | 179593
12 | 39:54.44 | 1:36.06 | 179594 | 186799
13 | 41:30.50 | 2:55.23 | 186800 | 199947


Range status and errors

Selected range

Filename C:\Users\Meijin\Desktop\ALLexxess\The Rolling Stones\1978 Some Girls (2SHM-CD + DVD + 7'' Vinyl Box Set Universal Japan 2011)\CD2\The Rolling Stones - Some Girls SHM-CD 2 Bonus.wav

Peak level 98.8 %
Extraction speed 6.8 X
Range quality 99.9 %
Test CRC 8B05600C
Copy CRC 8B05600C
Copy OK

No errors occurred


AccurateRip summary

Track 1 accurately ripped (confidence 11) [84B0673E] (AR v2)
Track 2 accurately ripped (confidence 11) [2D3F9DF8] (AR v2)
Track 3 accurately ripped (confidence 11) [0258F881] (AR v2)
Track 4 accurately ripped (confidence 11) [E6A5DB6A] (AR v2)
Track 5 accurately ripped (confidence 11) [9F8D5F4A] (AR v2)
Track 6 accurately ripped (confidence 11) [1B0A9B4E] (AR v2)
Track 7 accurately ripped (confidence 11) [BD45306B] (AR v2)
Track 8 accurately ripped (confidence 11) [110124E5] (AR v2)
Track 9 accurately ripped (confidence 11) [C14EEAB6] (AR v2)
Track 10 accurately ripped (confidence 11) [E3D17EC2] (AR v2)
Track 11 accurately ripped (confidence 11) [E4CDD90C] (AR v2)
Track 12 accurately ripped (confidence 11) [34A4F2F7] (AR v2)
Track 13 accurately ripped (confidence 11) [A1C33AC9] (AR v2)

All tracks accurately ripped

End of status report

==== Log checksum 0F6D8A1E2ACC03426CE02471B74BA8AFD0C3E7DC0CED47458F51F3FF29F8E04F ====


[CUETools log; Date: 14.05.2014 20:01:47; Version: 2.1.5]
[CTDB TOCID: LDgnTnyoj8LLZRYxkhdBVSeMffw-] found.
Track | CTDB Status
1 | (7/7) Accurately ripped
2 | (7/7) Accurately ripped
3 | (7/7) Accurately ripped
4 | (7/7) Accurately ripped
5 | (7/7) Accurately ripped
6 | (7/7) Accurately ripped
7 | (7/7) Accurately ripped
8 | (7/7) Accurately ripped
9 | (7/7) Accurately ripped
10 | (7/7) Accurately ripped
11 | (7/7) Accurately ripped
12 | (7/7) Accurately ripped
13 | (7/7) Accurately ripped
[AccurateRip ID: 0016d398-00e1aa70-b60a690d] found.
Track [ CRC | V2 ] Status
01 [5dd586b4|84b0673e] (00+11/11) Accurately ripped
02 [a9c691c9|2d3f9df8] (00+11/11) Accurately ripped
03 [9738cedd|0258f881] (00+11/11) Accurately ripped
04 [9f9c43ce|e6a5db6a] (00+11/11) Accurately ripped
05 [ee752d79|9f8d5f4a] (00+11/11) Accurately ripped
06 [48f77aaf|1b0a9b4e] (00+11/11) Accurately ripped
07 [c6771741|bd45306b] (00+11/11) Accurately ripped
08 [395b3e8d|110124e5] (00+11/11) Accurately ripped
09 [f31c2d33|c14eeab6] (00+11/11) Accurately ripped
10 [7915356d|e3d17ec2] (00+11/11) Accurately ripped
11 [4230f70d|e4cdd90c] (00+11/11) Accurately ripped
12 [43002da5|34a4f2f7] (00+11/11) Accurately ripped
13 [c09a8c39|a1c33ac9] (00+11/11) Accurately ripped

Track Peak [ CRC32 ] [W/O NULL] [ LOG ]
– 98,8 [8B05600C] [4954E851] CRC32
01 93,4 [42D0A1EE] [DA284724]
02 96,0 [4690457D] [07F08BFB]
03 98,8 [BF34BB38] [DEBB80F5]
04 98,8 [6A0DEE23] [CBDF65B6]
05 98,8 [95F3AE3A] [DCD48E77]
06 98,8 [6863DCD7] [92ECAAEB]
07 98,8 [F994372F] [C3627BDA]
08 98,8 [040FDE4C] [5F9A815B]
09 96,9 [0866E044] [0E2F24DD]
10 98,8 [A538CDAA] [7D89CA76]
11 94,7 [FA80070B] [C464F342]
12 98,4 [D516BD32] [28248B2E]
13 96,1 [C14A7210] [12F95982]


The Rolling Stones - Some Girls (1978) [4 Releases]

Tracklist CD6 - Some Girls (2013 Japan Remaster, Promotone UICY-40012):

1. Miss You (4:50)
2. When The Whip Comes Down (4:23)
3. Just My Imagination (Running Away With Me) (4:39)
4. Some Girls (4:40)
5. Lies (3:12)
6. Far Away Eyes (4:24)
7. Respectable (3:09)
8. Before They Make Me Run (3:27)
9. Beast Of Burden (4:26)
10. Shattered (3:49)

Exact Audio Copy V1.0 beta 3 from 29. August 2011

EAC extraction logfile from 9. May 2014, 12:41

The Rolling Stones / Some Girls PT-SHM

Used drive : PLEXTOR BD-R PX-B950SA Adapter: 6 ID: 0

Read mode : Secure
Utilize accurate stream : Yes
Defeat audio cache : Yes
Make use of C2 pointers : No

Read offset correction : 6
Overread into Lead-In and Lead-Out : No
Fill up missing offset samples with silence : Yes
Delete leading and trailing silent blocks : No
Null samples used in CRC calculations : Yes
Used interface : Native Win32 interface for Win NT & 2000

Used output format : Internal WAV Routines
Sample format : 44.100 Hz; 16 Bit; Stereo


TOC of the extracted CD

Track | Start | Length | Start sector | End sector
––––––––––––––––––––––––––––-
1 | 0:00.00 | 4:50.15 | 0 | 21764
2 | 4:50.15 | 4:23.03 | 21765 | 41492
3 | 9:13.18 | 4:39.52 | 41493 | 62469
4 | 13:52.70 | 4:40.10 | 62470 | 83479
5 | 18:33.05 | 3:12.60 | 83480 | 97939
6 | 21:45.65 | 4:24.70 | 97940 | 117809
7 | 26:10.60 | 3:09.23 | 117810 | 132007
8 | 29:20.08 | 3:27.20 | 132008 | 147552
9 | 32:47.28 | 4:26.55 | 147553 | 167557
10 | 37:14.08 | 3:49.65 | 167558 | 184797


Range status and errors

Selected range

Filename C:\Users\Meijin\Desktop\ALLexxess\The Rolling Stones\1978 Some Girls (Mini LP PT-SHM Universal Japan 2013)\The Rolling Stones - Some Girls PT-SHM.wav

Peak level 99.4 %
Extraction speed 6.7 X
Range quality 100.0 %
Test CRC B0581DB5
Copy CRC B0581DB5
Copy OK

No errors occurred


AccurateRip summary

Track 1 not present in database
Track 2 not present in database
Track 3 not present in database
Track 4 not present in database
Track 5 not present in database
Track 6 not present in database
Track 7 not present in database
Track 8 not present in database
Track 9 not present in database
Track 10 not present in database

None of the tracks are present in the AccurateRip database

End of status report

==== Log checksum A7E8E1FC50674E404A233065525CEBB195A8A1BDDAA462ED34D16A6676EC2E39 ====


[CUETools log; Date: 09.06.2017 23:35:58; Version: 2.1.5]
[CTDB TOCID: OHSvwLzPAV6r4ssLVLaa5qyLoUA-] found.
Track | CTDB Status
1 | (10/10) Accurately ripped
2 | (10/10) Accurately ripped
3 | (10/10) Accurately ripped
4 | (10/10) Accurately ripped
5 | (10/10) Accurately ripped
6 | (10/10) Accurately ripped
7 | (10/10) Accurately ripped
8 | (10/10) Accurately ripped
9 | (10/10) Accurately ripped
10 | (10/10) Accurately ripped
[AccurateRip ID: 0010206b-007f421f-85099f0a] found.
Track [ CRC | V2 ] Status
01 [15cd1145|0fe609c2] (0+9/9) Accurately ripped
02 [23cc26ae|775fdf31] (0+9/9) Accurately ripped
03 [1353c73d|5fee16a8] (0+9/9) Accurately ripped
04 [471b28c8|12566c74] (0+9/9) Accurately ripped
05 [0b205556|fab2e7de] (0+9/9) Accurately ripped
06 [806023f9|81646f3d] (0+9/9) Accurately ripped
07 [adf6a6bb|8be40fd9] (0+9/9) Accurately ripped
08 [fdcb52bb|bc53fceb] (0+9/9) Accurately ripped
09 [cbf3f4d4|54f4a358] (0+9/9) Accurately ripped
10 [4b15c524|591dff44] (0+9/9) Accurately ripped

Track Peak [ CRC32 ] [W/O NULL] [ LOG ]
– 99,4 [B0581DB5] [4D43F21A] CRC32
01 99,4 [281932EB] [FA52C41A]
02 98,4 [CB9E0957] [BF78D4A7]
03 97,8 [58183F32] [1D3C8ADA]
04 99,2 [7351CD2C] [12555B08]
05 97,6 [EBAEB881] [85829811]
06 86,5 [61A8E563] [2F815E76]
07 90,0 [F579EB71] [6B087DDC]
08 89,6 [05923F60] [82444699]
09 87,9 [0F6F8DB7] [350CA986]
10 92,0 [A81F6D1F] [D5657F62]


All thanks go to Ironbelly & ALLexxess

The Rolling Stones in my Blog

Download The Rolling Stones - Some Girls (1978):