Tags
Language
Tags

The Savage Rose - Sangen for Livet (The Song for Life) (1988)

Posted By: v3122
The Savage Rose - Sangen for Livet (The Song for Life) (1988)

The Savage Rose - Sangen for Livet (The Song for Life) (1988)
EAC | Flac(Image) + Cue + Log & MP3 CBR 320Kbps
Mega 0122402MEG | ~ 279 or 107 Mb | Covers(500dpi, jpg) -> 9.57 Mb
Folk Rock / Progressive Folk | Remastered

One of the most well-known rock groups from Continental Europe, Denmark's Savage Rose recorded a wealth of intriguing and eclectic progressive rock in the late '60s and '70s. In their early work, one hears faint echoes of the Airplane, Doors, Pink Floyd, and other psychedelic heavyweights combined with classical jazz and Danish-Euro folk elements. Their arrangements rely heavily on an incandescent, watery organ that sounds like nothing so much as psychedelic aquarium music. The most striking aspect of the band's sound, however, was the vocals of lead singer Annisette. Her childish wispy and sensual phrasing can suddenly break into jarring, almost histrionic wailing, like a Janis Joplin with Yoko Ono-isms, and eerily foreshadows Kate Bush's style.

Stars in their native land, Savage Rose also achieved a bit of underground success abroad, and several of their albums were released in North America. Between 1968 and 1978, the group released nine albums, moving from vaguely psychedelic rock and the heavily gospel-influenced Refugee to the nearly classical ballet score Dodens Triumf and the folky, nearly all-Danish Solen Var Ogsa Din (their first eight albums were sung entirely in English).

Always a radical band – the Black Panthers even invited the group to play at a benefit for Bobby Seale after hearing one of Savage Rose's records – they took the extremely radical step of withdrawing from the studio entirely by the end of 1970s to focus on using their music to support leftist political causes. Although they continued to make music and perform, they were often heard at benefits and free concerts, actually playing in Lebanese hospitals, schools, and refugee camps at the P.L.O.'s invitation. They eased back into recording in the early '80s with Danish-language efforts on small labels, eventually getting back into the mainstream music business with established distribution. Their mid-'90s album, Black Angel, was their first English-language recording in many years, and a substantial Danish hit. By this time the only remaining members from the original band were Thomas Koppel and Annisette (now his wife); Koppel also records and composes symphonic music as a solo artist.

by Richie Unterberger, AMG
The Savage Rose - Sangen for Livet (The Song for Life) (1988):

The Savage Rose - Sangen for Livet (The Song for Life) (1988)

Tracklist:

01. I den unge morgen [0:03:11.02]
02. Flyv min fugl [0:04:26.58]
03. Ryesgade [0:03:27.67]
04. Sangen for livet [0:06:39.10]
05. Mor danmark [0:03:06.13]
06. Jeg venter på dig [0:05:03.62]
07. Nattergalen fra kosova [0:02:10.28]
08. 4. maj [0:03:51.40]
09. Afrika [0:05:59.37]
10. Kun en lille tid endnu [0:03:36.68]

Exact Audio Copy V0.99 prebeta 5 from 4. May 2009

Отчёт EAC об извлечении, выполненном 28. сентября 2014, 17:13

Savage Rose / Sangen for livet

Дисковод: PIONEER BD-RW BDR-208M Adapter: 3 ID: 0

Режим чтения : Достоверность
Использование точного потока : Да
Отключение кэша аудио : Да
Использование указателей C2 : Нет

Коррекция смещения при чтении : 667
Способность читать области Lead-in и Lead-out : Нет
Заполнение пропущенных сэмплов тишиной : Да
Удаление блоков с тишиной в начале и конце : Нет
При вычислениях CRC использовались нулевые сэмплы : Нет
Интерфейс : Установленный внешний ASPI-интерфейс

Выходной формат : Пользовательский кодировщик
Выбранный битрейт : 1024 kBit/s
Качество : Высокий
Добавление ID3-тэга : Нет
Утилита сжатия : C:\Program Files (x86)\Exact Audio Copy\Flac\flac.exe
Дополнительные параметры : -V -8 -T "Date=%year%" -T "Genre=%genre%" %source%


TOC извлечённого CD

Трек | Старт | Длительность | Начальный сектор | Конечный сектор
––––––––––––––––––––––––––––––––––-
1 | 0:00.00 | 3:11.02 | 0 | 14326
2 | 3:11.02 | 4:26.58 | 14327 | 34334
3 | 7:37.60 | 3:27.67 | 34335 | 49926
4 | 11:05.52 | 6:39.10 | 49927 | 79861
5 | 17:44.62 | 3:06.13 | 79862 | 93824
6 | 20:51.00 | 5:03.62 | 93825 | 116611
7 | 25:54.62 | 2:10.28 | 116612 | 126389
8 | 28:05.15 | 3:51.40 | 126390 | 143754
9 | 31:56.55 | 5:59.37 | 143755 | 170716
10 | 37:56.17 | 3:36.68 | 170717 | 186984


Характеристики диапазона извлечения и сообщения об ошибках

Выбранный диапазон

Имя файла E:\Savage rose\Savage Rose - Sangen for livet.wav

Пиковый уровень 99.9 %
Качество диапазона 99.9 %
CRC теста DE6B8F9F
CRC копии DE6B8F9F
Копирование… OK

Ошибок не произошло


AccurateRip: сводка

Трек 1 точное извлечение (доверие 2) [C338377A]
Трек 2 точное извлечение (доверие 2) [82DF6FA8]
Трек 3 точное извлечение (доверие 2) [75E9AD72]
Трек 4 точное извлечение (доверие 2) [58A65794]
Трек 5 точное извлечение (доверие 2) [5999F3E6]
Трек 6 точное извлечение (доверие 2) [B4AEB188]
Трек 7 точное извлечение (доверие 2) [E36899CC]
Трек 8 точное извлечение (доверие 2) [01A6AEF0]
Трек 9 точное извлечение (доверие 2) [F92093D0]
Трек 10 точное извлечение (доверие 2) [6C4609E5]

Все треки извлечены точно

Конец отчёта

foobar2000 1.2.9 / Dynamic Range Meter 1.1.1
log date: 2015-01-14 18:53:03

––––––––––––––––––––––––––––––––––––––––
Analyzed: Savage Rose / Sangen for livet
––––––––––––––––––––––––––––––––––––––––

DR Peak RMS Duration Track
––––––––––––––––––––––––––––––––––––––––
DR7 -0.01 dB -9.68 dB 3:11 01-I den unge morgen
DR8 -0.01 dB -10.65 dB 4:27 02-Flyv min fugl
DR9 -0.01 dB -10.68 dB 3:28 03-Ryesgade
DR8 -0.01 dB -10.16 dB 6:39 04-Sangen for livet
DR9 -0.01 dB -11.32 dB 3:06 05-Mor danmark
DR8 -0.01 dB -9.68 dB 5:04 06-Jeg venter pРµ dig
DR11 -0.01 dB -13.79 dB 2:10 07-Nattergalen fra kosova
DR8 -0.01 dB -10.12 dB 3:52 08-4. maj
DR9 -0.01 dB -11.40 dB 5:59 09-Afrika
DR9 -0.01 dB -10.57 dB 3:37 10-Kun en lille tid endnu
––––––––––––––––––––––––––––––––––––––––

Number of tracks: 10
Official DR value: DR9

Samplerate: 44100 Hz
Channels: 2
Bits per sample: 16
Bitrate: 882 kbps
Codec: FLAC

[CUETools log; Date: 12.12.2014 0:11:50; Version: 2.1.4]
[AccurateRip ID: 000f839f-007ccc90-9909bd0a] found.
Track [ CRC | V2 ] Status
01 [c338377a|2b8038dd] (2+0/2) Accurately ripped
02 [82df6fa8|f3478c8e] (2+0/2) Accurately ripped
03 [75e9ad72|ac9128a7] (2+0/2) Accurately ripped
04 [58a65794|5d8d2569] (2+0/2) Accurately ripped
05 [5999f3e6|d239039a] (2+0/2) Accurately ripped
06 [b4aeb188|8eac4207] (2+0/2) Accurately ripped
07 [e36899cc|219323d9] (2+0/2) Accurately ripped
08 [01a6aef0|218136a8] (2+0/2) Accurately ripped
09 [f92093d0|140eebf9] (2+0/2) Accurately ripped
10 [6c4609e5|08c698a1] (2+0/2) Accurately ripped

Track Peak [ CRC32 ] [W/O NULL] [ LOG ]
– 99,9 [D1430C12] [DE6B8F9F] W/O NULL
01 99,9 [E53804B7] [21BC5660]
02 99,9 [8858AD52] [9738B181]
03 99,9 [6C6B2A41] [71649A4F]
04 99,9 [6684997C] [EE488A1E]
05 99,9 [E5BCD52B] [6F6B4B27]
06 99,9 [A5B99B48] [1BE11684]
07 99,9 [672EBE53] [17A4696C]
08 99,9 [978461E8] [8ACFDD34]
09 99,9 [7284DF18] [ADE88A0E]
10 99,9 [5216144D] [2C9598F9]

The Savage Rose - Sangen for Livet (The Song for Life) (1988)

All thanks go to sav1965