Subcategories

The Scaffold - Sold Out (1975) Japanese Mini LP Reissue 2004

Posted By: Designol
The Scaffold - Sold Out (1975) Japanese Mini LP Reissue 2004

The Scaffold - Sold Out (1975) Japanese Mini LP Reissue 2004
EAC | FLAC | Image (Cue&Log) ~ 249 Mb | Mp3 (CBR320) ~ 114 Mb | Scans included
Label: Muskrat | # RATCD-4228 (WQCP-185) | Time: 00:36:32
Classic Rock, Pop/Rock, Comedy Rock

The result of the meeting of Michael McCartney (brother of Beatle Paul), who would work as Mike McGear to avoid accusations of coat-tailing, and Post Office engineer John Gorman, the Scaffold took a blend of absurd humor and catchy songs to chart-topping glory throughout the 1960s. Their lineup filled out with Roger McGough and Adrian Henri, the group was briefly known as the Liverpool One Fat Lady All Electric Show, to the horror of everyone around them. Henri soon departed. A change of name later, they were gaining a reputation as one of the most amusing outfits on the scene, with a residency at Peter Cook's Establishment Club (where the Bonzo Dog Doo-Dah Band also held court).

The Scaffold's biggest successes were their cheerfully silly singles, starting with "Thank U Very Much" and continuing with "Lily the Pink" (a sterilized adaptation of an old rugby song, featuring Jack Bruce on bass) and the somewhat incomprehensible "Gin Gan Goolie," all of which had a knack for sticking in the mind on endless repeat without causing undue annoyance. These three songs, in particular, are well remembered even as the 1990s draw to a close.

In 1973, the Scaffold officially ceased to exist, being blended into the immense stage antics of Grimms alongside a couple of former Bonzos and a great many other people. Three Grimms albums followed. The Scaffold made occasional reappearances for various purposes. During the 1970s, Michael McCartney would begin using his real name again, although his infrequent recordings would still use the McGear pseudonym. Post-music, he has pursued careers as a photographer and children's author.

Steven McDonald, Allmusic.com

The Scaffold at Wiki

Tracklist:

01. Liverpool Lou (2:59)
02. Potato Clock (2:40)
03. Mingulay Boating Song (2:16)
04. Ramsbottom (1:35)
05. Beilins Boneyard (2:30)
06. Liverpool Girls (2:30)
07. The Cokey Cokey (2:32)
08. Pack Of Cards (5:44)
09. Mummy Won't Be Home For Christmas (4:09)
10. Leaving Of Liverpool (3:16)
11. Julery Shop Leslie (3:29)
12. Lord Of The Dance (2:32)


Exact Audio Copy V1.1 from 23. June 2015

Отчёт EAC об извлечении, выполненном 19. мая 2016, 10:51

The Scaffold / Sold Out

Дисковод: PIONEER DVD-RW DVR-221L Adapter: 1 ID: 0

Режим чтения : Достоверность
Использование точного потока : Да
Отключение кэша аудио : Да
Использование указателей C2 : Нет

Коррекция смещения при чтении : 6
Способность читать области Lead-in и Lead-out : Нет
Заполнение пропущенных сэмплов тишиной : Да
Удаление блоков с тишиной в начале и конце : Нет
При вычислениях CRC использовались нулевые сэмплы : Да
Интерфейс : Встроенный Win32-интерфейс для Win NT/2000

Выходной формат : Пользовательский кодировщик
Выбранный битрейт : 128 kBit/s
Качество : Высокий
Добавление ID3-тега : Нет
Утилита сжатия : C:\Program Files\Exact Audio Copy\FLAC\FLAC.EXE
Дополнительные параметры : -V -8 -T "Date=%year%" -T "Genre=%genre%" %source%


TOC извлечённого CD

Трек | Старт | Длительность | Начальный сектор | Конечный сектор
––––––––––––––––––––––––––––––––––-
1 | 0:00.00 | 3:01.36 | 0 | 13610
2 | 3:01.36 | 2:41.67 | 13611 | 25752
3 | 5:43.28 | 2:18.25 | 25753 | 36127
4 | 8:01.53 | 1:38.36 | 36128 | 43513
5 | 9:40.14 | 2:24.00 | 43514 | 54313
6 | 12:04.14 | 2:32.02 | 54314 | 65715
7 | 14:36.16 | 2:36.03 | 65716 | 77418
8 | 17:12.19 | 5:46.19 | 77419 | 103387
9 | 22:58.38 | 4:09.39 | 103388 | 122101
10 | 27:08.02 | 3:18.21 | 122102 | 136972
11 | 30:26.23 | 3:32.64 | 136973 | 152936
12 | 33:59.12 | 2:32.57 | 152937 | 164393


Характеристики диапазона извлечения и сообщения об ошибках

Выбранный диапазон

Имя файла D:\Мусор\The Scaffold - Sold Out - 1975.wav

Пиковый уровень 99.7 %
Скорость извлечения 4.0 X
Качество диапазона 100.0 %
CRC теста 32EFF3CD
CRC копии 32EFF3CD
Копирование… OK

Ошибок не произошло


AccurateRip: сводка

Трек 1 отсутствует в базе данных
Трек 2 отсутствует в базе данных
Трек 3 отсутствует в базе данных
Трек 4 отсутствует в базе данных
Трек 5 отсутствует в базе данных
Трек 6 отсутствует в базе данных
Трек 7 отсутствует в базе данных
Трек 8 отсутствует в базе данных
Трек 9 отсутствует в базе данных
Трек 10 отсутствует в базе данных
Трек 11 отсутствует в базе данных
Трек 12 отсутствует в базе данных

Ни одного трека нет в базе AccurateRip

Конец отчёта

==== Контрольная сумма отчёта 4478A8F7302CB063353211C189460BB3F73554820E0020496E55B22BA3AD5997 ====

foobar2000 1.2 / Dynamic Range Meter 1.1.1
log date: 2017-01-23 18:53:49

––––––––––––––––––––––––––––––––––––––––
Analyzed: The Scaffold / Sold Out
––––––––––––––––––––––––––––––––––––––––

DR Peak RMS Duration Track
––––––––––––––––––––––––––––––––––––––––
DR12 -2.48 dB -15.94 dB 3:01 01-Liverpool Lou
DR13 -1.26 dB -16.93 dB 2:42 02-Potato Clock
DR11 -2.19 dB -15.83 dB 2:18 03-Mingulay Boating Song
DR11 -1.23 dB -15.51 dB 1:38 04-Ramsbottom
DR13 -1.04 dB -17.03 dB 2:24 05-Beilins Boneyard
DR12 -2.70 dB -16.61 dB 2:32 06-Liverpool Girls
DR12 -1.68 dB -15.93 dB 2:36 07-Cokey Cokey
DR14 -0.02 dB -17.44 dB 5:46 08-Pack Of Cards
DR11 -2.51 dB -16.60 dB 4:10 09-Mummy Won't Be Home For Christmas
DR12 -2.54 dB -16.26 dB 3:18 10-Leaving Of Liverpool
DR11 -4.66 dB -18.45 dB 3:33 11-Julery Shop Lesley
DR12 -2.42 dB -16.12 dB 2:33 12-Lord Of The Dance
––––––––––––––––––––––––––––––––––––––––

Number of tracks: 12
Official DR value: DR12

Samplerate: 44100 Hz
Channels: 2
Bits per sample: 16
Bitrate: 791 kbps
Codec: FLAC
================================================================================

The Scaffold - Sold Out (1975) Japanese Mini LP Reissue 2004

The Scaffold - Sold Out (1975) Japanese Mini LP Reissue 2004