Subcategories
Tags
Language
Tags

The World Heritage - The Tropic Of Cancer (2006) {Japan}

Posted By: popsakov
The World Heritage - The Tropic Of Cancer (2006) {Japan}

The World Heritage - The Tropic Of Cancer (2006) {Japan}
EAC Rip | WavPack (Img) + Cue + Log ~ 435 Mb | MP3 CBR320 ~ 155 Mb
Full Scans ~ 71 Mb | 01:04:02 | RAR 5% Recovery
Avant-Garde / Jazz Rock / Progressive Rock / Experimental
Polystar Jazz Library / Magaibutsu Limited #MTCJ-3030

The World Heritage is a Japanese supergroup gathered and guided by master drummer Yoshida Tatsuya. The group is Kido Natsuki (Bondage Fruit) and Yamamoto Seiichi (Boredoms) on guitar, Nasuno Mitsuri (Altered States) on bass, Katsui Yuji (Bondage Fruit, etc) on violin, and Yoshida Tatsuya (Ruins, Koenjihyakkei, Korekyojinn, etc) on drums. Tatsuya, Mitsuri and Natsuki had previously played together as Korekyojinn, the mammoth power trio.

This group performs mostly high-energy improvised rock with some jazzy tinges, as well as some pieces composed by Tatsuya. All of the music is very energetic and often chaotic. Almost all of the band's material has been recorded live, with only a small handful of tracks being recorded in studio. The band would appeal to fans of other Tatsuya bands, in particular fans of Korekyojinn, Daimonji or Ruins.

~ Prog Archives

***************

The World Heritage - The Tropic Of Cancer (2006) {Japan}

Track List:

01. The Tropic Of Cancer [5:51]
02. Civilisation Of Gigantic Rocks [11:54]
03. Beast God [7:05]
04. The Earthly Paradise [7:59]
05. City In The Sky [10:00]
06. Arena Theater [5:38]
07. Sacred Letter [8:17]
08. Labyrinth In Underground [7:19]

01-04 Recorded at Manda-la II 6/16, 2004.
05-08 Recorded at Fab 3/26, 2004.

Personnel:
Yoshida Tatsuya - Drums
Katsui Yuji - Violin
Nasuno Mitsuri - Bass
Kido Natsuki - Guitar (on tracks 1-4)
Yamamoto Seiichi - Guitar (on tracks 5-8)

Exact Audio Copy V1.2 from 12. August 2016

EAC extraction logfile from 22. June 2017, 19:24

The World Heritage / The Tropic of Cancer

Used drive : PIONEER DVD-RW DVR-220RS Adapter: 1 ID: 0

Read mode : Secure
Utilize accurate stream : Yes
Defeat audio cache : Yes
Make use of C2 pointers : No

Read offset correction : 6
Overread into Lead-In and Lead-Out : No
Fill up missing offset samples with silence : Yes
Delete leading and trailing silent blocks : No
Null samples used in CRC calculations : Yes
Used interface : Native Win32 interface for Win NT & 2000

Used output format : User Defined Encoder
Selected bitrate : 768 kBit/s
Quality : High
Add ID3 tag : No
Command line compressor : C:\Program Files (x86)\Exact Audio Copy\Wavpack\wavpack.exe
Additional command line options : -hm %source% %dest%


TOC of the extracted CD

Track | Start | Length | Start sector | End sector
––––––––––––––––––––––––––––-
1 | 0:00.00 | 5:50.47 | 0 | 26296
2 | 5:50.47 | 11:54.33 | 26297 | 79879
3 | 17:45.05 | 7:05.37 | 79880 | 111791
4 | 24:50.42 | 7:58.55 | 111792 | 147696
5 | 32:49.22 | 9:59.43 | 147697 | 192664
6 | 42:48.65 | 5:37.45 | 192665 | 217984
7 | 48:26.35 | 8:16.40 | 217985 | 255224
8 | 56:43.00 | 7:18.40 | 255225 | 288114


Range status and errors

Selected range

Filename C:\_NL+_\_CD\The World Heritage - The Tropic of Cancer.wav

Peak level 98.0 %
Extraction speed 8.2 X
Range quality 100.0 %
Test CRC BA80C65F
Copy CRC BA80C65F
Copy OK

No errors occurred


AccurateRip summary

Track 1 accurately ripped (confidence 1) [4015EFA2] (AR v1)
Track 2 accurately ripped (confidence 1) [53C082C7] (AR v1)
Track 3 accurately ripped (confidence 1) [9E2E5234] (AR v1)
Track 4 accurately ripped (confidence 1) [E08C33B3] (AR v1)
Track 5 accurately ripped (confidence 1) [3D016BB5] (AR v1)
Track 6 accurately ripped (confidence 1) [770041BA] (AR v1)
Track 7 accurately ripped (confidence 1) [582C8BD3] (AR v1)
Track 8 accurately ripped (confidence 1) [701215A3] (AR v1)

All tracks accurately ripped

End of status report

–– CUETools DB Plugin V2.1.6

[CTDB TOCID: n9z8NClY4y0sxnfBqlJ2nK.q.sI-] found
Submit result: n9z8NClY4y0sxnfBqlJ2nK.q.sI- has been confirmed
Track | CTDB Status
1 | (1/1) Accurately ripped
2 | (1/1) Accurately ripped
3 | (1/1) Accurately ripped
4 | (1/1) Accurately ripped
5 | (1/1) Accurately ripped
6 | (1/1) Accurately ripped
7 | (1/1) Accurately ripped
8 | (1/1) Accurately ripped


==== Log checksum 6863A2A6C676A8B82EACF722ED457DB27B545F4A7A518EA87CEE2C2F6F14E059 ====

The World Heritage - The Tropic Of Cancer (2006) {Japan}


See also:

The World Heritage - Icomos (2006) {Japan}

The World Heritage - The Land Of Light (2016) {Japan}

All thanks go to tatuk

>>> My Blog <<<

DOWNLOAD: