Tags
Language
Tags

The Zoot - Zoot Locker (The Best Of The Zoot - 1968-1971) (1995)

Posted By: Rtax
The Zoot - Zoot Locker (The Best Of The Zoot - 1968-1971) (1995)

The Zoot - Zoot Locker (The Best Of The Zoot - 1968-1971) (1995)
EAC Rip | FLAC (tracks, cue, log, scans) - 342 MB
47:52 | Beat, Garage Rock, Psychedelic Rock | Label: EMI

Available again! Definitive collection with 16 of the best by this Australian teeny bopper group that Rick Springfield fronted prior to his successful solo career. Cuts include 'You Better Get Going Now', '1 x 2 x 3 x 4' and a cover of the Beatles 'Eleanor Rigby'. 16 tracks total, all digitally remastered. 1995 EMI release. The full title is 'Zoot Locker: Best Of The Zoot1968-1971'.

Tracklist

1. You Better Get Going Now (Jackie Lomax) - 2:03
2. 1x2x3x4 (Terry Britten) - 2:18
3. Monty And Me (Bruce Woodley, Hans Poulsen) - 2:36
4. It's About Time (Brian Cadd, Don Mudie) - 2:54
5. Sailing (Terry Britten) - 2:16
6. Yes I'm Glad (Terry Britten) - 2:37
7. Little Roland Lost (Beeb Birtles, Darryl Cotton) - 2:26
8. She's Alright (Terry Britten) - 2:11
9. Sha La La (Rick Springfield) - 3:00
10. Flying (Rick Springfield) - 3:02
11. Mr Songwriter (Rick Springfield) - 3:04
12. Strange Things (Rick Springfield) - 3:26
13. Hey Pinky (Rick Springfield) - 3:07
14. The Freak (Rick Springfield) - 5:08
15. Evil Child (Rick Springfield) - 2:55
16. Eleanor Rigby (John Lennon, Paul McCartney) - 4:42
Exact Audio Copy V0.99 prebeta 4 from 23. January 2008

EAC extraction logfile from 10. February 2010, 23:35

Zoot / Zoot Locker

Used drive : PIONEER DVD-RW DVR-110D Adapter: 1 ID: 1

Read mode : Secure
Utilize accurate stream : Yes
Defeat audio cache : Yes
Make use of C2 pointers : No

Read offset correction : 48
Overread into Lead-In and Lead-Out : Yes
Fill up missing offset samples with silence : Yes
Delete leading and trailing silent blocks : No
Null samples used in CRC calculations : Yes
Used interface : Installed external ASPI interface
Gap handling : Appended to previous track

Used output format : User Defined Encoder
Selected bitrate : 1024 kBit/s
Quality : High
Add ID3 tag : No
Command line compressor : C:\Program Files\Exact Audio Copy\Flac\flac.exe
Additional command line options : -8 -V -T "ARTIST=%a" -T "TITLE=%t" -T "ALBUM=%g" -T "DATE=%y" -T "TRACKNUMBER=%n" -T "GENRE=%m" -T "COMMENT=EAC FLAC-8" %s


TOC of the extracted CD

Track | Start | Length | Start sector | End sector
––––––––––––––––––––––––––––-
1 | 0:00.00 | 2:03.65 | 0 | 9289
2 | 2:03.65 | 2:18.37 | 9290 | 19676
3 | 4:22.27 | 2:36.23 | 19677 | 31399
4 | 6:58.50 | 2:54.25 | 31400 | 44474
5 | 9:53.00 | 2:16.35 | 44475 | 54709
6 | 12:09.35 | 2:37.52 | 54710 | 66536
7 | 14:47.12 | 2:26.20 | 66537 | 77506
8 | 17:13.32 | 2:11.10 | 77507 | 87341
9 | 19:24.42 | 3:00.60 | 87342 | 100901
10 | 22:25.27 | 3:02.18 | 100902 | 114569
11 | 25:27.45 | 3:04.52 | 114570 | 128421
12 | 28:32.22 | 3:26.55 | 128422 | 143926
13 | 31:59.02 | 3:07.50 | 143927 | 158001
14 | 35:06.52 | 5:08.55 | 158002 | 181156
15 | 40:15.32 | 2:55.28 | 181157 | 194309
16 | 43:10.60 | 4:42.15 | 194310 | 215474


Track 1

Filename D:\Zoot - Zoot Locker\01 - You Better Get Going Now.wav

Pre-gap length 0:00:02.00

Peak level 69.6 %
Track quality 99.9 %
Test CRC 7A4BB68A
Copy CRC 7A4BB68A
Accurately ripped (confidence 4) [0C95FE6C]
Copy OK

Track 2

Filename D:\Zoot - Zoot Locker\02 - 1 x 2 x 3 x 4.wav

Peak level 99.6 %
Track quality 99.9 %
Test CRC F65926A1
Copy CRC F65926A1
Accurately ripped (confidence 4) [8AE58AB0]
Copy OK

Track 3

Filename D:\Zoot - Zoot Locker\03 - Monty And Me.wav

Peak level 94.8 %
Track quality 99.7 %
Test CRC 88912701
Copy CRC 88912701
Accurately ripped (confidence 4) [CAA7D8F8]
Copy OK

Track 4

Filename D:\Zoot - Zoot Locker\04 - It's About Time.wav

Peak level 100.0 %
Track quality 99.9 %
Test CRC E3747E7C
Copy CRC E3747E7C
Accurately ripped (confidence 4) [8BFE8C4B]
Copy OK

Track 5

Filename D:\Zoot - Zoot Locker\05 - Sailing.wav

Peak level 87.5 %
Track quality 99.9 %
Test CRC 8209F7FE
Copy CRC 8209F7FE
Accurately ripped (confidence 4) [418E27F3]
Copy OK

Track 6

Filename D:\Zoot - Zoot Locker\06 - Yes I'm Glad.wav

Peak level 95.6 %
Track quality 100.0 %
Test CRC 887EC009
Copy CRC 887EC009
Accurately ripped (confidence 4) [614A9EA7]
Copy OK

Track 7

Filename D:\Zoot - Zoot Locker\07 - Little Roland Lost.wav

Peak level 92.2 %
Track quality 100.0 %
Test CRC 065D92E2
Copy CRC 065D92E2
Accurately ripped (confidence 4) [7442CB5B]
Copy OK

Track 8

Filename D:\Zoot - Zoot Locker\08 - She's Alright.wav

Peak level 100.0 %
Track quality 100.0 %
Test CRC 939B0374
Copy CRC 939B0374
Accurately ripped (confidence 4) [92E4E53C]
Copy OK

Track 9

Filename D:\Zoot - Zoot Locker\09 - Sha La La.wav

Peak level 96.3 %
Track quality 100.0 %
Test CRC 9DF335BF
Copy CRC 9DF335BF
Accurately ripped (confidence 4) [D31B3115]
Copy OK

Track 10

Filename D:\Zoot - Zoot Locker\10 - Flying.wav

Peak level 97.0 %
Track quality 100.0 %
Test CRC 403FF99B
Copy CRC 403FF99B
Accurately ripped (confidence 4) [9E609729]
Copy OK

Track 11

Filename D:\Zoot - Zoot Locker\11 - Mr. Songwriter.wav

Peak level 97.0 %
Track quality 100.0 %
Test CRC 50CA2464
Copy CRC 50CA2464
Accurately ripped (confidence 4) [6B380BDE]
Copy OK

Track 12

Filename D:\Zoot - Zoot Locker\12 - Strange Things.wav

Peak level 97.8 %
Track quality 100.0 %
Test CRC 9DBF5094
Copy CRC 9DBF5094
Accurately ripped (confidence 4) [86F22360]
Copy OK

Track 13

Filename D:\Zoot - Zoot Locker\13 - Hey Pinky.wav

Peak level 100.0 %
Track quality 100.0 %
Test CRC 489FA0EF
Copy CRC 489FA0EF
Accurately ripped (confidence 4) [2119EEA2]
Copy OK

Track 14

Filename D:\Zoot - Zoot Locker\14 - The Freak.wav

Peak level 100.0 %
Track quality 100.0 %
Test CRC 10A9B0C2
Copy CRC 10A9B0C2
Accurately ripped (confidence 4) [E3E78CA1]
Copy OK

Track 15

Filename D:\Zoot - Zoot Locker\15 - Evil Child.wav

Peak level 96.6 %
Track quality 100.0 %
Test CRC 041BA851
Copy CRC 041BA851
Accurately ripped (confidence 4) [385BDCB4]
Copy OK

Track 16

Filename D:\Zoot - Zoot Locker\16 - Eleanor Rigby.wav

Peak level 100.0 %
Track quality 100.0 %
Test CRC B22D0259
Copy CRC B22D0259
Accurately ripped (confidence 4) [CB70EC3D]
Copy OK


All tracks accurately ripped

No errors occurred

End of status report