Subcategories
Tags
Language
Tags

The Ethiopians - Train To Skaville: Anthology 1966 To 1975 (2001)

Posted By: Designol
The Ethiopians - Train To Skaville: Anthology 1966 To 1975 (2001)

The Ethiopians - Train To Skaville: Anthology 1966 To 1975 (2001)
EAC | FLAC | Tracks (Cue&Log) ~ 542 Mb | Mp3 (CBR320) ~ 359 Mb | Scans included
Rocksteady, Ska, Roots Reggae | Label: Trojan | # CDTRD 457 | Time: 02:30:19

One of Jamaica's most consistent vocal groups, and unfortunately one of the most unsung, the Ethiopians were led by the distinctive tenor and fine songwriting skills of Leonard Dillon. Originally a trio (with Stephen Taylor and Aston Morris), most of their hits were done with Dillon and Taylor as a duo, and their close two-part harmony is a trademark of the group. Following Taylor's death in 1975, Dillon carried on the name, double-tracking and using other singers in the studio to reproduce the trademark Ethiopians sound. This two-disc set is currently the best introduction to the Ethiopians on the market, and includes all of the group's major sides plus other rarities and oddities. Dillon is an excellent songwriter, with a compelling moral center and a knack for simple yet endlessly memorable melodies, and his songs, usually written from the ghetto sufferer's perspective, are exceedingly sly and wise. There are numerous examples of his craft here, including "Free Man," the ubiquitous "Train to Skaville" (which intriguingly really isn't ska), the funky and joyous "One Heart," the impossibly infectious (and shrewd) "Everything Crash," the subtly simple "Engine 54," the status report "Things a Get Bad to Worse," and the soothing yet mysterious "The Selah." Classic Jamaican rocksteady.

Review by Steve Leggett, Allmusic.com

The Ethiopians - Train To Skaville: Anthology 1966 To 1975 (2001)



Tracklist:

CD1:

01. Free Man (02:38)
02. Owe Me No Pay Me (02:29)
03. Train to Skaville (02:50)
04. I Need You (02:27)
05. The Whip (02:59)
06. Cool It Amigo (02:35)
07. Stay Loose Mama (02:42)
08. The World Goes Ska (02:46)
09. Come On Now (03:05)
10. Give Me Your Love (02:10)
11. You Got The Dough (03:15)
12. Engine 54 (02:37)
13. Train to Glory (02:55)
14. Fire A Muss Muss Tail (02:19)
15. Reggae Hit The Town (02:26)
16. I'm Not A King (02:06)
17. Not Me (02:31)
18. Everything Crash (02:32)
19. Hong Kong Flu (02:17)
20. Feel The Spirit (02:25)
21. What A Fire (02:39)
22. Gun Man (aka You) (02:03)
23. Everday Talking (03:21)
24. Woman Capture Man (02:23)
25. One (Heart, One Love) (03:37)
26. Well Red (02:46)
27. My Testimony (02:24)
28. Buss Your Mouth (aka Contention) (02:38)

CD2:

01. Things A Get Bad To Worse (02:31)
02. Mek You Go On So (02:37)
03. Wreck It Up (02:26)
04. Hang On (aka Don't Let It Go) (02:10)
05. I'll Never Get Burnt (02:57)
06. Drop Him (02:22)
07. Mother's Tender Care (03:05)
08. Condition A Bad A Yard (02:25)
09. Praise Far I (02:16)
10. No Baptism (02:32)
11. Good Ambition (02:48)
12. Lot Wife (02:45)
13. He's Not A Rebel (02:11)
14. The Selah (03:05)
15. Sad News (03:23)
16. Solid As A Rock (03:15)
17. I Need Someone (03:09)
18. Pirate (02:31)
19. Israel Want To Be free (02:15)
20. Promises (02:56)
21. The Ring (01:59)
22. The Word Is Love (02:59)
23. Hail Brother Rasta, Hail (03:18)
24. (I Want To Be A) Better Man (03:00)
25. Conquering Lion (02:38)
26. Band Yu Belly (03:12)
27. Knowledge Is Power (02:10)
28. Another Moses (03:00)


Exact Audio Copy V0.99 prebeta 4 from 23. January 2008

EAC extraction logfile from 19. December 2008, 20:42

The Ethiopians / Train To Skaville Anthology 1966 To 1975

Used drive : HL-DT-STDVDRAM GSA-4163B Adapter: 1 ID: 0

Read mode : Secure
Utilize accurate stream : Yes
Defeat audio cache : Yes
Make use of C2 pointers : No

Read offset correction : 667
Overread into Lead-In and Lead-Out : No
Fill up missing offset samples with silence : Yes
Delete leading and trailing silent blocks : No
Null samples used in CRC calculations : Yes
Used interface : Native Win32 interface for Win NT & 2000
Gap handling : Appended to previous track

Used output format : Internal WAV Routines
Sample format : 44.100 Hz; 16 Bit; Stereo


TOC of the extracted CD

Track | Start | Length | Start sector | End sector
––––––––––––––––––––––––––––-
1 | 0:00.00 | 2:38.14 | 0 | 11863
2 | 2:38.14 | 2:29.73 | 11864 | 23111
3 | 5:08.12 | 2:50.60 | 23112 | 35921
4 | 7:58.72 | 2:27.61 | 35922 | 47007
5 | 10:26.58 | 2:59.73 | 47008 | 60505
6 | 13:26.56 | 2:35.30 | 60506 | 72160
7 | 16:02.11 | 2:42.23 | 72161 | 84333
8 | 18:44.34 | 2:46.27 | 84334 | 96810
9 | 21:30.61 | 3:05.63 | 96811 | 110748
10 | 24:36.49 | 2:10.60 | 110749 | 120558
11 | 26:47.34 | 3:15.35 | 120559 | 135218
12 | 30:02.69 | 2:37.64 | 135219 | 147057
13 | 32:40.58 | 2:55.31 | 147058 | 160213
14 | 35:36.14 | 2:19.41 | 160214 | 170679
15 | 37:55.55 | 2:26.18 | 170680 | 181647
16 | 40:21.73 | 2:06.19 | 181648 | 191116
17 | 42:28.17 | 2:31.24 | 191117 | 202465
18 | 44:59.41 | 2:32.51 | 202466 | 213916
19 | 47:32.17 | 2:17.56 | 213917 | 224247
20 | 49:49.73 | 2:25.62 | 224248 | 235184
21 | 52:15.60 | 2:39.46 | 235185 | 247155
22 | 54:55.31 | 2:03.01 | 247156 | 256381
23 | 56:58.32 | 3:21.47 | 256382 | 271503
24 | 60:20.04 | 2:23.63 | 271504 | 282291
25 | 62:43.67 | 3:37.66 | 282292 | 298632
26 | 66:21.58 | 2:46.46 | 298633 | 311128
27 | 69:08.29 | 2:24.55 | 311129 | 321983
28 | 71:33.09 | 2:38.03 | 321984 | 333836


Track 1

Filename C:\_new\The Ethiopians {2003} Train to Skaville [cd1] [flac]\01 - Ethiopians , Free Man.wav

Pre-gap length 0:00:02.00

Peak level 95.5 %
Track quality 100.0 %
Test CRC 16F777BE
Copy CRC 16F777BE
Track not present in AccurateRip database
Copy OK

Track 2

Filename C:\_new\The Ethiopians {2003} Train to Skaville [cd1] [flac]\02 - Ethiopians , Owe Me No Pay Me.wav

Pre-gap length 0:00:00.74

Peak level 95.5 %
Track quality 100.0 %
Test CRC DAB724F2
Copy CRC DAB724F2
Track not present in AccurateRip database
Copy OK

Track 3

Filename C:\_new\The Ethiopians {2003} Train to Skaville [cd1] [flac]\03 - Ethiopians , Train to Skaville.wav

Pre-gap length 0:00:00.01

Peak level 95.5 %
Track quality 100.0 %
Test CRC 22542B1C
Copy CRC 22542B1C
Track not present in AccurateRip database
Copy OK

Track 4

Filename C:\_new\The Ethiopians {2003} Train to Skaville [cd1] [flac]\04 - Ethiopians , I Need You.wav

Pre-gap length 0:00:00.01

Peak level 95.5 %
Track quality 100.0 %
Test CRC 83BF8715
Copy CRC 83BF8715
Track not present in AccurateRip database
Copy OK

Track 5

Filename C:\_new\The Ethiopians {2003} Train to Skaville [cd1] [flac]\05 - Ethiopians , The Whip.wav

Pre-gap length 0:00:00.15

Peak level 95.5 %
Track quality 99.9 %
Test CRC 878E97EF
Copy CRC 878E97EF
Track not present in AccurateRip database
Copy OK

Track 6

Filename C:\_new\The Ethiopians {2003} Train to Skaville [cd1] [flac]\06 - Ethiopians , Cool It Amigo.wav

Pre-gap length 0:00:00.01

Peak level 95.5 %
Track quality 99.9 %
Test CRC DE2E00C4
Copy CRC DE2E00C4
Track not present in AccurateRip database
Copy OK

Track 7

Filename C:\_new\The Ethiopians {2003} Train to Skaville [cd1] [flac]\07 - Ethiopians , Stay Loose Mama.wav

Pre-gap length 0:00:01.00

Peak level 95.5 %
Track quality 100.0 %
Test CRC 8349B8EE
Copy CRC 8349B8EE
Track not present in AccurateRip database
Copy OK

Track 8

Filename C:\_new\The Ethiopians {2003} Train to Skaville [cd1] [flac]\08 - Ethiopians , The World Goes Ska.wav

Pre-gap length 0:00:01.00

Peak level 95.5 %
Track quality 99.9 %
Test CRC F590E333
Copy CRC F590E333
Track not present in AccurateRip database
Copy OK

Track 9

Filename C:\_new\The Ethiopians {2003} Train to Skaville [cd1] [flac]\09 - Ethiopians , Come On Now.wav

Pre-gap length 0:00:01.00

Peak level 95.5 %
Track quality 100.0 %
Test CRC 59543303
Copy CRC 59543303
Track not present in AccurateRip database
Copy OK

Track 10

Filename C:\_new\The Ethiopians {2003} Train to Skaville [cd1] [flac]\10 - Ethiopians , Give Me Your Love.wav

Pre-gap length 0:00:00.27

Peak level 95.5 %
Track quality 100.0 %
Test CRC 05FCE9EA
Copy CRC 05FCE9EA
Track not present in AccurateRip database
Copy OK

Track 11

Filename C:\_new\The Ethiopians {2003} Train to Skaville [cd1] [flac]\11 - Ethiopians , You Got The Dough.wav

Pre-gap length 0:00:01.03

Peak level 95.5 %
Track quality 100.0 %
Test CRC 04E0DABF
Copy CRC 04E0DABF
Track not present in AccurateRip database
Copy OK

Track 12

Filename C:\_new\The Ethiopians {2003} Train to Skaville [cd1] [flac]\12 - Ethiopians , Engine 54.wav

Pre-gap length 0:00:00.06

Peak level 98.8 %
Track quality 100.0 %
Test CRC 62C74D56
Copy CRC 62C74D56
Track not present in AccurateRip database
Copy OK

Track 13

Filename C:\_new\The Ethiopians {2003} Train to Skaville [cd1] [flac]\13 - Ethiopians , Train to Glory.wav

Pre-gap length 0:00:00.01

Peak level 95.5 %
Track quality 100.0 %
Test CRC B5C73EBD
Copy CRC B5C73EBD
Track not present in AccurateRip database
Copy OK

Track 14

Filename C:\_new\The Ethiopians {2003} Train to Skaville [cd1] [flac]\14 - Ethiopians , Fire A Muss Muss Tail.wav

Pre-gap length 0:00:01.00

Peak level 95.5 %
Track quality 100.0 %
Test CRC 5FE77AAE
Copy CRC 5FE77AAE
Track not present in AccurateRip database
Copy OK

Track 15

Filename C:\_new\The Ethiopians {2003} Train to Skaville [cd1] [flac]\15 - Ethiopians , Reggae Hit The Town.wav

Pre-gap length 0:00:01.02

Peak level 95.5 %
Track quality 100.0 %
Test CRC 4A5C0C48
Copy CRC 4A5C0C48
Track not present in AccurateRip database
Copy OK

Track 16

Filename C:\_new\The Ethiopians {2003} Train to Skaville [cd1] [flac]\16 - Ethiopians , I'm Not A King.wav

Pre-gap length 0:00:01.00

Peak level 95.5 %
Track quality 100.0 %
Test CRC C65E2949
Copy CRC C65E2949
Track not present in AccurateRip database
Copy OK

Track 17

Filename C:\_new\The Ethiopians {2003} Train to Skaville [cd1] [flac]\17 - Ethiopians , Not Me.wav

Pre-gap length 0:00:00.74

Peak level 95.5 %
Track quality 100.0 %
Test CRC A45ED508
Copy CRC A45ED508
Track not present in AccurateRip database
Copy OK

Track 18

Filename C:\_new\The Ethiopians {2003} Train to Skaville [cd1] [flac]\18 - Ethiopians , Everything Crash.wav

Pre-gap length 0:00:00.74

Peak level 95.5 %
Track quality 100.0 %
Test CRC 0D3A5C9D
Copy CRC 0D3A5C9D
Track not present in AccurateRip database
Copy OK

Track 19

Filename C:\_new\The Ethiopians {2003} Train to Skaville [cd1] [flac]\19 - Ethiopians , Hong Kong Flu.wav

Pre-gap length 0:00:01.01

Peak level 95.5 %
Track quality 100.0 %
Test CRC 3FA97770
Copy CRC 3FA97770
Track not present in AccurateRip database
Copy OK

Track 20

Filename C:\_new\The Ethiopians {2003} Train to Skaville [cd1] [flac]\20 - Ethiopians , Feel The Spirit.wav

Pre-gap length 0:00:01.00

Peak level 95.5 %
Track quality 100.0 %
Test CRC 12BE56F6
Copy CRC 12BE56F6
Track not present in AccurateRip database
Copy OK

Track 21

Filename C:\_new\The Ethiopians {2003} Train to Skaville [cd1] [flac]\21 - Ethiopians , What A Fire.wav

Pre-gap length 0:00:01.00

Peak level 95.5 %
Track quality 100.0 %
Test CRC F9A81F03
Copy CRC F9A81F03
Track not present in AccurateRip database
Copy OK

Track 22

Filename C:\_new\The Ethiopians {2003} Train to Skaville [cd1] [flac]\22 - Ethiopians , Gun Man (aka You).wav

Pre-gap length 0:00:01.01

Peak level 95.5 %
Track quality 100.0 %
Test CRC EC323CFE
Copy CRC EC323CFE
Track not present in AccurateRip database
Copy OK

Track 23

Filename C:\_new\The Ethiopians {2003} Train to Skaville [cd1] [flac]\23 - Ethiopians , Everday Talking.wav

Pre-gap length 0:00:01.00

Peak level 95.5 %
Track quality 100.0 %
Test CRC C300ACE8
Copy CRC C300ACE8
Track not present in AccurateRip database
Copy OK

Track 24

Filename C:\_new\The Ethiopians {2003} Train to Skaville [cd1] [flac]\24 - Ethiopians , Woman Capture Man.wav

Pre-gap length 0:00:01.00

Peak level 95.5 %
Track quality 100.0 %
Test CRC 0FFA99E2
Copy CRC 0FFA99E2
Track not present in AccurateRip database
Copy OK

Track 25

Filename C:\_new\The Ethiopians {2003} Train to Skaville [cd1] [flac]\25 - Ethiopians , One (Heart, One Love).wav

Pre-gap length 0:00:01.00

Peak level 95.5 %
Track quality 100.0 %
Test CRC D78E24A5
Copy CRC D78E24A5
Track not present in AccurateRip database
Copy OK

Track 26

Filename C:\_new\The Ethiopians {2003} Train to Skaville [cd1] [flac]\26 - Ethiopians , Well Red.wav

Pre-gap length 0:00:01.02

Peak level 95.5 %
Track quality 100.0 %
Test CRC 1319062F
Copy CRC 1319062F
Track not present in AccurateRip database
Copy OK

Track 27

Filename C:\_new\The Ethiopians {2003} Train to Skaville [cd1] [flac]\27 - Ethiopians , My Testimony.wav

Pre-gap length 0:00:01.00

Peak level 95.5 %
Track quality 100.0 %
Test CRC 0CBB0E4E
Copy CRC 0CBB0E4E
Track not present in AccurateRip database
Copy OK

Track 28

Filename C:\_new\The Ethiopians {2003} Train to Skaville [cd1] [flac]\28 - Ethiopians , Buss Your Mouth (aka Contention).wav

Pre-gap length 0:00:01.00

Peak level 95.5 %
Track quality 99.6 %
Test CRC C2508894
Copy CRC C2508894
Track not present in AccurateRip database
Copy OK


None of the tracks are present in the AccurateRip database

No errors occurred

End of status report

foobar2000 1.2 / Dynamic Range Meter 1.1.1
log date: 2015-10-01 15:19:35

––––––––––––––––––––––––––––––––––––––––
Analyzed: The Ethiopians / Train to Skaville [cd1]
––––––––––––––––––––––––––––––––––––––––

DR Peak RMS Duration Track
––––––––––––––––––––––––––––––––––––––––
DR8 -0.40 dB -9.20 dB 2:38 01-Free Man
DR7 -0.40 dB -8.25 dB 2:30 02-Owe Me No Pay Me
DR9 -0.40 dB -9.66 dB 2:51 03-Train to Skaville
DR8 -0.40 dB -9.82 dB 2:28 04-I Need You
DR6 -0.40 dB -8.05 dB 3:00 05-The Whip
DR6 -0.40 dB -8.24 dB 2:35 06-Cool It Amigo
DR8 -0.40 dB -10.00 dB 2:42 07-Stay Loose Mama
DR8 -0.40 dB -9.21 dB 2:46 08-The World Goes Ska
DR8 -0.40 dB -9.94 dB 3:06 09-Come On Now
DR7 -0.40 dB -8.55 dB 2:11 10-Give Me Your Love
DR6 -0.40 dB -7.53 dB 3:15 11-You Got The Dough
DR9 -0.10 dB -10.12 dB 2:38 12-Engine 54
DR8 -0.40 dB -9.35 dB 2:55 13-Train to Glory
DR6 -0.40 dB -7.89 dB 2:20 14-Fire A Muss Muss Tail
DR8 -0.40 dB -9.77 dB 2:26 15-Reggae Hit The Town
DR7 -0.40 dB -8.27 dB 2:06 16-I'm Not A King
DR7 -0.40 dB -9.04 dB 2:31 17-Not Me
DR9 -0.40 dB -9.89 dB 2:33 18-Everything Crash
DR9 -0.40 dB -10.05 dB 2:18 19-Hong Kong Flu
DR9 -0.40 dB -10.40 dB 2:26 20-Feel The Spirit
DR8 -0.40 dB -9.85 dB 2:40 21-What A Fire
DR8 -0.40 dB -9.55 dB 2:03 22-Gun Man (aka You)
DR8 -0.40 dB -9.83 dB 3:22 23-Everday Talking
DR7 -0.40 dB -9.04 dB 2:24 24-Woman Capture Man
DR11 -0.40 dB -12.10 dB 3:38 25-One (Heart, One Love)
DR7 -0.40 dB -8.25 dB 2:47 26-Well Red
DR9 -0.40 dB -10.48 dB 2:25 27-My Testimony
DR10 -0.40 dB -11.07 dB 2:38 28-Buss Your Mouth (aka Contention)
––––––––––––––––––––––––––––––––––––––––

Number of tracks: 28
Official DR value: DR8

Samplerate: 44100 Hz
Channels: 2
Bits per sample: 16
Bitrate: 526 kbps
Codec: FLAC
================================================================================


Exact Audio Copy V0.99 prebeta 4 from 23. January 2008

EAC extraction logfile from 20. December 2008, 0:15

The Ethiopians / Train To Skaville Anthology 1966 To 1975 (Disc 2)

Used drive : HL-DT-STDVDRAM GSA-4163B Adapter: 1 ID: 0

Read mode : Secure
Utilize accurate stream : Yes
Defeat audio cache : Yes
Make use of C2 pointers : No

Read offset correction : 667
Overread into Lead-In and Lead-Out : No
Fill up missing offset samples with silence : Yes
Delete leading and trailing silent blocks : No
Null samples used in CRC calculations : Yes
Used interface : Native Win32 interface for Win NT & 2000
Gap handling : Appended to previous track

Used output format : Internal WAV Routines
Sample format : 44.100 Hz; 16 Bit; Stereo


TOC of the extracted CD

Track | Start | Length | Start sector | End sector
––––––––––––––––––––––––––––-
1 | 0:00.00 | 2:31.57 | 0 | 11381
2 | 2:31.57 | 2:37.65 | 11382 | 23221
3 | 5:09.47 | 2:26.48 | 23222 | 34219
4 | 7:36.20 | 2:10.34 | 34220 | 44003
5 | 9:46.54 | 2:57.60 | 44004 | 57338
6 | 12:44.39 | 2:22.05 | 57339 | 67993
7 | 15:06.44 | 3:05.26 | 67994 | 81894
8 | 18:11.70 | 2:25.21 | 81895 | 92790
9 | 20:37.16 | 2:16.51 | 92791 | 103041
10 | 22:53.67 | 2:32.53 | 103042 | 114494
11 | 25:26.45 | 2:48.05 | 114495 | 127099
12 | 28:14.50 | 2:45.15 | 127100 | 139489
13 | 30:59.65 | 2:11.58 | 139490 | 149372
14 | 33:11.48 | 3:05.32 | 149373 | 163279
15 | 36:17.05 | 3:23.31 | 163280 | 178535
16 | 39:40.36 | 3:15.05 | 178536 | 193165
17 | 42:55.41 | 3:09.41 | 193166 | 207381
18 | 46:05.07 | 2:31.20 | 207382 | 218726
19 | 48:36.27 | 2:15.49 | 218727 | 228900
20 | 50:52.01 | 2:56.06 | 228901 | 242106
21 | 53:48.07 | 1:59.37 | 242107 | 251068
22 | 55:47.44 | 2:59.16 | 251069 | 264509
23 | 58:46.60 | 3:18.56 | 264510 | 279415
24 | 62:05.41 | 3:00.21 | 279416 | 292936
25 | 65:05.62 | 2:38.42 | 292937 | 304828
26 | 67:44.29 | 3:12.35 | 304829 | 319263
27 | 70:56.64 | 2:10.60 | 319264 | 329073
28 | 73:07.49 | 3:00.34 | 329074 | 342607


Track 1

Filename C:\_new\The Ethiopians {2003} Train to Skaville [cd1] [flac]\cd2\01 - Ethiopians , Things A Get Bad To Worse.wav

Pre-gap length 0:00:02.00

Peak level 95.5 %
Track quality 99.9 %
Test CRC 61FCB154
Copy CRC 61FCB154
Track not present in AccurateRip database
Copy OK

Track 2

Filename C:\_new\The Ethiopians {2003} Train to Skaville [cd1] [flac]\cd2\02 - Ethiopians , Mek You Go On So.wav

Pre-gap length 0:00:00.22

Peak level 95.5 %
Track quality 100.0 %
Test CRC 420CCF4B
Copy CRC 420CCF4B
Track not present in AccurateRip database
Copy OK

Track 3

Filename C:\_new\The Ethiopians {2003} Train to Skaville [cd1] [flac]\cd2\03 - Ethiopians , Wreck It Up.wav

Pre-gap length 0:00:01.12

Peak level 95.5 %
Track quality 100.0 %
Test CRC 341244A1
Copy CRC 341244A1
Track not present in AccurateRip database
Copy OK

Track 4

Filename C:\_new\The Ethiopians {2003} Train to Skaville [cd1] [flac]\cd2\04 - Ethiopians , Hang On (aka Don't Let It Go).wav

Pre-gap length 0:00:00.74

Peak level 95.5 %
Track quality 100.0 %
Test CRC C162461D
Copy CRC C162461D
Track not present in AccurateRip database
Copy OK

Track 5

Filename C:\_new\The Ethiopians {2003} Train to Skaville [cd1] [flac]\cd2\05 - Ethiopians , I'll Never Get Burnt.wav

Pre-gap length 0:00:00.74

Peak level 95.5 %
Track quality 100.0 %
Test CRC 2DD25EC8
Copy CRC 2DD25EC8
Track not present in AccurateRip database
Copy OK

Track 6

Filename C:\_new\The Ethiopians {2003} Train to Skaville [cd1] [flac]\cd2\06 - Ethiopians , Drop Him.wav

Pre-gap length 0:00:00.74

Peak level 95.5 %
Track quality 100.0 %
Test CRC F920D7E0
Copy CRC F920D7E0
Track not present in AccurateRip database
Copy OK

Track 7

Filename C:\_new\The Ethiopians {2003} Train to Skaville [cd1] [flac]\cd2\07 - Ethiopians , Mother's Tender Care.wav

Pre-gap length 0:00:00.73

Peak level 98.8 %
Track quality 100.0 %
Test CRC 8046C77C
Copy CRC 8046C77C
Track not present in AccurateRip database
Copy OK

Track 8

Filename C:\_new\The Ethiopians {2003} Train to Skaville [cd1] [flac]\cd2\08 - Ethiopians , Condition A Bad A Yard.wav

Pre-gap length 0:00:00.74

Peak level 95.5 %
Track quality 100.0 %
Test CRC 6356E6AC
Copy CRC 6356E6AC
Track not present in AccurateRip database
Copy OK

Track 9

Filename C:\_new\The Ethiopians {2003} Train to Skaville [cd1] [flac]\cd2\09 - Ethiopians , Praise Far I.wav

Pre-gap length 0:00:00.74

Peak level 95.5 %
Track quality 100.0 %
Test CRC 44A1BF94
Copy CRC 44A1BF94
Track not present in AccurateRip database
Copy OK

Track 10

Filename C:\_new\The Ethiopians {2003} Train to Skaville [cd1] [flac]\cd2\10 - Ethiopians , No Baptism.wav

Pre-gap length 0:00:00.74

Peak level 95.5 %
Track quality 100.0 %
Test CRC AFF8DC35
Copy CRC AFF8DC35
Track not present in AccurateRip database
Copy OK

Track 11

Filename C:\_new\The Ethiopians {2003} Train to Skaville [cd1] [flac]\cd2\11 - Ethiopians , Good Ambition.wav

Pre-gap length 0:00:01.01

Peak level 95.5 %
Track quality 100.0 %
Test CRC C62C60B9
Copy CRC C62C60B9
Track not present in AccurateRip database
Copy OK

Track 12

Filename C:\_new\The Ethiopians {2003} Train to Skaville [cd1] [flac]\cd2\12 - Ethiopians , Lot Wife.wav

Pre-gap length 0:00:00.74

Peak level 95.5 %
Track quality 100.0 %
Test CRC 6FC8387F
Copy CRC 6FC8387F
Track not present in AccurateRip database
Copy OK

Track 13

Filename C:\_new\The Ethiopians {2003} Train to Skaville [cd1] [flac]\cd2\13 - Ethiopians , He's Not A Rebel.wav

Pre-gap length 0:00:00.74

Peak level 95.5 %
Track quality 100.0 %
Test CRC 0ABC0621
Copy CRC 0ABC0621
Track not present in AccurateRip database
Copy OK

Track 14

Filename C:\_new\The Ethiopians {2003} Train to Skaville [cd1] [flac]\cd2\14 - Ethiopians , The Selah.wav

Pre-gap length 0:00:00.74

Peak level 95.5 %
Track quality 100.0 %
Test CRC 6960925A
Copy CRC 6960925A
Track not present in AccurateRip database
Copy OK

Track 15

Filename C:\_new\The Ethiopians {2003} Train to Skaville [cd1] [flac]\cd2\15 - Ethiopians , Sad News.wav

Pre-gap length 0:00:00.74

Peak level 95.5 %
Track quality 100.0 %
Test CRC 9A781411
Copy CRC 9A781411
Track not present in AccurateRip database
Copy OK

Track 16

Filename C:\_new\The Ethiopians {2003} Train to Skaville [cd1] [flac]\cd2\16 - Ethiopians , Solid As A Rock.wav

Pre-gap length 0:00:00.74

Peak level 95.5 %
Track quality 100.0 %
Test CRC 267496CE
Copy CRC 267496CE
Track not present in AccurateRip database
Copy OK

Track 17

Filename C:\_new\The Ethiopians {2003} Train to Skaville [cd1] [flac]\cd2\17 - Ethiopians , I Need Someone.wav

Pre-gap length 0:00:00.74

Peak level 95.5 %
Track quality 100.0 %
Test CRC 67CAC2AE
Copy CRC 67CAC2AE
Track not present in AccurateRip database
Copy OK

Track 18

Filename C:\_new\The Ethiopians {2003} Train to Skaville [cd1] [flac]\cd2\18 - Ethiopians , Pirate.wav

Pre-gap length 0:00:00.28

Peak level 95.5 %
Track quality 100.0 %
Test CRC A20CDEF9
Copy CRC A20CDEF9
Track not present in AccurateRip database
Copy OK

Track 19

Filename C:\_new\The Ethiopians {2003} Train to Skaville [cd1] [flac]\cd2\19 - Ethiopians , Israel Want To Be free.wav

Pre-gap length 0:00:00.73

Peak level 95.5 %
Track quality 100.0 %
Test CRC 07AFFEBB
Copy CRC 07AFFEBB
Track not present in AccurateRip database
Copy OK

Track 20

Filename C:\_new\The Ethiopians {2003} Train to Skaville [cd1] [flac]\cd2\20 - Ethiopians , Promises.wav

Pre-gap length 0:00:00.74

Suspicious position 0:00:18 - 0:00:19

Peak level 95.5 %
Track quality 99.4 %
Test CRC 6165571D
Copy CRC 82F4D124
Track not present in AccurateRip database
Copy finished

Track 21

Filename C:\_new\The Ethiopians {2003} Train to Skaville [cd1] [flac]\cd2\21 - Ethiopians , The Ring.wav

Pre-gap length 0:00:00.72

Peak level 95.5 %
Track quality 100.0 %
Test CRC BEB7EF46
Copy CRC BEB7EF46
Track not present in AccurateRip database
Copy OK

Track 22

Filename C:\_new\The Ethiopians {2003} Train to Skaville [cd1] [flac]\cd2\22 - Ethiopians , The Word Is Love.wav

Pre-gap length 0:00:00.74

Peak level 95.5 %
Track quality 100.0 %
Test CRC D3FCC0F3
Copy CRC D3FCC0F3
Track not present in AccurateRip database
Copy OK

Track 23

Filename C:\_new\The Ethiopians {2003} Train to Skaville [cd1] [flac]\cd2\23 - Ethiopians , Hail Brother Rasta, Hail.wav

Pre-gap length 0:00:00.74

Peak level 95.5 %
Track quality 100.0 %
Test CRC C25A6B3D
Copy CRC C25A6B3D
Track not present in AccurateRip database
Copy OK

Track 24

Filename C:\_new\The Ethiopians {2003} Train to Skaville [cd1] [flac]\cd2\24 - Ethiopians , (I Want To Be A) Better Man.wav

Pre-gap length 0:00:00.74

Peak level 95.5 %
Track quality 100.0 %
Test CRC DE3B2321
Copy CRC DE3B2321
Track not present in AccurateRip database
Copy OK

Track 25

Filename C:\_new\The Ethiopians {2003} Train to Skaville [cd1] [flac]\cd2\25 - Ethiopians , Conquering Lion.wav

Pre-gap length 0:00:00.73

Peak level 95.5 %
Track quality 100.0 %
Test CRC C135673E
Copy CRC C135673E
Track not present in AccurateRip database
Copy OK

Track 26

Filename C:\_new\The Ethiopians {2003} Train to Skaville [cd1] [flac]\cd2\26 - Ethiopians , Band Yu Belly.wav

Peak level 95.5 %
Track quality 100.0 %
Test CRC 1C7ED47F
Copy CRC 1C7ED47F
Track not present in AccurateRip database
Copy OK

Track 27

Filename C:\_new\The Ethiopians {2003} Train to Skaville [cd1] [flac]\cd2\27 - Ethiopians , Knowledge Is Power.wav

Pre-gap length 0:00:00.74

Peak level 95.5 %
Track quality 100.0 %
Test CRC E47687A5
Copy CRC E47687A5
Track not present in AccurateRip database
Copy OK

Track 28

Filename C:\_new\The Ethiopians {2003} Train to Skaville [cd1] [flac]\cd2\28 - Ethiopians , Another Moses.wav

Pre-gap length 0:00:00.74

Peak level 95.5 %
Track quality 99.7 %
Test CRC 5EFC78F9
Copy CRC 5EFC78F9
Track not present in AccurateRip database
Copy OK


None of the tracks are present in the AccurateRip database

There were errors

End of status report

foobar2000 1.2 / Dynamic Range Meter 1.1.1
log date: 2015-10-01 15:19:53

––––––––––––––––––––––––––––––––––––––––
Analyzed: The Ethiopians / Train to Skaville [cd2]
––––––––––––––––––––––––––––––––––––––––

DR Peak RMS Duration Track
––––––––––––––––––––––––––––––––––––––––
DR8 -0.40 dB -9.99 dB 2:32 01-Things A Get Bad To Worse
DR6 -0.40 dB -7.41 dB 2:38 02-Mek You Go On So
DR9 -0.40 dB -10.46 dB 2:27 03-Wreck It Up
DR8 -0.40 dB -9.35 dB 2:10 04-Hang On (aka Don't Let It Go)
DR9 -0.40 dB -10.36 dB 2:58 05-I'll Never Get Burnt
DR8 -0.40 dB -9.60 dB 2:22 06-Drop Him
DR10 -0.10 dB -11.20 dB 3:05 07-Mother's Tender Care
DR9 -0.40 dB -10.10 dB 2:25 08-Condition A Bad A Yard
DR8 -0.40 dB -9.08 dB 2:17 09-Praise Far I
DR8 -0.40 dB -9.32 dB 2:33 10-No Baptism
DR7 -0.40 dB -8.81 dB 2:48 11-Good Ambition
DR9 -0.40 dB -10.33 dB 2:45 12-Lot Wife
DR9 -0.40 dB -9.82 dB 2:12 13-He's Not A Rebel
DR9 -0.40 dB -10.83 dB 3:05 14-The Selah
DR7 -0.40 dB -8.77 dB 3:23 15-Sad News
DR10 -0.40 dB -11.54 dB 3:15 16-Solid As A Rock
DR8 -0.40 dB -9.66 dB 3:10 17-I Need Someone
DR11 -0.40 dB -12.16 dB 2:31 18-Pirate
DR9 -0.40 dB -10.37 dB 2:16 19-Israel Want To Be free
DR8 -0.40 dB -9.45 dB 2:56 20-Promises
DR8 -0.40 dB -9.88 dB 1:59 21-The Ring
DR8 -0.40 dB -9.06 dB 2:59 22-The Word Is Love
DR9 -0.40 dB -10.37 dB 3:19 23-Hail Brother Rasta, Hail
DR7 -0.40 dB -8.42 dB 3:00 24-(I Want To Be A) Better Man
DR7 -0.40 dB -8.61 dB 2:39 25-Conquering Lion
DR9 -0.40 dB -9.90 dB 3:12 26-Band Yu Belly
DR8 -0.40 dB -9.28 dB 2:11 27-Knowledge Is Power
DR8 -0.40 dB -9.46 dB 3:00 28-Another Moses
––––––––––––––––––––––––––––––––––––––––

Number of tracks: 28
Official DR value: DR8

Samplerate: 44100 Hz
Channels: 2
Bits per sample: 16
Bitrate: 487 kbps
Codec: FLAC
================================================================================

The Ethiopians - Train To Skaville: Anthology 1966 To 1975 (2001)

The Ethiopians - Train To Skaville: Anthology 1966 To 1975 (2001)

All thanks to original releaser - motor956

More interesting music in My Blog