Subcategories
Tags
Language
Tags

The Big Hustle - Worldwide (2016) {Musicast Distribution}

Posted By: tiburon
The Big Hustle - Worldwide (2016) {Musicast Distribution}

The Big Hustle - Worldwide (2016) {Musicast Distribution}
EAC 1.3 | FLAC tracks level 8 | Cue+Log+M3U | Full Scans 300dpi | 507MB + 5% Recovery
MP3 CBR 320 Kbps | 184MB + 5% Recovery
Genre: Jazz, Jazz Funk, Fusion, R&B

Worldwide est le nouvel album du groupe parisien The Big Hustle. Avec un son très marqué funk, ses 11 titres font des incursions dans la soul, le rock, le hip hop… Emmenés par le bassiste Sébastien Levanneur, les musiciens - qu’on a bien envie d’appeler les « hustlers » - sont des aguerris de la scène française. Depuis, plusieurs années, ils travaillent avec des artistes ou des groupes comme Malted Milk, Beat Assailant, Manu Dibango… Ils sont influencés par le funk et le jazz électrique de ces dix dernières années (Lettuce, Soulive, Snarky Puppy, Electro Deluxe). Et ça s’entend !
Track List
01. Kool
02. Masters of Hustlers (with Beat Assailant)
03. Detroit Girl
04. For Lorell
05. Make your Life Wonderful (with Nina Attal)
06. Ma-Jan
07. Love for League
08. I need to be a Hustler (with Melissa McMillan)
09. Daijoubu
10. After Hours
11. Never be mine (with Jo Champ)

musicians
Philippe Devin : Guitar
Bruno Pimienta : Drums
François Faure : Keyboards
Gabriel Druot : Percussions
Olivier Bridot : Trumpet
Sylvain Fetis : Tenor Sax
Jerome Cornélis : Alto Sax
Sébastien Levanneur : Bass
Sarah Fezzani : vocals
Honorary members and funky friends : Thomas Faure, Benjamin Delarue, Benjamin Petit, Saad El Garrab, Diego Lipnizky, Francis Arnaud, Loic Gayot, Minh Pham, Belkacem Meziane, Romain Berguin, Yannick Soccal, Samuel Maingaud, Jeremie Bernard, Guillaume Sené, Cédric Ricard, Laurian Daire, Jo Champ, Enrico Mattioli

Produced by Sébastien Levanneur


Exact Audio Copy V1.3 from 2. September 2016

EAC extraction logfile from 27. October 2016, 19:41

The Big Hustle / Worldwide

Used drive : ATAPI iHBS112 2 Adapter: 1 ID: 1

Read mode : Secure
Utilize accurate stream : Yes
Defeat audio cache : Yes
Make use of C2 pointers : No

Read offset correction : 6
Overread into Lead-In and Lead-Out : No
Fill up missing offset samples with silence : Yes
Delete leading and trailing silent blocks : No
Null samples used in CRC calculations : Yes
Used interface : Native Win32 interface for Win NT & 2000
Gap handling : Appended to previous track

Used output format : User Defined Encoder
Selected bitrate : 128 kBit/s
Quality : High
Add ID3 tag : No
Command line compressor : C:\Program Files (x86)\Exact Audio Copy\Flac\flac.exe
Additional command line options : -8 -V -T "ARTIST=%artist%" -T "TITLE=%title%" -T "ALBUM=%albumtitle%" -T "DATE=%year%" -T "TRACKNUMBER=%tracknr%" -T "GENRE=%genre%" -T "PERFORMER=%albuminterpret%" -T "COMPOSER=%composer%" -T "ALBUMARTIST=%albumartist%" -T "DISCNUMBER=%cdnumber%" -T "TOTALDISCS=%totalcds%" -T "TOTALTRACKS=%numtracks%" -T "COMMENT=EAC Secure Mode, Test & Copy, AccurateRip, FLAC -8" %source% -o %dest%


TOC of the extracted CD

Track | Start | Length | Start sector | End sector
––––––––––––––––––––––––––––-
1 | 0:00.00 | 5:32.64 | 0 | 24963
2 | 5:32.64 | 6:30.17 | 24964 | 54230
3 | 12:03.06 | 5:55.03 | 54231 | 80858
4 | 17:58.09 | 7:15.40 | 80859 | 113523
5 | 25:13.49 | 4:51.03 | 113524 | 135351
6 | 30:04.52 | 6:54.16 | 135352 | 166417
7 | 36:58.68 | 8:12.04 | 166418 | 203321
8 | 45:10.72 | 4:04.07 | 203322 | 221628
9 | 49:15.04 | 8:27.70 | 221629 | 259723
10 | 57:42.74 | 7:40.57 | 259724 | 294280
11 | 65:23.56 | 6:33.26 | 294281 | 323781


Track 1

Filename D:\DL\The Big Hustle - Worldwide (2016) [FLAC]\01 - Kool.wav

Pre-gap length 0:00:02.00

Peak level 98.8 %
Extraction speed 2.3 X
Track quality 100.0 %
Test CRC EF73700B
Copy CRC EF73700B
Track not present in AccurateRip database
Copy OK

Track 2

Filename D:\DL\The Big Hustle - Worldwide (2016) [FLAC]\02 - Master Of Hustlers (With Beat Assailant).wav

Peak level 98.8 %
Extraction speed 2.6 X
Track quality 100.0 %
Test CRC 28C976EC
Copy CRC 28C976EC
Track not present in AccurateRip database
Copy OK

Track 3

Filename D:\DL\The Big Hustle - Worldwide (2016) [FLAC]\03 - Detroit Girl.wav

Peak level 98.8 %
Extraction speed 2.9 X
Track quality 100.0 %
Test CRC 5E799CD2
Copy CRC 5E799CD2
Track not present in AccurateRip database
Copy OK

Track 4

Filename D:\DL\The Big Hustle - Worldwide (2016) [FLAC]\04 - For Lorell.wav

Peak level 98.8 %
Extraction speed 3.2 X
Track quality 100.0 %
Test CRC E4D45C23
Copy CRC E4D45C23
Track not present in AccurateRip database
Copy OK

Track 5

Filename D:\DL\The Big Hustle - Worldwide (2016) [FLAC]\05 - Make Your Life Wonderful (With Nina Attal).wav

Peak level 98.8 %
Extraction speed 3.3 X
Track quality 100.0 %
Test CRC 792814A4
Copy CRC 792814A4
Track not present in AccurateRip database
Copy OK

Track 6

Filename D:\DL\The Big Hustle - Worldwide (2016) [FLAC]\06 - Ma-Jan.wav

Peak level 98.8 %
Extraction speed 3.7 X
Track quality 100.0 %
Test CRC F6BE461F
Copy CRC F6BE461F
Track not present in AccurateRip database
Copy OK

Track 7

Filename D:\DL\The Big Hustle - Worldwide (2016) [FLAC]\07 - Love For League.wav

Peak level 98.8 %
Extraction speed 3.9 X
Track quality 100.0 %
Test CRC 56B0DFF6
Copy CRC 56B0DFF6
Track not present in AccurateRip database
Copy OK

Track 8

Filename D:\DL\The Big Hustle - Worldwide (2016) [FLAC]\08 - I Need To Be A Hustler (With Melissa McMillan).wav

Peak level 98.8 %
Extraction speed 3.9 X
Track quality 100.0 %
Test CRC EBE7881F
Copy CRC EBE7881F
Track not present in AccurateRip database
Copy OK

Track 9

Filename D:\DL\The Big Hustle - Worldwide (2016) [FLAC]\09 - Daijoubu.wav

Peak level 98.8 %
Extraction speed 3.7 X
Track quality 99.9 %
Test CRC 29418F66
Copy CRC 29418F66
Track not present in AccurateRip database
Copy OK

Track 10

Filename D:\DL\The Big Hustle - Worldwide (2016) [FLAC]\10 - After Hours.wav

Peak level 98.8 %
Extraction speed 3.4 X
Track quality 99.9 %
Test CRC 97D6BE6D
Copy CRC 97D6BE6D
Track not present in AccurateRip database
Copy OK

Track 11

Filename D:\DL\The Big Hustle - Worldwide (2016) [FLAC]\11 - Never Be Mine (With Jo Champ).wav

Peak level 98.8 %
Extraction speed 3.3 X
Track quality 99.9 %
Test CRC 6C04127C
Copy CRC 6C04127C
Track not present in AccurateRip database
Copy OK


None of the tracks are present in the AccurateRip database

No errors occurred

End of status report

–– CUETools DB Plugin V2.1.6

[CTDB TOCID: caVTcacTvBdaDdgYoztoez0XYik-] disk not present in database
Submit result: caVTcacTvBdaDdgYoztoez0XYik- has been uploaded


==== Log checksum C98B395969D068B240929B3B7A8AA3367DA09ED164A3D57CA2A37EBC53485210 ====


––––––––––––––––––––––––––––––––––––––––
Analyzed: The Big Hustle / Worldwide
––––––––––––––––––––––––––––––––––––––––

DR Peak RMS Duration Track
––––––––––––––––––––––––––––––––––––––––
DR6 -0.10 dB -8.03 dB 5:33 01-Kool
DR7 -0.10 dB -8.78 dB 6:30 02-Master Of Hustlers (With Beat Assailant)
DR6 -0.10 dB -7.89 dB 5:55 03-Detroit Girl
DR6 -0.10 dB -8.51 dB 7:16 04-For Lorell
DR6 -0.10 dB -7.54 dB 4:51 05-Make Your Life Wonderful (With Nina Attal)
DR6 -0.10 dB -8.68 dB 6:54 06-Ma-Jan
DR6 -0.10 dB -7.76 dB 8:12 07-Love For League
DR6 -0.10 dB -7.46 dB 4:04 08-I Need To Be A Hustler (With Melissa McMillan)
DR6 -0.10 dB -7.26 dB 8:28 09-Daijoubu
DR6 -0.10 dB -7.40 dB 7:41 10-After Hours
DR6 -0.10 dB -9.28 dB 6:33 11-Never Be Mine (With Jo Champ)
––––––––––––––––––––––––––––––––––––––––

Number of tracks: 11
Official DR value: DR6

Samplerate: 44100 Hz
Channels: 2
Bits per sample: 16
Bitrate: 869 kbps
Codec: FLAC
================================================================================

The Big Hustle - Worldwide (2016) {Musicast Distribution}
The Big Hustle - Worldwide (2016) {Musicast Distribution}


Thanks to the original ripper