Tags
Language
Tags

The Crazy World Of Arthur Brown - The Crazy World Of Arthur Brown (1968) [Japanese Edition 2006]

Posted By: gribovar
The Crazy World Of Arthur Brown - The Crazy World Of Arthur Brown (1968) [Japanese Edition 2006]

The Crazy World Of Arthur Brown - The Crazy World Of Arthur Brown (1968) [Japanese Edition 2006]
EAC Rip | FLAC (tracks+.cue+log) - 371 MB | Covers - 77 MB
Genre: Progressive/Psychedelic Rock | RAR 3% Rec. | Label: Universal Music (UICY-93182)

Though a bit over the top, this album was still powerful and surprisingly melodic, and managed to be quite bluesy and soulful even as the band overhauled chestnuts by James Brown and Screamin' Jay Hawkins. "Spontaneous Apple Creation" is a willfully histrionic, atonal song that gives Captain Beefheart a run for his money. Though this one-shot was not (and perhaps could not ever be) repeated, it remains an exhilaratingly reckless slice of psychedelia.

Tracklist:
01. Prelude - Nightmare
02. Fanfare - Fire Poem
03. Fire
04. Come & Buy
05. Time
06. Confusion
07. I Put A Spell On You
08. Spontaneous Apple Creation
09. Rest Cure
10. I've Got Money
11. Child Of My Kingdom

Bonus tracks:
12. Prelude - Nightmare (Mono Version)
13. Fanfare - Fire Poem (Mono Version)
14. Fire (Mono Version)
15. Come And Buy (Mono Version)
16. Time / Confusion (Mono Version)

Total time: 58:00

Exact Audio Copy V1.0 beta 4 from 7. December 2014

EAC extraction logfile from 22. October 2015, 21:45

The Crazy World of Arthur Brown / The Crazy World of Arthur Brown (Remaster Bonus Tracks)

Used drive : hp CDDVDW SN-208FB Adapter: 0 ID: 0

Read mode : Secure
Utilize accurate stream : Yes
Defeat audio cache : Yes
Make use of C2 pointers : No

Read offset correction : 6
Overread into Lead-In and Lead-Out : No
Fill up missing offset samples with silence : Yes
Delete leading and trailing silent blocks : No
Null samples used in CRC calculations : Yes
Used interface : Installed external ASPI interface
Gap handling : Appended to previous track

Used output format : User Defined Encoder
Selected bitrate : 1024 kBit/s
Quality : High
Add ID3 tag : No
Command line compressor : C:\Program Files (x86)\Exact Audio Copy\flac.exe
Additional command line options : -T "artist=%artist%" -T "title=%title%" -T "album=%albumtitle%" -T "date=%year%" -T "tracknumber=%tracknr%" -T "genre=%genre%" -5 %source%


TOC of the extracted CD

Track | Start | Length | Start sector | End sector
––––––––––––––––––––––––––––-
1 | 0:00.00 | 3:28.33 | 0 | 15632
2 | 3:28.33 | 1:51.19 | 15633 | 23976
3 | 5:19.52 | 2:56.08 | 23977 | 37184
4 | 8:15.60 | 5:42.05 | 37185 | 62839
5 | 13:57.65 | 3:03.71 | 62840 | 76635
6 | 17:01.61 | 2:10.41 | 76636 | 86426
7 | 19:12.27 | 3:45.00 | 86427 | 103301
8 | 22:57.27 | 2:58.65 | 103302 | 116716
9 | 25:56.17 | 2:48.20 | 116717 | 129336
10 | 28:44.37 | 3:12.49 | 129337 | 143785
11 | 31:57.11 | 7:06.53 | 143786 | 175788
12 | 39:03.64 | 3:49.28 | 175789 | 192991
13 | 42:53.17 | 2:01.60 | 192992 | 202126
14 | 44:55.02 | 3:01.50 | 202127 | 215751
15 | 47:56.52 | 5:05.56 | 215752 | 238682
16 | 53:02.33 | 4:57.69 | 238683 | 261026


Track 1

Filename C:\Users\Nelson Souto\Desktop\The Crazy World Of Arthur Brown\(01) The Crazy World of Arthur Brown - Prelude-Nightmare .wav

Pre-gap length 0:00:02.00

Peak level 99.8 %
Extraction speed 2.0 X
Track quality 100.0 %
Test CRC 5E84B941
Copy CRC 5E84B941
Cannot be verified as accurate (confidence 2) [0DA05BB0], AccurateRip returned [6B3C3E48] (AR v2)
Copy OK

Track 2

Filename C:\Users\Nelson Souto\Desktop\The Crazy World Of Arthur Brown\(02) The Crazy World of Arthur Brown - Fanfare-Fire Poem .wav

Peak level 99.8 %
Extraction speed 1.9 X
Track quality 100.0 %
Test CRC 335FB6C4
Copy CRC 335FB6C4
Cannot be verified as accurate (confidence 2) [09B450C5], AccurateRip returned [9C6BB24B] (AR v2)
Copy OK

Track 3

Filename C:\Users\Nelson Souto\Desktop\The Crazy World Of Arthur Brown\(03) The Crazy World of Arthur Brown - Fire .wav

Peak level 99.8 %
Extraction speed 2.2 X
Track quality 100.0 %
Test CRC C7071B37
Copy CRC C7071B37
Cannot be verified as accurate (confidence 2) [B51F4A5A], AccurateRip returned [AF002712] (AR v2)
Copy OK

Track 4

Filename C:\Users\Nelson Souto\Desktop\The Crazy World Of Arthur Brown\(04) The Crazy World of Arthur Brown - Come And Buy .wav

Pre-gap length 0:00:02.13

Peak level 99.8 %
Extraction speed 2.7 X
Track quality 100.0 %
Test CRC 744F88E8
Copy CRC 744F88E8
Cannot be verified as accurate (confidence 2) [54DB7CCF], AccurateRip returned [165551D0] (AR v2)
Copy OK

Track 5

Filename C:\Users\Nelson Souto\Desktop\The Crazy World Of Arthur Brown\(05) The Crazy World of Arthur Brown - Time .wav

Pre-gap length 0:00:01.14

Peak level 99.8 %
Extraction speed 2.0 X
Track quality 99.9 %
Test CRC 51A9F5AC
Copy CRC 51A9F5AC
Cannot be verified as accurate (confidence 2) [38523B73], AccurateRip returned [446AF6D3] (AR v2)
Copy OK

Track 6

Filename C:\Users\Nelson Souto\Desktop\The Crazy World Of Arthur Brown\(06) The Crazy World of Arthur Brown - Confusion .wav

Peak level 99.8 %
Extraction speed 2.5 X
Track quality 100.0 %
Test CRC 6251448F
Copy CRC 6251448F
Cannot be verified as accurate (confidence 2) [0F240473], AccurateRip returned [80825A32] (AR v2)
Copy OK

Track 7

Filename C:\Users\Nelson Souto\Desktop\The Crazy World Of Arthur Brown\(07) The Crazy World of Arthur Brown - I Put A Spell On You .wav

Pre-gap length 0:00:02.28

Peak level 99.8 %
Extraction speed 2.9 X
Track quality 100.0 %
Test CRC 4C2C5EA7
Copy CRC 4C2C5EA7
Cannot be verified as accurate (confidence 2) [7B2E0C30], AccurateRip returned [6AF96E33] (AR v2)
Copy OK

Track 8

Filename C:\Users\Nelson Souto\Desktop\The Crazy World Of Arthur Brown\(08) The Crazy World of Arthur Brown - Spontaneous Apple Creation .wav

Pre-gap length 0:00:03.09

Peak level 99.8 %
Extraction speed 2.9 X
Track quality 100.0 %
Test CRC A71E226C
Copy CRC A71E226C
Cannot be verified as accurate (confidence 2) [78460FEB], AccurateRip returned [A541717E] (AR v2)
Copy OK

Track 9

Filename C:\Users\Nelson Souto\Desktop\The Crazy World Of Arthur Brown\(09) The Crazy World of Arthur Brown - Rest Cure .wav

Pre-gap length 0:00:03.70

Peak level 99.8 %
Extraction speed 2.9 X
Track quality 100.0 %
Test CRC EA00CF4C
Copy CRC EA00CF4C
Cannot be verified as accurate (confidence 2) [418B7763], AccurateRip returned [E8660A17] (AR v2)
Copy OK

Track 10

Filename C:\Users\Nelson Souto\Desktop\The Crazy World Of Arthur Brown\(10) The Crazy World of Arthur Brown - I've Got Money .wav

Pre-gap length 0:00:03.96

Peak level 99.8 %
Extraction speed 3.2 X
Track quality 100.0 %
Test CRC 8C774170
Copy CRC 8C774170
Cannot be verified as accurate (confidence 2) [4BDF391E], AccurateRip returned [B9B40419] (AR v2)
Copy OK

Track 11

Filename C:\Users\Nelson Souto\Desktop\The Crazy World Of Arthur Brown\(11) The Crazy World of Arthur Brown - Child Of My Kingdom .wav

Pre-gap length 0:00:02.28

Peak level 99.8 %
Extraction speed 3.6 X
Track quality 100.0 %
Test CRC 0B1DBA58
Copy CRC 0B1DBA58
Cannot be verified as accurate (confidence 2) [920BCAEA], AccurateRip returned [DDFA8F9F] (AR v2)
Copy OK

Track 12

Filename C:\Users\Nelson Souto\Desktop\The Crazy World Of Arthur Brown\(12) The Crazy World of Arthur Brown - Prelude-Nightmare (Mono Version) [Bonus] .wav

Pre-gap length 0:00:04.82

Peak level 99.8 %
Extraction speed 2.8 X
Track quality 99.9 %
Test CRC 284D2730
Copy CRC 284D2730
Cannot be verified as accurate (confidence 2) [4F14D4DE], AccurateRip returned [3D64A99B] (AR v2)
Copy OK

Track 13

Filename C:\Users\Nelson Souto\Desktop\The Crazy World Of Arthur Brown\(13) The Crazy World of Arthur Brown - Fanfare-Fire Poem (Mono Version) [Bonus] .wav

Peak level 99.8 %
Extraction speed 2.3 X
Track quality 99.9 %
Test CRC FB896E18
Copy CRC FB896E18
Cannot be verified as accurate (confidence 2) [2FE17821], AccurateRip returned [652B784D] (AR v2)
Copy OK

Track 14

Filename C:\Users\Nelson Souto\Desktop\The Crazy World Of Arthur Brown\(14) The Crazy World of Arthur Brown - Fire (Mono Version) [Bonus] .wav

Peak level 99.8 %
Extraction speed 3.5 X
Track quality 100.0 %
Test CRC 6D5DA777
Copy CRC 6D5DA777
Cannot be verified as accurate (confidence 2) [18BFD2C6], AccurateRip returned [B43A60D9] (AR v2)
Copy OK

Track 15

Filename C:\Users\Nelson Souto\Desktop\The Crazy World Of Arthur Brown\(15) The Crazy World of Arthur Brown - Come And Buy (Mono Version) [Bonus] .wav

Peak level 99.8 %
Extraction speed 3.3 X
Track quality 99.9 %
Test CRC BFE688B0
Copy CRC BFE688B0
Cannot be verified as accurate (confidence 2) [D92FA486], AccurateRip returned [31C73451] (AR v2)
Copy OK

Track 16

Filename C:\Users\Nelson Souto\Desktop\The Crazy World Of Arthur Brown\(16) The Crazy World of Arthur Brown - Time,Confusion (mono Version) [Bonus] .wav

Peak level 99.8 %
Extraction speed 4.1 X
Track quality 100.0 %
Test CRC CB8343BA
Copy CRC CB8343BA
Cannot be verified as accurate (confidence 2) [D57CB41C], AccurateRip returned [694D4913] (AR v2)
Copy OK


No tracks could be verified as accurate
You may have a different pressing from the one(s) in the database

No errors occurred

End of status report

–– CUETools DB Plugin V2.1.4

[CTDB TOCID: LsMz4_BlBlsuGe6nBQYd2Ud1C4Q-] found
Submit result: LsMz4_BlBlsuGe6nBQYd2Ud1C4Q- has been confirmed
Track | CTDB Status
1 | (3/3) Accurately ripped
2 | (3/3) Accurately ripped
3 | (3/3) Accurately ripped
4 | (3/3) Accurately ripped
5 | (3/3) Accurately ripped
6 | (3/3) Accurately ripped
7 | (3/3) Accurately ripped
8 | (3/3) Accurately ripped
9 | (3/3) Accurately ripped
10 | (3/3) Accurately ripped
11 | (3/3) Accurately ripped
12 | (3/3) Accurately ripped
13 | (3/3) Accurately ripped
14 | (3/3) Accurately ripped
15 | (3/3) Accurately ripped
16 | (3/3) Accurately ripped


==== Log checksum D87500EAFC5BA08C30C303D988849E548E11720C5AFD783421C896DDFB950A1A ====

[CUETools log; Date: 25.07.2019 14:45:28; Version: 2.1.4]
[CTDB TOCID: LsMz4_BlBlsuGe6nBQYd2Ud1C4Q-] found.
Track | CTDB Status
1 | (9/9) Accurately ripped
2 | (9/9) Accurately ripped
3 | (9/9) Accurately ripped
4 | (9/9) Accurately ripped
5 | (9/9) Accurately ripped
6 | (9/9) Accurately ripped
7 | (9/9) Accurately ripped
8 | (9/9) Accurately ripped
9 | (9/9) Accurately ripped
10 | (9/9) Accurately ripped
11 | (9/9) Accurately ripped
12 | (9/9) Accurately ripped
13 | (9/9) Accurately ripped
14 | (8/9) Accurately ripped
15 | (9/9) Accurately ripped
16 | (9/9) Accurately ripped
[AccurateRip ID: 001fc5a2-01826875-f10d9810] found.
Track [ CRC | V2 ] Status
01 [c49dc098|0da05bb0] (0+0/2) No match
02 [a6511f9b|09b450c5] (0+0/2) No match
03 [cdb63e4d|b51f4a5a] (0+0/2) No match
04 [68e75b23|54db7ccf] (0+0/2) No match
05 [04bd8ef7|38523b73] (0+0/2) No match
06 [fafe3478|0f240473] (0+0/2) No match
07 [e0df0351|7b2e0c30] (0+0/2) No match
08 [c32b5fcf|78460feb] (0+0/2) No match
09 [75d75500|418b7763] (0+0/2) No match
10 [39917cbb|4bdf391e] (0+0/2) No match
11 [22f2caa0|920bcaea] (0+0/2) No match
12 [983c05c4|4f14d4de] (0+0/2) No match
13 [75e57b0a|2fe17821] (0+0/2) No match
14 [f25bae95|18bfd2c6] (0+0/2) No match
15 [c1a8dcc2|d92fa486] (0+0/2) No match
16 [6b5cfad2|d57cb41c] (0+0/2) No match
Offsetted by 48:
01 [1d6ad818] (0/2) No match (V2 was not tested)
02 [373c1a2b] (0/2) No match (V2 was not tested)
03 [d28b0245] (0/2) No match (V2 was not tested)
04 [40192e53] (0/2) No match (V2 was not tested)
05 [06b56156] (0/2) No match (V2 was not tested)
06 [7466ca89] (0/2) No match (V2 was not tested)
07 [deb87d61] (0/2) No match (V2 was not tested)
08 [fb21758f] (0/2) No match (V2 was not tested)
09 [2702f380] (0/2) No match (V2 was not tested)
10 [b35fb0cb] (0/2) No match (V2 was not tested)
11 [8965db40] (0/2) No match (V2 was not tested)
12 [92428c66] (0/2) No match (V2 was not tested)
13 [abaeca08] (0/2) No match (V2 was not tested)
14 [92af48f8] (0/2) No match (V2 was not tested)
15 [1508936f] (0/2) No match (V2 was not tested)
16 [074b070f] (0/2) No match (V2 was not tested)

Track Peak [ CRC32 ] [W/O NULL] [ LOG ]
– 99,8 [AE1DBAE0] [4B355CED]
01 99,8 [5E84B941] [F55C3E25] CRC32
02 99,8 [335FB6C4] [5B74ED58] CRC32
03 99,8 [C7071B37] [35C3D427] CRC32
04 99,8 [744F88E8] [94354198] CRC32
05 99,8 [51A9F5AC] [900C057E] CRC32
06 99,8 [6251448F] [8D184698] CRC32
07 99,8 [4C2C5EA7] [F1877D28] CRC32
08 99,8 [A71E226C] [D5896A39] CRC32
09 99,8 [EA00CF4C] [7C9E1173] CRC32
10 99,8 [8C774170] [53062108] CRC32
11 99,8 [0B1DBA58] [B9D158CB] CRC32
12 99,8 [284D2730] [D7DB80DF] CRC32
13 99,8 [FB896E18] [199A094A] CRC32
14 99,8 [6D5DA777] [4EAA2DBF] CRC32
15 99,8 [BFE688B0] [7364FB5B] CRC32
16 99,8 [CB8343BA] [2A38915D] CRC32

Thanks to nelwizard