Subcategories
Tags
Language
Tags

The Crazy World of Arthur Brown - Vampire Suite (2003)

Posted By: gribovar
The Crazy World of Arthur Brown - Vampire Suite (2003)

The Crazy World of Arthur Brown - Vampire Suite (2003)
EAC Rip | FLAC (image+.cue+log) - 563 MB | MP3 CBR 320 kbps (LAME 3.93) - 247 MB | Covers - 22 MB
Genre: Progressive/Psychedelic Rock | RAR 3% Rec. | Label: Fastune/Track Records (TRA1035)

This release from 2003 offers 54 minutes of modern rock, while the second disc features 51 minutes of verbal fiction. A solid horn section augments a traditional rock ensemble: searing guitar, rumbling bass, durable drumming, and partytime keyboards. Passages of cafe piano lend a sedate romantic flair to the tunes, while sinuous electronics balance the music with futuristic embellishment. The core of power revolves around Brown's masterful vocals. His voice can be sultry and seductive one minute, only to soar to stratospheric heights the next, trembling the soul and scraping the ceiling of heaven. His soulful crooning delves past the audience's eardrums, burrowing deep into the heart to churn with evocative vigor and generate emotional responses of monumental scope.
The compositions are suitably complex while retaining the fundamental structure of most classic rock'n'roll. Elements of jazz cook in the lively mix, along with pop hooks and tribal African rhythms and spooky moods steeped in a nightclub demeanor.
The concept behind this music is simple: examining the lifestyle and pursuits of bloodsucking vampires in the modern world. Their behavior is not always dark and murderous, as Brown explores the deeper emotional ruminations of these creatures of the night. Their struggle to fit into the civilized world is as gripping as that of the average citizen. They are troubled by global politics just like you. They suffer lost loves and economic setbacks and cultural disappointments too.
The bonus disc features Brown doing a gripping reading of the tale told by the music. While following the gist of the tunes, this prose explores more visceral aspects of vampiric life. The short novel is well written, and Brown's commanding voice delivers an engaging reading of the tasty material.

CD 1 Tracklist:
01. Introsuction
02. Vampire Club
03. SAS
04. Africa
05. Maybe My Soul
06. In This Love
07. Confession
08. Vampire Love
09. Completion
10. Divers
11. Re Vamp Your Soul
12. Isness Is My Business
13. Stay

Total time: 54:08

CD 2 Tracklist:
01. Chapter 1, Dialogue
02. Chapter 2, Dialogue
03. Chapter 3, Dialogue
04. Chapter 4, Dialogue
05. Chapter 5, Dialogue
06. Chapter 6, Dialogue
07. Chapter 7, Dialogue
08. Chapter 8, Dialogue
09. Chapter 9, Dialogue

Total time: 50:46

Exact Audio Copy V0.99 prebeta 4 from 23. January 2008

EAC extraction logfile from 30. July 2011, 11:18

The Crazy World of Artur Brown / Vampire Suite

Used drive : PLEXTOR DVDR PX-810SA Adapter: 3 ID: 3

Read mode : Secure
Utilize accurate stream : Yes
Defeat audio cache : Yes
Make use of C2 pointers : No

Read offset correction : 48
Overread into Lead-In and Lead-Out : No
Fill up missing offset samples with silence : Yes
Delete leading and trailing silent blocks : No
Null samples used in CRC calculations : Yes
Used interface : Installed external ASPI interface

Used output format : User Defined Encoder
Selected bitrate : 1024 kBit/s
Quality : High
Add ID3 tag : No
Command line compressor : C:\Program Files\Exact Audio Copy\FLAC\FLAC.EXE
Additional command line options : -8 -V -T "ARTIST=%a" -T "TITLE=%t" -T "ALBUM=%g" -T "DATE=%y" -T "TRACKNUMBER=%n" -T "TOTALTRACKS=%x" -T "GENRE=%m" -T "ALBUM ARTIST=%v" -T "COMMENT=EAC Secure Mode, Test & Copy, AccurateRip, FLAC -8" %s


TOC of the extracted CD

Track | Start | Length | Start sector | End sector
––––––––––––––––––––––––––––-
1 | 0:00.00 | 0:48.29 | 0 | 3628
2 | 0:48.29 | 3:44.00 | 3629 | 20428
3 | 4:32.29 | 7:14.73 | 20429 | 53051
4 | 11:47.27 | 6:05.19 | 53052 | 80445
5 | 17:52.46 | 5:21.00 | 80446 | 104520
6 | 23:13.46 | 4:35.55 | 104521 | 125200
7 | 27:49.26 | 2:51.69 | 125201 | 138094
8 | 30:41.20 | 5:58.08 | 138095 | 164952
9 | 36:39.28 | 0:26.30 | 164953 | 166932
10 | 37:05.58 | 3:43.01 | 166933 | 183658
11 | 40:48.59 | 4:04.43 | 183659 | 202001
12 | 44:53.27 | 2:29.51 | 202002 | 213227
13 | 47:23.03 | 6:44.61 | 213228 | 243588


Range status and errors

Selected range

Filename D:\The Crazy World of Artur Brown - Vampire Suite.wav

Peak level 100.0 %
Range quality 100.0 %
Test CRC CC05F378
Copy CRC CC05F378
Copy OK

No errors occurred


AccurateRip summary

Track 1 cannot be verified as accurate (confidence 2) [D3300490], AccurateRip returned [23DE60F8]
Track 2 cannot be verified as accurate (confidence 2) [B65CBE2F], AccurateRip returned [ECE86A59]
Track 3 cannot be verified as accurate (confidence 2) [C0F69BCD], AccurateRip returned [7B7B2271]
Track 4 cannot be verified as accurate (confidence 2) [588B018F], AccurateRip returned [62F3E685]
Track 5 cannot be verified as accurate (confidence 2) [9A02CB88], AccurateRip returned [C7E32F53]
Track 6 cannot be verified as accurate (confidence 2) [538110CD], AccurateRip returned [24EF1BFE]
Track 7 cannot be verified as accurate (confidence 2) [3B9B5BA0], AccurateRip returned [282C9753]
Track 8 cannot be verified as accurate (confidence 2) [A1DBF380], AccurateRip returned [461943C6]
Track 9 cannot be verified as accurate (confidence 2) [F22964CE], AccurateRip returned [A5E88F63]
Track 10 cannot be verified as accurate (confidence 2) [68F4CE24], AccurateRip returned [6FE4D790]
Track 11 cannot be verified as accurate (confidence 2) [C3DFD177], AccurateRip returned [94C733F7]
Track 12 cannot be verified as accurate (confidence 2) [97F9888D], AccurateRip returned [1A62EA71]
Track 13 cannot be verified as accurate (confidence 2) [68F79305], AccurateRip returned [006C0094]

No tracks could be verified as accurate
You may have a different pressing from the one(s) in the database

End of status report

[CUETools log; Date: 16.06.2021 21:31:50; Version: 2.1.4]
[CTDB TOCID: J5UK2gMjDzfa9zsKMLvm.AYTJx4-] found.
Track | CTDB Status
1 | (15/15) Accurately ripped
2 | (15/15) Accurately ripped
3 | (15/15) Accurately ripped
4 | (15/15) Accurately ripped
5 | (15/15) Accurately ripped
6 | (15/15) Accurately ripped
7 | (15/15) Accurately ripped
8 | (15/15) Accurately ripped
9 | (15/15) Accurately ripped
10 | (15/15) Accurately ripped
11 | (15/15) Accurately ripped
12 | (15/15) Accurately ripped
13 | (15/15) Accurately ripped
[AccurateRip ID: 0019ef99-01047e33-a70caf0d] found.
Track [ CRC | V2 ] Status
01 [d3300490|b1581744] (02+00/09) Accurately ripped
02 [b65cbe2f|cea8ad68] (02+00/09) Accurately ripped
03 [c0f69bcd|1c74fd00] (02+00/09) Accurately ripped
04 [588b018f|67d87d22] (02+00/09) Accurately ripped
05 [9a02cb88|9a60d072] (02+00/09) Accurately ripped
06 [538110cd|73276b20] (02+00/09) Accurately ripped
07 [3b9b5ba0|12355eb0] (02+00/09) Accurately ripped
08 [a1dbf380|836a24cb] (02+00/09) Accurately ripped
09 [f22964ce|5a82d414] (02+00/11) Accurately ripped
10 [68f4ce24|620abe1d] (02+00/09) Accurately ripped
11 [c3dfd177|9a7df73b] (02+00/09) Accurately ripped
12 [97f9888d|67c6249f] (02+00/09) Accurately ripped
13 [68f79305|352cbb39] (02+00/09) Accurately ripped
Offsetted by 71:
01 [23de60f8] (02/09) Accurately ripped
02 [ece86a59] (02/09) Accurately ripped
03 [7b7b2271] (02/09) Accurately ripped
04 [62f3e685] (02/09) Accurately ripped
05 [c7e32f53] (02/09) Accurately ripped
06 [24ef1bfe] (02/09) Accurately ripped
07 [282c9753] (02/09) Accurately ripped
08 [461943c6] (02/09) Accurately ripped
09 [a5e88f63] (02/11) Accurately ripped
10 [6fe4d790] (02/09) Accurately ripped
11 [94c733f7] (02/09) Accurately ripped
12 [1a62ea71] (02/09) Accurately ripped
13 [006c0094] (02/09) Accurately ripped
Offsetted by -1314:
01 [408c6617] (00/09) No match
02 [c9f102ba] (00/09) No match
03 [d67a4587] (00/09) No match
04 [0b450b9b] (00/09) No match
05 [743d622e] (00/09) No match
06 [e4562494] (00/09) No match
07 [835f8b64] (00/09) No match
08 [575aa831] (00/09) No match
09 [21d5a471] (00/11) No match (V2 was not tested)
10 [beafbeae] (00/09) No match (V2 was not tested)
11 [e32d9415] (00/09) No match
12 [81c82ada] (00/09) No match
13 [a0451745] (00/09) No match
Offsetted by 6:
01 [47061058] (00/09) No match (V2 was not tested)
02 [8520a759] (00/09) No match (V2 was not tested)
03 [9901ed27] (00/09) No match (V2 was not tested)
04 [f0dbfbab] (00/09) No match (V2 was not tested)
05 [96ad31b6] (00/09) No match (V2 was not tested)
06 [002e04ba] (00/09) No match (V2 was not tested)
07 [5922ce23] (00/09) No match (V2 was not tested)
08 [ecc80d44] (00/09) No match (V2 was not tested)
09 [c04a562a] (00/11) No match (V2 was not tested)
10 [35c438bb] (00/09) No match (V2 was not tested)
11 [be622d5b] (00/09) No match (V2 was not tested)
12 [b7192912] (00/09) No match (V2 was not tested)
13 [5e140f31] (00/09) No match (V2 was not tested)

Track Peak [ CRC32 ] [W/O NULL] [ LOG ]
– 100,0 [CC05F378] [6034039C] CRC32
01 54,1 [BAB52135] [37A5DFE6]
02 93,1 [13474BA0] [42DDC44C]
03 91,7 [71EB47B5] [82B7E08E]
04 99,3 [9B8C378D] [7F1C62BC]
05 100,0 [A83713CA] [8EAE0465]
06 88,9 [0BDA93A2] [F48B375B]
07 71,3 [49B63ADE] [E605483D]
08 89,1 [A69AD765] [F1B4B8FD]
09 75,5 [6A9C56CE] [B8E24193]
10 99,5 [6F4F360D] [17088620]
11 89,3 [D94E3909] [26CB3CA0]
12 79,9 [9EB32D3B] [A13D980C]
13 85,0 [6D1C27B3] [420EA7CD]

Exact Audio Copy V0.99 prebeta 4 from 23. January 2008

EAC extraction logfile from 30. July 2011, 11:49

Arthur Brown / Vampire Suite CD2

Used drive : PLEXTOR DVDR PX-810SA Adapter: 3 ID: 3

Read mode : Secure
Utilize accurate stream : Yes
Defeat audio cache : Yes
Make use of C2 pointers : No

Read offset correction : 48
Overread into Lead-In and Lead-Out : No
Fill up missing offset samples with silence : Yes
Delete leading and trailing silent blocks : No
Null samples used in CRC calculations : Yes
Used interface : Installed external ASPI interface

Used output format : User Defined Encoder
Selected bitrate : 1024 kBit/s
Quality : High
Add ID3 tag : No
Command line compressor : C:\Program Files\Exact Audio Copy\FLAC\FLAC.EXE
Additional command line options : -8 -V -T "ARTIST=%a" -T "TITLE=%t" -T "ALBUM=%g" -T "DATE=%y" -T "TRACKNUMBER=%n" -T "TOTALTRACKS=%x" -T "GENRE=%m" -T "ALBUM ARTIST=%v" -T "COMMENT=EAC Secure Mode, Test & Copy, AccurateRip, FLAC -8" %s


TOC of the extracted CD

Track | Start | Length | Start sector | End sector
––––––––––––––––––––––––––––-
1 | 0:00.00 | 6:40.29 | 0 | 30028
2 | 6:40.29 | 6:44.03 | 30029 | 60331
3 | 13:24.32 | 6:13.04 | 60332 | 88310
4 | 19:37.36 | 6:49.42 | 88311 | 119027
5 | 26:27.03 | 6:22.22 | 119028 | 147699
6 | 32:49.25 | 5:07.36 | 147700 | 170760
7 | 37:56.61 | 5:10.63 | 170761 | 194073
8 | 43:07.49 | 6:30.13 | 194074 | 223336
9 | 49:37.62 | 1:08.32 | 223337 | 228468


Range status and errors

Selected range

Filename D:\Arthur Brown - Vampire Suite CD2.wav

Peak level 100.0 %
Range quality 100.0 %
Test CRC D0CD5DFA
Copy CRC D0CD5DFA
Copy OK

No errors occurred


AccurateRip summary

Track 1 accurately ripped (confidence 1) [D138953C]
Track 2 accurately ripped (confidence 1) [4449A4B3]
Track 3 accurately ripped (confidence 1) [A1F30D48]
Track 4 accurately ripped (confidence 1) [FF676712]
Track 5 accurately ripped (confidence 1) [27DA9C25]
Track 6 accurately ripped (confidence 1) [B524732D]
Track 7 accurately ripped (confidence 1) [C9D5CC60]
Track 8 accurately ripped (confidence 1) [4D8A2D38]
Track 9 accurately ripped (confidence 1) [BA000E66]

All tracks accurately ripped

End of status report

[CUETools log; Date: 16.06.2021 21:32:13; Version: 2.1.4]
[CTDB TOCID: OaWSQ5DkZGlTWxkMqggySdKzSUQ-] found.
Track | CTDB Status
1 | (12/12) Accurately ripped
2 | (12/12) Accurately ripped
3 | (12/12) Accurately ripped
4 | (12/12) Accurately ripped
5 | (12/12) Accurately ripped
6 | (12/12) Accurately ripped
7 | (12/12) Accurately ripped
8 | (12/12) Accurately ripped
9 | (12/12) Accurately ripped
[AccurateRip ID: 001341d9-008b2249-970be609] found.
Track [ CRC | V2 ] Status
01 [d138953c|5e14a726] (2+4/6) Accurately ripped
02 [4449a4b3|66b0e460] (2+4/6) Accurately ripped
03 [a1f30d48|53cf0d24] (2+4/6) Accurately ripped
04 [ff676712|a5152836] (2+4/6) Accurately ripped
05 [27da9c25|a6f4428d] (2+4/6) Accurately ripped
06 [b524732d|941c311d] (2+4/6) Accurately ripped
07 [c9d5cc60|3aab5e7a] (2+4/6) Accurately ripped
08 [4d8a2d38|e4fc9f2e] (2+4/6) Accurately ripped
09 [ba000e66|d784a3d9] (2+4/6) Accurately ripped

Track Peak [ CRC32 ] [W/O NULL] [ LOG ]
– 100,0 [D0CD5DFA] [8FE5CE53] CRC32
01 85,7 [AB8D9C20] [370EECB9]
02 89,4 [E2A98D00] [ED67882D]
03 73,9 [88D6A57E] [DC960167]
04 63,8 [B8650DF4] [6BF8ABD3]
05 80,8 [A6F98F0B] [19795965]
06 84,0 [0307068B] [905B9212]
07 100,0 [4781195D] [76D77A66]
08 82,2 [BC9BB46F] [0FAA7CA8]
09 64,1 [371EE3AB] [DAC4DEF8]

Thanks to ZuFal

See also: