Subcategories

The Dave Brubeck Quartet - Bossa Nova USA (1963)

Posted By: tiburon
The Dave Brubeck Quartet - Bossa Nova USA (1963)

The Dave Brubeck Quartet - Bossa Nova USA (1963)
EAC 1.0b3 | FLAC tracks level 8 | Cue+Log+M3U | Full Scans 300dpi | 434MB + 5% Recovery
Genre: Latin Jazz, Bossa Nova

This release presents the complete 1962 LP Bossa Nova U.S.A. (Columbia CL1998/CS9364), by the classic Dave Brubeck Quartet with Paul Desmond, Gene Wright and Joe Morello. Released during the bossa nova craze that took place in the United States in the early 1960s (when many renowned jazz performers also recorded their own blend of bossa and jazz), this was Brubeck’s contribution to the genre although it mostly consisted of the pianist’s own compositions. As a bonus, three songs that complete the album’s sessions, and four isolated tracks from the same period that constitute complete sessions in and of themselves.
Track List
01. Bossa Nova U.S.A
02. Vento Fresco
03. Trolley Song
04. Theme For June
05. Coração Sensivel (Tender Heart)
06. Irmão Amigo (Brother Friend)
07. There’ll Be No Tomorrow
08. Cantiga Nova Swing
09. Lamento
10. This Can’t Be Love
11. The Most Beautiful Girl In The World
12. Over And Over Again
13. Little Girl Blue
14. Fatha
15. My Romance
16. Why Can’t I?
17. The Circus On Parade

All tracks recorded in New York.
[2], [5-6] & [8-9] January 3, 1962. [3] & [10] July 5, 1962.
[4], [7] & [11] July 12, 1962. [1] & [12-13] October 25, 1962.

Bonus Tracks (Same personnel and location):
[11-13] From the same sessions but not included on the original LP.
[14] February 5, 1962. [15] June 11, 1962. [16-17] July 19, 1962.

musicians
Dave Brubeck - piano
Paul Desmond - alto sax
Gene Wright - bass
Joe Morello - drums


Exact Audio Copy V1.0 beta 3 from 29. August 2011

EAC extraction logfile from 16. February 2013, 19:28

The Dave Brubeck Quartet / Bossa Nova USA [Essential Jazz Classics EJC55578]

Used drive : PLEXTOR DVDR PX-L890SA Adapter: 2 ID: 1

Read mode : Secure
Utilize accurate stream : Yes
Defeat audio cache : Yes
Make use of C2 pointers : No

Read offset correction : 6
Overread into Lead-In and Lead-Out : No
Fill up missing offset samples with silence : Yes
Delete leading and trailing silent blocks : No
Null samples used in CRC calculations : Yes
Used interface : Native Win32 interface for Win NT & 2000
Gap handling : Appended to previous track

Used output format : User Defined Encoder
Selected bitrate : 256 kBit/s
Quality : High
Add ID3 tag : No
Command line compressor : C:\Program Files (x86)\Exact Audio Copy\FLAC\FLAC.EXE
Additional command line options : -8 -V -T "ARTIST=%artist%" -T "TITLE=%title%" -T "ALBUM=%albumtitle%" -T "DATE=%year%" -T "TRACKNUMBER=%tracknr%" -T "TOTALTRACKS=%numtracks%" -T "GENRE=%genre%" -T "ALBUMARTIST=%albumartist%" -T "ALBUM ARTIST=%albumartist%" -T "COMMENT=EAC Secure Mode, Test & Copy, AccurateRip, FLAC -8" %source%


TOC of the extracted CD

Track | Start | Length | Start sector | End sector
––––––––––––––––––––––––––––-
1 | 0:00.00 | 2:29.39 | 0 | 11213
2 | 2:29.39 | 3:34.70 | 11214 | 27333
3 | 6:04.34 | 3:08.46 | 27334 | 41479
4 | 9:13.05 | 4:20.37 | 41480 | 61016
5 | 13:33.42 | 4:17.33 | 61017 | 80324
6 | 17:51.00 | 3:26.44 | 80325 | 95818
7 | 21:17.44 | 5:46.41 | 95819 | 121809
8 | 27:04.10 | 2:50.50 | 121810 | 134609
9 | 29:54.60 | 4:48.67 | 134610 | 156276
10 | 34:43.52 | 6:49.44 | 156277 | 186995
11 | 41:33.21 | 5:21.05 | 186996 | 211075
12 | 46:54.26 | 4:02.74 | 211076 | 229299
13 | 50:57.25 | 5:31.66 | 229300 | 254190
14 | 56:29.16 | 3:47.53 | 254191 | 271268
15 | 60:16.69 | 6:52.33 | 271269 | 302201
16 | 67:09.27 | 6:53.74 | 302202 | 333250
17 | 74:03.26 | 3:15.23 | 333251 | 347898


Track 1

Filename F:\Flac Rips\01 - Bossa Nova USA.wav

Pre-gap length 0:00:02.00

Peak level 71.0 %
Extraction speed 3.4 X
Track quality 100.0 %
Test CRC AA24C8A9
Copy CRC AA24C8A9
Track not present in AccurateRip database
Copy OK

Track 2

Filename F:\Flac Rips\02 - Vento Fresco.wav

Peak level 66.0 %
Extraction speed 3.9 X
Track quality 100.0 %
Test CRC 3E413F76
Copy CRC 3E413F76
Track not present in AccurateRip database
Copy OK

Track 3

Filename F:\Flac Rips\03 - Trolley Song.wav

Peak level 72.1 %
Extraction speed 4.2 X
Track quality 100.0 %
Test CRC 8A9B39FF
Copy CRC 8A9B39FF
Track not present in AccurateRip database
Copy OK

Track 4

Filename F:\Flac Rips\04 - Theme For June.wav

Peak level 57.6 %
Extraction speed 4.6 X
Track quality 100.0 %
Test CRC 8EA7C371
Copy CRC 8EA7C371
Track not present in AccurateRip database
Copy OK

Track 5

Filename F:\Flac Rips\05 - Coracao Sensivel (Tender Heart).wav

Peak level 76.9 %
Extraction speed 5.0 X
Track quality 100.0 %
Test CRC B645600D
Copy CRC B645600D
Track not present in AccurateRip database
Copy OK

Track 6

Filename F:\Flac Rips\06 - Irmao Amigo (Brother Friend).wav

Peak level 89.1 %
Extraction speed 5.0 X
Track quality 100.0 %
Test CRC 9DEC5217
Copy CRC 9DEC5217
Track not present in AccurateRip database
Copy OK

Track 7

Filename F:\Flac Rips\07 - There'll Be No Tomorrow.wav

Peak level 71.2 %
Extraction speed 5.7 X
Track quality 100.0 %
Test CRC 62002FC7
Copy CRC 62002FC7
Track not present in AccurateRip database
Copy OK

Track 8

Filename F:\Flac Rips\08 - Cantiga Nova Swing.wav

Peak level 97.2 %
Extraction speed 4.0 X
Track quality 99.9 %
Test CRC F6EC5CB3
Copy CRC F6EC5CB3
Track not present in AccurateRip database
Copy OK

Track 9

Filename F:\Flac Rips\09 - Lamento.wav

Peak level 72.9 %
Extraction speed 6.1 X
Track quality 100.0 %
Test CRC 05A0B665
Copy CRC 05A0B665
Track not present in AccurateRip database
Copy OK

Track 10

Filename F:\Flac Rips\10 - This Can't Be Love.wav

Peak level 89.4 %
Extraction speed 6.7 X
Track quality 100.0 %
Test CRC E6BA5E35
Copy CRC E6BA5E35
Track not present in AccurateRip database
Copy OK

Track 11

Filename F:\Flac Rips\11 - The Most Beautiful Girl In The World.wav

Peak level 91.1 %
Extraction speed 6.8 X
Track quality 100.0 %
Test CRC 5E0E22A6
Copy CRC 5E0E22A6
Track not present in AccurateRip database
Copy OK

Track 12

Filename F:\Flac Rips\12 - Over and Over Again.wav

Peak level 89.1 %
Extraction speed 5.5 X
Track quality 99.9 %
Test CRC B7AE08A3
Copy CRC B7AE08A3
Track not present in AccurateRip database
Copy OK

Track 13

Filename F:\Flac Rips\13 - Little Girl Blue.wav

Peak level 85.6 %
Extraction speed 7.4 X
Track quality 100.0 %
Test CRC E0EC5A98
Copy CRC E0EC5A98
Track not present in AccurateRip database
Copy OK

Track 14

Filename F:\Flac Rips\14 - Fatha.wav

Peak level 94.1 %
Extraction speed 5.5 X
Track quality 99.9 %
Test CRC 09975392
Copy CRC 09975392
Track not present in AccurateRip database
Copy OK

Track 15

Filename F:\Flac Rips\15 - My Romance.wav

Peak level 90.8 %
Extraction speed 7.9 X
Track quality 100.0 %
Test CRC 104E71CF
Copy CRC 104E71CF
Track not present in AccurateRip database
Copy OK

Track 16

Filename F:\Flac Rips\16 - Why Can't I.wav

Peak level 87.2 %
Extraction speed 7.4 X
Track quality 99.9 %
Test CRC 6F030BC6
Copy CRC 6F030BC6
Track not present in AccurateRip database
Copy OK

Track 17

Filename F:\Flac Rips\17 - The Circus On Parade.wav

Peak level 94.7 %
Extraction speed 7.6 X
Track quality 100.0 %
Test CRC 375F1245
Copy CRC 375F1245
Track not present in AccurateRip database
Copy OK


None of the tracks are present in the AccurateRip database

No errors occurred

End of status report

==== Log checksum 822C7A810021090666FE93351135703C668CC8802249190CCBF9EC9B7870F80D ====


––––––––––––––––––––––––––––––––––––––––
Analyzed: The Dave Brubeck Quartet / Bossa Nova USA [Essential Jazz Classics EJC55578]
––––––––––––––––––––––––––––––––––––––––

DR Peak RMS Duration Track
––––––––––––––––––––––––––––––––––––––––
DR12 -2.97 dB -18.70 dB 2:30 01-Bossa Nova USA
DR12 -3.60 dB -20.03 dB 3:35 02-Vento Fresco
DR11 -2.83 dB -17.67 dB 3:09 03-Trolley Song
DR11 -4.78 dB -21.24 dB 4:20 04-Theme For June
DR11 -2.27 dB -17.79 dB 4:17 05-Coracao Sensivel (Tender Heart)
DR12 -0.99 dB -17.79 dB 3:27 06-Irmao Amigo (Brother Friend)
DR12 -2.95 dB -19.93 dB 5:47 07-There'll Be No Tomorrow
DR14 -0.24 dB -16.45 dB 2:51 08-Cantiga Nova Swing
DR12 -2.74 dB -18.97 dB 4:49 09-Lamento
DR13 -0.97 dB -17.28 dB 6:50 10-This Can't Be Love
DR11 -0.81 dB -15.14 dB 5:21 11-The Most Beautiful Girl In The World
DR12 -0.99 dB -16.32 dB 4:03 12-Over and Over Again
DR12 -1.35 dB -17.73 dB 5:32 13-Little Girl Blue
DR12 -0.52 dB -16.09 dB 3:48 14-Fatha
DR12 -0.84 dB -18.50 dB 6:52 15-My Romance
DR13 -1.19 dB -18.44 dB 6:54 16-Why Can't I?
DR12 -0.47 dB -13.95 dB 3:15 17-The Circus On Parade
––––––––––––––––––––––––––––––––––––––––

Number of tracks: 17
Official DR value: DR12

Samplerate: 44100 Hz
Channels: 2
Bits per sample: 16
Bitrate: 941 kbps
Codec: FLAC
================================================================================

The Dave Brubeck Quartet - Bossa Nova USA (1963)
The Dave Brubeck Quartet - Bossa Nova USA (1963)
The Dave Brubeck Quartet - Bossa Nova USA (1963)


Rip by jlgt