Tags
Language
Tags

The Dave Brubeck Quartet - Plays Music from West Side Story [Recorded 1960-1965] (1986)

Posted By: gribovar
The Dave Brubeck Quartet - Plays Music from West Side Story [Recorded 1960-1965] (1986)

The Dave Brubeck Quartet - Plays Music from West Side Story [Recorded 1960-1965] (1986)
EAC Rip | FLAC (tracks+.cue+log) - 220 MB | MP3 CBR 320 kbps (LAME 3.93) - 99 MB | Covers - 23 MB
Genre: Jazz | RAR 3% Rec. | Label: CBS/Columbia (CK 40455)

Music from West Side Story is a 1986 compilation album by Dave Brubeck and his quartet of music from Leonard Bernstein and Stephen Sondheim musical West Side Story, with other tracks taken from Brubeck's albums Bernstein Plays Brubeck Plays Bernstein (1960) and Anything Goes: The Music of Cole Porter (1966) and My Favorite Things (1965).
"Maria" done as a swinging, uptempo ballad, while "Tonight" becomes a jumping-off point for all concerned into a jazz excursion across several decades' worth of tunes. By contrast, "What Is This Thing Called Love?" is done in a slow, pensively lyrical, lilting fashion. Paul Desmond's playing shines every bit as much as Brubeck's, and the whole record - including the Cole Porter and Rodgers & Hart material - swings in some unexpected directions that still delight five-plus decades later.
Tracklist:
01. Maria
02. I Feel Pretty
03. Somewhere
04. A Quiet Girl
05. Tonight
06. What Is This Thing Called Love
07. The Most Beautiful Girl in the World
08. Night and Day
09. My Romance

Total time: 42:19

Exact Audio Copy V1.0 beta 3 from 29. August 2011

EAC extraction logfile from 2. November 2013, 12:55

Dave Brubeck Quartet / Music from West Side Story

Used drive : HL-DT-STDVDRAM GSA-T50N Adapter: 1 ID: 0

Read mode : Secure
Utilize accurate stream : Yes
Defeat audio cache : Yes
Make use of C2 pointers : No

Read offset correction : 667
Overread into Lead-In and Lead-Out : No
Fill up missing offset samples with silence : Yes
Delete leading and trailing silent blocks : No
Null samples used in CRC calculations : Yes
Used interface : Native Win32 interface for Win NT & 2000
Gap handling : Appended to previous track

Used output format : User Defined Encoder
Selected bitrate : 1024 kBit/s
Quality : High
Add ID3 tag : No
Command line compressor : C:\Program Files\Exact Audio Copy\Flac\flac.exe
Additional command line options : -8 -V -T "ARTIST=%artist%" -T "TITLE=%title%" -T "ALBUM=%albumtitle%" -T "DATE=%year%" -T "TRACKNUMBER=%tracknr%" -T "GENRE=%genre%" -T "PERFORMER=%albuminterpret%" -T "COMMENT=EAC V1.0 beta 2, Secure Mode, Test & Copy, AccurateRip, FLAC -8" %source% -o %dest%


TOC of the extracted CD

Track | Start | Length | Start sector | End sector
––––––––––––––––––––––––––––-
1 | 0:00.00 | 3:17.35 | 0 | 14809
2 | 3:17.35 | 5:10.50 | 14810 | 38109
3 | 8:28.10 | 4:16.12 | 38110 | 57321
4 | 12:44.22 | 2:22.58 | 57322 | 68029
5 | 15:07.05 | 3:49.07 | 68030 | 85211
6 | 18:56.12 | 6:17.20 | 85212 | 113506
7 | 25:13.32 | 5:19.65 | 113507 | 137496
8 | 30:33.22 | 4:56.28 | 137497 | 159724
9 | 35:29.50 | 6:49.00 | 159725 | 190399


Track 1

Filename C:\music\Musicgate's rips\Dave Brubeck Quartet - Music from West Side Story - 1986 (CBS)\01 - Maria.wav

Pre-gap length 0:00:02.00

Peak level 71.1 %
Extraction speed 2.3 X
Track quality 100.0 %
Test CRC CAF32901
Copy CRC CAF32901
Cannot be verified as accurate (confidence 3) [22BC8D78], AccurateRip returned [A576B413] (AR v2)
Copy OK

Track 2

Filename C:\music\Musicgate's rips\Dave Brubeck Quartet - Music from West Side Story - 1986 (CBS)\02 - I Feel Pretty.wav

Peak level 75.9 %
Extraction speed 2.7 X
Track quality 100.0 %
Test CRC B76B20B4
Copy CRC B76B20B4
Cannot be verified as accurate (confidence 3) [A8C8EFF9], AccurateRip returned [24FDF9EE] (AR v2)
Copy OK

Track 3

Filename C:\music\Musicgate's rips\Dave Brubeck Quartet - Music from West Side Story - 1986 (CBS)\03 - Somewhere.wav

Pre-gap length 0:00:01.74

Peak level 59.7 %
Extraction speed 2.9 X
Track quality 100.0 %
Test CRC AC26F66E
Copy CRC AC26F66E
Cannot be verified as accurate (confidence 3) [1DBC3A4D], AccurateRip returned [7C93AB24] (AR v2)
Copy OK

Track 4

Filename C:\music\Musicgate's rips\Dave Brubeck Quartet - Music from West Side Story - 1986 (CBS)\04 - A Quiet Girl.wav

Pre-gap length 0:00:00.22

Peak level 77.7 %
Extraction speed 2.3 X
Track quality 99.9 %
Test CRC 4E13B4A3
Copy CRC 4E13B4A3
Cannot be verified as accurate (confidence 3) [8F064708], AccurateRip returned [6EEC5024] (AR v2)
Copy OK

Track 5

Filename C:\music\Musicgate's rips\Dave Brubeck Quartet - Music from West Side Story - 1986 (CBS)\05 - Tonight.wav

Pre-gap length 0:00:01.09

Peak level 92.3 %
Extraction speed 2.8 X
Track quality 99.9 %
Test CRC 16A58F5B
Copy CRC 16A58F5B
Cannot be verified as accurate (confidence 3) [997976D4], AccurateRip returned [7C09953A] (AR v2)
Copy OK

Track 6

Filename C:\music\Musicgate's rips\Dave Brubeck Quartet - Music from West Side Story - 1986 (CBS)\06 - What is This Thing Called Love.wav

Peak level 64.1 %
Extraction speed 3.7 X
Track quality 100.0 %
Test CRC 18212842
Copy CRC 18212842
Cannot be verified as accurate (confidence 3) [0BD4F25B], AccurateRip returned [7C63CDCA] (AR v2)
Copy OK

Track 7

Filename C:\music\Musicgate's rips\Dave Brubeck Quartet - Music from West Side Story - 1986 (CBS)\07 - The Most Beautiful Girl in the World.wav

Peak level 79.7 %
Extraction speed 3.8 X
Track quality 100.0 %
Test CRC 193D1F23
Copy CRC 193D1F23
Cannot be verified as accurate (confidence 3) [1A3D0D70], AccurateRip returned [D3218CB2] (AR v2)
Copy OK

Track 8

Filename C:\music\Musicgate's rips\Dave Brubeck Quartet - Music from West Side Story - 1986 (CBS)\08 - Night and Day.wav

Peak level 83.6 %
Extraction speed 3.9 X
Track quality 100.0 %
Test CRC 9DB7B2B0
Copy CRC 9DB7B2B0
Cannot be verified as accurate (confidence 3) [D5DC86D7], AccurateRip returned [5271CE06] (AR v2)
Copy OK

Track 9

Filename C:\music\Musicgate's rips\Dave Brubeck Quartet - Music from West Side Story - 1986 (CBS)\09 - My Romance.wav

Peak level 69.0 %
Extraction speed 4.3 X
Track quality 100.0 %
Test CRC CB636A4E
Copy CRC CB636A4E
Cannot be verified as accurate (confidence 3) [1E8C9ED9], AccurateRip returned [D2813E6E] (AR v2)
Copy OK


No tracks could be verified as accurate
You may have a different pressing from the one(s) in the database

No errors occurred

End of status report

==== Log checksum 9EE700B7C5EDA15182F995737B169E6935C9DCF8ED1E1C2B2FB0FAE24D86AC81 ====

[CUETools log; Date: 24.04.2020 18:58:48; Version: 2.1.4]
[CTDB TOCID: WHUyFDOi6bnvZu8.t.oyGo21lZY-] found.
Track | CTDB Status
1 | (10/11) Accurately ripped
2 | (10/11) Accurately ripped
3 | (11/11) Accurately ripped
4 | (11/11) Accurately ripped
5 | (11/11) Accurately ripped
6 | (11/11) Accurately ripped
7 | (11/11) Accurately ripped
8 | (11/11) Accurately ripped
9 | (10/11) Accurately ripped
[AccurateRip ID: 000d3165-00629527-7109ea09] found.
Track [ CRC | V2 ] Status
01 [3cee7213|22bc8d78] (0+0/5) No match
02 [22006678|a8c8eff9] (0+0/5) No match
03 [d8461cb6|1dbc3a4d] (0+0/5) No match
04 [7ea5055e|8f064708] (0+0/6) No match
05 [283a4f02|997976d4] (0+0/5) No match
06 [f311455e|0bd4f25b] (0+0/5) No match
07 [3a8f6cf4|1a3d0d70] (0+0/5) No match
08 [5c60d740|d5dc86d7] (0+0/6) No match
09 [e0a79c30|1e8c9ed9] (0+2/8) Accurately ripped
Offsetted by -306:
01 [a576b413] (3/5) Accurately ripped
02 [24fdf9ee] (3/5) Accurately ripped
03 [7c93ab24] (3/5) Accurately ripped
04 [6eec5024] (3/6) Accurately ripped
05 [7c09953a] (3/5) Accurately ripped
06 [7c63cdca] (3/5) Accurately ripped
07 [d3218cb2] (3/5) Accurately ripped
08 [5271ce06] (3/6) Accurately ripped
09 [d2813e6e] (3/8) Accurately ripped

Track Peak [ CRC32 ] [W/O NULL] [ LOG ]
– 92,3 [744FD7F9] [61924BA1]
01 71,1 [CAF32901] [0DE83533] CRC32
02 75,9 [B76B20B4] [1C261EA6] CRC32
03 59,7 [AC26F66E] [9AEBB330] CRC32
04 77,7 [4E13B4A3] [771390FD] CRC32
05 92,3 [16A58F5B] [D378667D] CRC32
06 64,1 [18212842] [782E0B3E] CRC32
07 79,7 [193D1F23] [AFE626BC] CRC32
08 83,6 [9DB7B2B0] [AD88C992] CRC32
09 69,0 [CB636A4E] [73637CFA] CRC32

Thanks to Musicgate

See also:
Dave Brubeck Quartet - Jazz At... Pacific (1954) [Reissue 1997]
The Dave Brubeck Quartet - Jaz...And Cool (1955) [Reissue 2001]
Dave Brubeck Quartet - Brubeck Time (1955) [Reissue 2009]
Dave Brubeck - Brubeck Plays Brubeck (1956) [Reissue 2009]
The Dave Brubeck Quartet - Dave Digs Disney (1957) [Reissue 1994]
The Dave Brubeck Quartet - Gone With The Wind (1959) [Reissue 1990]
Dave Brubeck Quartet & Car...ht Only! (1960) [Reissue 2011]
Dave Brubeck Quartet - Near-Myth With Bill Smith (1961) [Reissue 1995]
Carmen McRae & Dave Brubeck - Take Five (1961) [Reissue 2009]
Dave Brubeck - The Real Ambassadors (1962) [Reissue 1994]
The Dave Brubeck Quartet - Jaz...of Japan (1964) [Reissue 2009]
Dave Brubeck - Jazz Impressions Of New York (1965) [Reissue 1990]
Dave Brubeck - We're All Together Again For The First Time (1973)
Dave Brubeck & Paul Desmon... Desmond (1982) [Reissue 1990]
The Dave Brubeck Quartet - Con...er Night (1982) [Reissue 2003]
Dave Brubeck Quartet Featuring Paul Desmond - Stardust (1983)
The Dave Brubeck Quartet - Reflections (1986)
The Dave Brubeck Quartet - Som...ll Come [Recorded 1965] (1993)
Dave Brubeck - Just You, Just Me (1994)
Dave Brubeck - Late Night Brubeck: Live from the Blue Note (1994)
Dave Brubeck - Young Lions & Old Tigers (1995)
Dave Brubeck - The Very Best (2000)
Dave Brubeck - Live with the LSO (2001)
Dave Brubeck - Early Concepts [Recorded 1948-1952] (2003)
Dave Brubeck - For All Time (1959-1966) [5CD Box Set] (2004)
Dave Brubeck - Modern Jazz Archive [Recorded 1946-1982] (2004)
Dave Brubeck - Supreme Jazz [Recorded 1954-1956] (2006)
Dave Brubeck Quartet - Complete 1958 Berlin Concert (2008)
Dave Brubeck Quartet - The 1965 Canadian Concert (2008)